  0
SECTION
  2
HEADER
  9
$ACADVER
  1
AC1009
  9
$DWGCODEPAGE
  3
dos932
  9
$INSBASE
 10
203.5000000000
 20
142.0000000000
  9
$EXTMIN
 10
-48.5030324142
 20
-35.0845884969
  9
$EXTMAX
 10
595.5434646033
 20
319.0845884969
  9
$LIMMIN
 10
-48.5030324142
 20
-35.0845884969
  9
$LIMMAX
 10
595.5434646033
 20
319.0845884969
  9
$VIEWCTR
 10
0.0000000000
 20
0.0000000000
  9
$VIEWSIZE
 40
0.0000000000
  9
$SNAPMODE
 70
     0
  9
$SNAPUNIT
 10
20.0
 20
20.0
  9
$SNAPBASE
 10
0.000000
 20
0.000000
  9
$SNAPANG
 50
0.0
  9
$SNAPSTYLE
 70
     0
  9
$SNAPISOPAIR
 70
     0
  9
$GRIDMODE
 70
     0
  9
$GRIDUNIT
 10
10.000000
 20
10.000000
  9
$ORTHOMODE
 70
     0
  9
$REGENMODE
 70
     0
  9
$FILLMODE
 70
     1
  9
$QTEXTMODE
 70
     0
  9
$DRAGMODE
 70
     1
  9
$LTSCALE
 40
1.0
  9
$OSMODE
 70
     0
  9
$ATTMODE
 70
     1
  9
$TEXTSIZE
 40
4.000000
  9
$TRACEWID
 40
0.05
  9
$TEXTSTYLE
  7
STANDARD
  9
$CLAYER
  8
3
  9
$CELTYPE
  6
CONTINUOUS
  9
$CECOLOR
  62
7
  9
$DIMSCALE
 40
1.0000000000
  9
$DIMASZ
 40
2.0000000000
  9
$DIMEXO
 40
0.5000000000
  9
$DIMDLI
 40
7.000000
  9
$DIMRND
 40
0.0
  9
$DIMDLE
 40
0.0
  9
$DIMEXE
 40
1.0000000000
  9
$DIMTP
 40
0.0
  9
$DIMTM
 40
0.0
  9
$DIMTXT
 40
3.500000
  9
$DIMCEN
 40
0.09
  9
$DIMTSZ
 40
0.0
  9
$DIMTOL
 70
     0
  9
$DIMLIM
 70
     0
  9
$DIMTIH
 70
     0
  9
$DIMTOH
 70
     0
  9
$DIMSE1
 70
     0
  9
$DIMSE2
 70
     0
  9
$DIMTAD
 70
     1
  9
$DIMZIN
 70
     0
  9
$DIMBLK
  1

  9
$DIMASO
 70
     1
  9
$DIMSHO
 70
     0
  9
$DIMPOST
  1

  9
$DIMAPOST
  1

  9
$DIMALT
 70
     0
  9
$DIMALTD
 70
     3
  9
$DIMCLRD
 70
     5
  9
$DIMCLRE
 70
     5
  9
$DIMCLRT
 70
     7
  9
$DIMALTF
 40
25.4
  9
$DIMLFAC
 40
1.0
  9
$DIMTOFL
 70
     0
  9
$DIMTVP
 40
0.0
  9
$DIMTIX
 70
     0
  9
$DIMSOXD
 70
     0
  9
$DIMSAH
 70
     0
  9
$LUNITS
 70
     2
  9
$LUPREC
 70
     4
  9
$AXISMODE
 70
     0
  9
$AXISUNIT
 10
0.0
 20
0.0
  9
$SKETCHINC
 40
0.1
  9
$FILLETRAD
 40
0.0
  9
$AUNITS
 70
     0
  9
$AUPREC
 70
     0
  9
$MENU
  1
ACAD
  9
$ELEVATION
 40
0.0
  9
$THICKNESS
 40
0.0
  9
$VIEWDIR
 10
0.0
 20
0.0
 30
1.0
  9
$LIMCHECK
 70
     0
  9
$BLIPMODE
 70
     1
  9
$CHAMFERA
 40
0.0
  9
$CHAMFERB
 40
0.0
  9
$FASTZOOM
 70
     1
  9
$SKPOLY
 70
     0
  9
$TDCREATE
 40
2460019.0000000051
  9
$TDUPDATE
 40
2460019.0000000051
  9
$TDINDWG
 40
0.0000000000
  9
$TDUSRTIMER
 40
0.0000000000
  9
$USRTIMER
 70
     1
  9
$ANGBASE
 50
0.0
  9
$ANGDIR
 70
     0
  9
$PDMODE
 70
     65
  9
$PDSIZE
 40
0.2
  9
$PLINEWID
 40
0.0
  9
$COORDS
 70
     2
  9
$USERI1
 70
     0
  9
$USERI2
 70
     0
  9
$USERI3
 70
     0
  9
$USERI4
 70
     0
  9
$USERI5
 70
     0
  9
$USERR1
 40
0.0
  9
$USERR2
 40
0.0
  9
$USERR3
 40
0.0
  9
$USERR4
 40
0.0
  9
$USERR5
 40
0.0
  0
ENDSEC
  0
SECTION
  2
TABLES
  0
TABLE
  2
LTYPE
 70
     9
  0
LTYPE
  2
CONTINUOUS
 70
    64
  3
Solid line
 72
    65
 73
     0
 40
0.0
  0
LTYPE
  2
DASHED
 70
    64
  3
__ __ __ __ __ __ __ __ __ __ __ __ __ __ __
 72
    65
 73
     2
 40
3.0
 49
2.0
 49
-1.0
  0
LTYPE
  2
HIDDEN
 70
    64
  3
_ _ _ _ _ _ _ _ _ _ _ _ _ _ _ _ _ _ _ _ _ _ _
 72
    65
 73
     2
 40
1.5
 49
1.0
 49
-0.5
  0
LTYPE
  2
CENTER
 70
    64
  3
____ _ ____ _ ____ _ ____ _ ____ _ ____ _ ____
 72
    65
 73
     4
 40
24.0
 49
20.0
 49
-1.0
 49
2.0
 49
-1.0
  0
LTYPE
  2
PHANTOM
 70
    64
  3
_____ _ _ _____ _ _ _____ _ _ _____ _ _ ____
 72
    65
 73
     6
 40
27.0
 49
20.0
 49
-1.0
 49
2.0
 49
-1.0
 49
2.0
 49
-1.0
  0
LTYPE
  2
DOT
 70
    64
  3
...............................................
 72
    65
 73
     2
 40
1.5
 49
0.5
 49
-1.0
  0
LTYPE
  2
DASHDOT
 70
    64
  3
__ . __ . __ . __ . __ . __ . __ . __ . __ . __
 72
    65
 73
     4
 40
8.5
 49
6.0
 49
-1.0
 49
0.5
 49
-1.0
  0
LTYPE
  2
DIVIDE
 70
    64
  3
__ . . __ . . __ . . __ . . __ . . __ . . __
 72
    65
 73
     6
 40
10.0
 49
6.0
 49
-1.0
 49
0.5
 49
-1.0
 49
0.5
 49
-1.0
  0
LTYPE
  2
BORDER
 70
    64
  3
__ __ . __ __ . __ __ . __ __ . __ __ . __ __
 72
    65
 73
     6
 40
15.5
 49
6.0
 49
-1.0
 49
6.0
 49
-1.0
 49
0.5
 49
-1.0
  0
ENDTAB
  0
TABLE
  2
LAYER
 70
  7
  0
LAYER
  2
0
 70
    64
 62
     7
  6
CONTINUOUS
  0
LAYER
  2
1
 70
    64
 62
     7
  6
CONTINUOUS
  0
LAYER
  2
2
 70
    64
 62
     7
  6
CONTINUOUS
  0
LAYER
  2
3
 70
    64
 62
     7
  6
CONTINUOUS
  0
LAYER
  2
4
 70
    64
 62
     7
  6
CONTINUOUS
  0
LAYER
  2
5
 70
    64
 62
     7
  6
CONTINUOUS
  0
LAYER
  2
DEFPOINTS
 70
     0
 62
    -7
  6
CONTINUOUS
  0
ENDTAB
  0
TABLE
  2
STYLE
 70
     1
  0
STYLE
  2
STANDARD
 70
    64
 40
0.0
 41
1.0
 71
     0
 42
4.000000
  3
TXT
  4
EXTFONT
 50
0.0
  0
ENDTAB
  0
TABLE
  2
VIEW
 70
     0
  0
ENDTAB
  0
ENDSEC
  0
SECTION
  2
BLOCKS
  0
BLOCK
  8
0
  2
CI
 70
   0
 10
0.0
 20
0.0
  0
CIRCLE
  8
0
  62
0
 10
0.0
 20
0.0
 40
0.1666666666
  0
ENDBLK
  8
0
  0
BLOCK
  8
5
  2
S0
 70
     0
 10
0.0000000000
 20
0.0000000000
  3
S0
  0
POINT
  8
5
  6
CONTINUOUS
 62
6
 10
-6.5000000000
 20
-6.5000000000
  0
LINE
  8
5
  6
CONTINUOUS
 62
6
 10
4.5000000000
 20
4.5000000000
 11
402.5000000000
 21
4.5000000000
  0
LINE
  8
5
  6
CONTINUOUS
 62
6
 10
4.5000000000
 20
4.5000000000
 11
4.5000000000
 21
279.5000000000
  0
LINE
  8
5
  6
CONTINUOUS
 62
6
 10
44.5000000000
 20
284.0000000000
 11
44.5000000000
 21
279.5000000000
  0
LINE
  8
5
  6
CONTINUOUS
 62
6
 10
44.5000000000
 20
4.5000000000
 11
44.5000000000
 21
0.0000000000
  0
LINE
  8
5
  6
CONTINUOUS
 62
6
 10
84.5000000000
 20
284.0000000000
 11
84.5000000000
 21
279.5000000000
  0
LINE
  8
5
  6
CONTINUOUS
 62
6
 10
124.5000000000
 20
284.0000000000
 11
124.5000000000
 21
279.5000000000
  0
LINE
  8
5
  6
CONTINUOUS
 62
6
 10
164.5000000000
 20
284.0000000000
 11
164.5000000000
 21
279.5000000000
  0
LINE
  8
5
  6
CONTINUOUS
 62
6
 10
204.5000000000
 20
284.0000000000
 11
204.5000000000
 21
279.5000000000
  0
LINE
  8
5
  6
CONTINUOUS
 62
6
 10
244.5000000000
 20
284.0000000000
 11
244.5000000000
 21
279.5000000000
  0
LINE
  8
5
  6
CONTINUOUS
 62
6
 10
84.5000000000
 20
4.5000000000
 11
84.5000000000
 21
0.0000000000
  0
LINE
  8
5
  6
CONTINUOUS
 62
6
 10
124.5000000000
 20
4.5000000000
 11
124.5000000000
 21
0.0000000000
  0
LINE
  8
5
  6
CONTINUOUS
 62
6
 10
164.5000000000
 20
4.5000000000
 11
164.5000000000
 21
0.0000000000
  0
LINE
  8
5
  6
CONTINUOUS
 62
6
 10
204.5000000000
 20
4.5000000000
 11
204.5000000000
 21
0.0000000000
  0
LINE
  8
5
  6
CONTINUOUS
 62
6
 10
244.5000000000
 20
4.5000000000
 11
244.5000000000
 21
0.0000000000
  0
LINE
  8
5
  6
CONTINUOUS
 62
6
 10
0.0000000000
 20
239.5000000000
 11
4.5000000000
 21
239.5000000000
  0
LINE
  8
5
  6
CONTINUOUS
 62
6
 10
402.5000000000
 20
239.5000000000
 11
407.0000000000
 21
239.5000000000
  0
LINE
  8
5
  6
CONTINUOUS
 62
6
 10
0.0000000000
 20
199.5000000000
 11
4.5000000000
 21
199.5000000000
  0
LINE
  8
5
  6
CONTINUOUS
 62
6
 10
0.0000000000
 20
159.5000000000
 11
4.5000000000
 21
159.5000000000
  0
LINE
  8
5
  6
CONTINUOUS
 62
6
 10
0.0000000000
 20
119.5000000000
 11
4.5000000000
 21
119.5000000000
  0
LINE
  8
5
  6
CONTINUOUS
 62
6
 10
402.5000000000
 20
199.5000000000
 11
407.0000000000
 21
199.5000000000
  0
LINE
  8
5
  6
CONTINUOUS
 62
6
 10
402.5000000000
 20
159.5000000000
 11
407.0000000000
 21
159.5000000000
  0
LINE
  8
5
  6
CONTINUOUS
 62
6
 10
402.5000000000
 20
119.5000000000
 11
407.0000000000
 21
119.5000000000
  0
TEXT
  8
5
  6
CONTINUOUS
 62
6
 10
23.500000
 20
279.500000
 40
4.000000
  1
1
 41
1.000000
 50
0.000000
 51
0.000000
 72
   5
 73
   0
 11
25.500000
 21
279.500000
  0
TEXT
  8
5
  6
CONTINUOUS
 62
6
 10
23.500000
 20
0.500000
 40
4.000000
  1
1
 41
1.000000
 50
0.000000
 51
0.000000
 72
   5
 73
   0
 11
25.500000
 21
0.500000
  0
TEXT
  8
5
  6
CONTINUOUS
 62
6
 10
63.500000
 20
279.500000
 40
4.000000
  1
2
 41
1.000000
 50
0.000000
 51
0.000000
 72
   5
 73
   0
 11
65.500000
 21
279.500000
  0
TEXT
  8
5
  6
CONTINUOUS
 62
6
 10
103.500000
 20
279.500000
 40
4.000000
  1
3
 41
1.000000
 50
0.000000
 51
0.000000
 72
   5
 73
   0
 11
105.500000
 21
279.500000
  0
TEXT
  8
5
  6
CONTINUOUS
 62
6
 10
143.500000
 20
279.500000
 40
4.000000
  1
4
 41
1.000000
 50
0.000000
 51
0.000000
 72
   5
 73
   0
 11
145.500000
 21
279.500000
  0
TEXT
  8
5
  6
CONTINUOUS
 62
6
 10
183.500000
 20
279.500000
 40
4.000000
  1
5
 41
1.000000
 50
0.000000
 51
0.000000
 72
   5
 73
   0
 11
185.500000
 21
279.500000
  0
TEXT
  8
5
  6
CONTINUOUS
 62
6
 10
223.500000
 20
279.500000
 40
4.000000
  1
6
 41
1.000000
 50
0.000000
 51
0.000000
 72
   5
 73
   0
 11
225.500000
 21
279.500000
  0
TEXT
  8
5
  6
CONTINUOUS
 62
6
 10
263.500000
 20
279.500000
 40
4.000000
  1
7
 41
1.000000
 50
0.000000
 51
0.000000
 72
   5
 73
   0
 11
265.500000
 21
279.500000
  0
TEXT
  8
5
  6
CONTINUOUS
 62
6
 10
63.500000
 20
0.500000
 40
4.000000
  1
2
 41
1.000000
 50
0.000000
 51
0.000000
 72
   5
 73
   0
 11
65.500000
 21
0.500000
  0
TEXT
  8
5
  6
CONTINUOUS
 62
6
 10
103.500000
 20
0.500000
 40
4.000000
  1
3
 41
1.000000
 50
0.000000
 51
0.000000
 72
   5
 73
   0
 11
105.500000
 21
0.500000
  0
TEXT
  8
5
  6
CONTINUOUS
 62
6
 10
143.500000
 20
0.500000
 40
4.000000
  1
4
 41
1.000000
 50
0.000000
 51
0.000000
 72
   5
 73
   0
 11
145.500000
 21
0.500000
  0
TEXT
  8
5
  6
CONTINUOUS
 62
6
 10
183.500000
 20
0.500000
 40
4.000000
  1
5
 41
1.000000
 50
0.000000
 51
0.000000
 72
   5
 73
   0
 11
185.500000
 21
0.500000
  0
TEXT
  8
5
  6
CONTINUOUS
 62
6
 10
223.500000
 20
0.500000
 40
4.000000
  1
6
 41
1.000000
 50
0.000000
 51
0.000000
 72
   5
 73
   0
 11
225.500000
 21
0.500000
  0
TEXT
  8
5
  6
CONTINUOUS
 62
6
 10
263.500000
 20
0.500000
 40
4.000000
  1
7
 41
1.000000
 50
0.000000
 51
0.000000
 72
   5
 73
   0
 11
265.500000
 21
0.500000
  0
TEXT
  8
5
  6
CONTINUOUS
 62
6
 10
1.626773
 20
257.454143
 40
4.000000
  1
A
 41
1.266000
 50
0.000000
 51
0.000000
 72
   5
 73
   0
 11
4.158773
 21
257.454143
  0
TEXT
  8
5
  6
CONTINUOUS
 62
6
 10
402.786513
 20
257.492354
 40
4.000000
  1
A
 41
1.266000
 50
0.000000
 51
0.000000
 72
   5
 73
   0
 11
405.318513
 21
257.492354
  0
TEXT
  8
5
  6
CONTINUOUS
 62
6
 10
1.610773
 20
217.454143
 40
4.000000
  1
B
 41
1.274000
 50
0.000000
 51
0.000000
 72
   5
 73
   0
 11
4.158773
 21
217.454143
  0
TEXT
  8
5
  6
CONTINUOUS
 62
6
 10
1.502773
 20
177.454143
 40
4.000000
  1
C
 41
1.328000
 50
0.000000
 51
0.000000
 72
   5
 73
   0
 11
4.158773
 21
177.454143
  0
TEXT
  8
5
  6
CONTINUOUS
 62
6
 10
1.566773
 20
137.454143
 40
4.000000
  1
D
 41
1.296000
 50
0.000000
 51
0.000000
 72
   5
 73
   0
 11
4.158773
 21
137.454143
  0
TEXT
  8
5
  6
CONTINUOUS
 62
6
 10
1.894773
 20
97.454143
 40
4.000000
  1
E
 41
1.132000
 50
0.000000
 51
0.000000
 72
   5
 73
   0
 11
4.158773
 21
97.454143
  0
TEXT
  8
5
  6
CONTINUOUS
 62
6
 10
402.786513
 20
217.492354
 40
4.000000
  1
B
 41
1.274000
 50
0.000000
 51
0.000000
 72
   5
 73
   0
 11
405.334513
 21
217.492354
  0
TEXT
  8
5
  6
CONTINUOUS
 62
6
 10
402.786513
 20
177.492354
 40
4.000000
  1
C
 41
1.328000
 50
0.000000
 51
0.000000
 72
   5
 73
   0
 11
405.442513
 21
177.492354
  0
TEXT
  8
5
  6
CONTINUOUS
 62
6
 10
402.786513
 20
137.492354
 40
4.000000
  1
D
 41
1.296000
 50
0.000000
 51
0.000000
 72
   5
 73
   0
 11
405.378513
 21
137.492354
  0
TEXT
  8
5
  6
CONTINUOUS
 62
6
 10
402.786513
 20
97.492354
 40
4.000000
  1
E
 41
1.132000
 50
0.000000
 51
0.000000
 72
   5
 73
   0
 11
405.050513
 21
97.492354
  0
LINE
  8
5
  6
CONTINUOUS
 62
6
 10
347.5000000000
 20
29.5000000000
 11
347.5000000000
 21
4.5000000000
  0
LINE
  8
5
  6
CONTINUOUS
 62
6
 10
347.5000000000
 20
14.5000000000
 11
402.5000000000
 21
14.5000000000
  0
LINE
  8
5
  6
CONTINUOUS
 62
6
 10
347.5000000000
 20
7.5000000000
 11
281.5000000000
 21
7.5000000000
  0
LINE
  8
5
  6
CONTINUOUS
 62
6
 10
303.5000000000
 20
4.5000000000
 11
303.5000000000
 21
21.0000000000
  0
LINE
  8
5
  6
CONTINUOUS
 62
6
 10
336.5000000000
 20
17.0000000000
 11
336.5000000000
 21
4.5000000000
  0
LINE
  8
5
  6
CONTINUOUS
 62
6
 10
325.5000000000
 20
4.5000000000
 11
325.4999999999
 21
21.0000000000
  0
LINE
  8
5
  6
CONTINUOUS
 62
6
 10
314.5000000000
 20
17.0000000000
 11
314.5000000000
 21
4.5000000000
  0
TEXT
  8
5
  6
CONTINUOUS
 62
6
 10
294.250000
 20
4.750000
 40
2.500000
  1
Design
 41
0.779221
 50
0.000000
 51
0.000000
 72
   5
 73
   0
 11
301.750000
 21
4.750000
  0
TEXT
  8
5
  6
CONTINUOUS
 62
6
 10
305.875000
 20
4.750000
 40
2.500000
  1
Draft
 41
0.786164
 50
0.000000
 51
0.000000
 72
   5
 73
   0
 11
312.125000
 21
4.750000
  0
TEXT
  8
5
  6
CONTINUOUS
 62
6
 10
316.875000
 20
4.750000
 40
2.500000
  1
Check
 41
0.786164
 50
0.000000
 51
0.000000
 72
   5
 73
   0
 11
323.125000
 21
4.750000
  0
LINE
  8
5
  6
CONTINUOUS
 62
6
 10
281.5000000000
 20
29.5000000000
 11
402.5000000000
 21
29.5000000000
  0
LINE
  8
5
  6
CONTINUOUS
 62
6
 10
281.5000000000
 20
17.0000000000
 11
347.5000000000
 21
17.0000000000
  0
LINE
  8
5
  6
CONTINUOUS
 62
6
 10
392.5000000000
 20
14.5000000000
 11
392.5000000000
 21
4.5000000000
  0
TEXT
  8
5
  6
CONTINUOUS
 62
6
 10
395.520000
 20
5.000000
 40
2.000000
  1
SIZE
 41
0.788845
 50
0.000000
 51
0.000000
 72
   5
 73
   0
 11
399.480000
 21
5.000000
  0
LINE
  8
5
  6
CONTINUOUS
 62
6
 10
392.5000000000
 20
7.5000000000
 11
402.5000000000
 21
7.5000000000
  0
TEXT
  8
5
  6
CONTINUOUS
 62
6
 10
394.005000
 20
8.500000
 40
5.000000
  1
Ａ３
 41
0.644240
 50
0.000000
 51
0.000000
 72
   5
 73
   0
 11
400.995000
 21
8.500000
  0
TEXT
  8
5
  6
CONTINUOUS
 62
6
 10
338.875000
 20
4.750000
 40
2.500000
  1
Scale
 41
0.786164
 50
0.000000
 51
0.000000
 72
   5
 73
   0
 11
345.125000
 21
4.750000
  0
TEXT
  8
5
  6
CONTINUOUS
 62
6
 10
338.250000
 20
9.750000
 40
5.000000
  1
1/1
 41
0.815217
 50
0.000000
 51
0.000000
 72
   5
 73
   0
 11
345.750000
 21
9.750000
  0
TEXT
  8
5
  6
CONTINUOUS
 62
6
 10
326.625000
 20
4.750000
 40
2.500000
  1
Confirm
 41
0.774336
 50
0.000000
 51
0.000000
 72
   5
 73
   0
 11
335.375000
 21
4.750000
  0
TEXT
  8
5
  6
CONTINUOUS
 62
6
 10
284.500000
 20
4.750000
 40
2.500000
  1
Date
 41
0.796813
 50
0.000000
 51
0.000000
 72
   5
 73
   0
 11
289.500000
 21
4.750000
  0
TEXT
  8
5
  6
CONTINUOUS
 62
6
 10
283.250000
 20
12.462500
 40
3.000000
  1
2008/
 41
0.786164
 50
0.000000
 51
0.000000
 72
   5
 73
   0
 11
290.750000
 21
12.462500
  0
TEXT
  8
5
  6
CONTINUOUS
 62
6
 10
283.250000
 20
9.037500
 40
3.000000
  1
04/10
 41
0.786164
 50
0.000000
 51
0.000000
 72
   5
 73
   0
 11
290.750000
 21
9.037500
  0
LINE
  8
5
  6
CONTINUOUS
 62
6
 10
292.5000000000
 20
17.0000000000
 11
292.5000000000
 21
4.5000000000
  0
LINE
  8
5
  6
CONTINUOUS
 62
6
 10
281.5000000000
 20
4.5000000000
 11
281.5000000000
 21
29.5000000000
  0
TEXT
  8
5
  6
CONTINUOUS
 62
6
 10
281.755293
 20
18.213190
 40
2.000000
  1
Material
 41
0.638921
 50
0.000000
 51
0.000000
 72
   5
 73
   0
 11
288.387293
 21
18.213190
  0
LINE
  8
5
  6
CONTINUOUS
 62
6
 10
288.5000000000
 20
21.0000000000
 11
288.5000000000
 21
17.0000000000
  0
TEXT
  8
5
  6
CONTINUOUS
 62
6
 10
303.605000
 20
18.000000
 40
2.000000
  1
Process
 41
0.751106
 50
0.000000
 51
0.000000
 72
   5
 73
   0
 11
310.395000
 21
18.000000
  0
LINE
  8
5
  6
CONTINUOUS
 62
6
 10
310.5000000000
 20
21.0000000000
 11
310.5000000000
 21
17.0000000000
  0
TEXT
  8
5
  6
CONTINUOUS
 62
6
 10
325.773000
 20
18.000000
 40
2.000000
  1
Amount
 41
0.838182
 50
0.000000
 51
0.000000
 72
   5
 73
   0
 11
332.227000
 21
18.000000
  0
LINE
  8
5
  6
CONTINUOUS
 62
6
 10
332.4999999999
 20
21.0000000000
 11
332.4999999999
 21
17.0000000000
  0
LINE
  8
5
  6
CONTINUOUS
 62
6
 10
347.5000000000
 20
21.0000000000
 11
281.5000000000
 21
21.0000000000
  0
POINT
  8
5
  6
CONTINUOUS
 62
6
 10
289.5000000000
 20
19.0000000000
  0
POINT
  8
5
  6
CONTINUOUS
 62
6
 10
311.5000000000
 20
19.0000000000
  0
POINT
  8
5
  6
CONTINUOUS
 62
6
 10
339.9999999999
 20
19.0000000000
  0
POINT
  8
5
  6
CONTINUOUS
 62
6
 10
298.0000000000
 20
12.2500000000
  0
POINT
  8
5
  6
CONTINUOUS
 62
6
 10
309.0000000000
 20
12.2500000000
  0
POINT
  8
5
  6
CONTINUOUS
 62
6
 10
320.0000000000
 20
12.2500000000
  0
POINT
  8
5
  6
CONTINUOUS
 62
6
 10
331.0000000000
 20
12.2500000000
  0
POINT
  8
5
  6
CONTINUOUS
 62
6
 10
0.0000000000
 20
0.0000000000
  0
TEXT
  8
5
  6
CONTINUOUS
 62
7
 10
301.099806
 20
20.780083
 40
4.000000
  1
MADOKA SYSTEM co,.ltd
 41
0.778201
 50
0.000000
 51
0.000000
 72
   5
 73
   0
 11
344.367806
 21
20.780083
  0
LINE
  8
5
  6
CONTINUOUS
 62
6
 10
284.5000000000
 20
284.0000000000
 11
284.5000000000
 21
279.5000000000
  0
LINE
  8
5
  6
CONTINUOUS
 62
6
 10
284.5000000000
 20
4.5000000000
 11
284.5000000000
 21
0.0000000000
  0
TEXT
  8
5
  6
CONTINUOUS
 62
6
 10
303.500000
 20
279.500000
 40
4.000000
  1
8
 41
1.000000
 50
0.000000
 51
0.000000
 72
   5
 73
   0
 11
305.500000
 21
279.500000
  0
TEXT
  8
5
  6
CONTINUOUS
 62
6
 10
303.500000
 20
0.500000
 40
4.000000
  1
8
 41
1.000000
 50
0.000000
 51
0.000000
 72
   5
 73
   0
 11
305.500000
 21
0.500000
  0
LINE
  8
5
  6
CONTINUOUS
 62
6
 10
324.5000000000
 20
284.0000000000
 11
324.5000000000
 21
279.5000000000
  0
LINE
  8
5
  6
CONTINUOUS
 62
6
 10
324.5000000000
 20
4.5000000000
 11
324.5000000000
 21
0.0000000000
  0
TEXT
  8
5
  6
CONTINUOUS
 62
6
 10
343.500000
 20
279.500000
 40
4.000000
  1
9
 41
1.000000
 50
0.000000
 51
0.000000
 72
   5
 73
   0
 11
345.500000
 21
279.500000
  0
TEXT
  8
5
  6
CONTINUOUS
 62
6
 10
343.500000
 20
0.500000
 40
4.000000
  1
9
 41
1.000000
 50
0.000000
 51
0.000000
 72
   5
 73
   0
 11
345.500000
 21
0.500000
  0
LINE
  8
5
  6
CONTINUOUS
 62
6
 10
364.5000000000
 20
284.0000000000
 11
364.5000000000
 21
279.5000000000
  0
LINE
  8
5
  6
CONTINUOUS
 62
6
 10
364.5000000000
 20
4.5000000000
 11
364.5000000000
 21
0.0000000000
  0
TEXT
  8
5
  6
CONTINUOUS
 62
6
 10
382.500000
 20
279.500000
 40
4.000000
  1
10
 41
0.854701
 50
0.000000
 51
0.000000
 72
   5
 73
   0
 11
386.500000
 21
279.500000
  0
TEXT
  8
5
  6
CONTINUOUS
 62
6
 10
382.500000
 20
0.500000
 40
4.000000
  1
10
 41
0.854701
 50
0.000000
 51
0.000000
 72
   5
 73
   0
 11
386.500000
 21
0.500000
  0
LINE
  8
5
  6
CONTINUOUS
 62
6
 10
0.0000000000
 20
79.5000000000
 11
4.5000000000
 21
79.5000000000
  0
LINE
  8
5
  6
CONTINUOUS
 62
6
 10
402.5000000000
 20
79.5000000000
 11
407.0000000000
 21
79.5000000000
  0
LINE
  8
5
  6
CONTINUOUS
 62
6
 10
0.0000000000
 20
39.5000000000
 11
4.5000000000
 21
39.5000000000
  0
LINE
  8
5
  6
CONTINUOUS
 62
6
 10
402.5000000000
 20
39.5000000000
 11
407.0000000000
 21
39.5000000000
  0
TEXT
  8
5
  6
CONTINUOUS
 62
6
 10
1.954773
 20
57.454143
 40
4.000000
  1
F
 41
1.102000
 50
0.000000
 51
0.000000
 72
   5
 73
   0
 11
4.158773
 21
57.454143
  0
TEXT
  8
5
  6
CONTINUOUS
 62
6
 10
402.786513
 20
57.492354
 40
4.000000
  1
F
 41
1.102000
 50
0.000000
 51
0.000000
 72
   5
 73
   0
 11
404.990513
 21
57.492354
  0
TEXT
  8
5
  6
CONTINUOUS
 62
6
 10
1.438773
 20
17.454143
 40
4.000000
  1
G
 41
1.360000
 50
0.000000
 51
0.000000
 72
   5
 73
   0
 11
4.158773
 21
17.454143
  0
TEXT
  8
5
  6
CONTINUOUS
 62
6
 10
402.786513
 20
17.492354
 40
4.000000
  1
G
 41
1.360000
 50
0.000000
 51
0.000000
 72
   5
 73
   0
 11
405.506513
 21
17.492354
  0
LINE
  8
5
  6
CONTINUOUS
 62
6
 10
4.5000000000
 20
279.5000000000
 11
402.5000000000
 21
279.5000000000
  0
LINE
  8
5
  6
CONTINUOUS
 62
6
 10
402.5000000000
 20
279.5000000000
 11
402.5000000000
 21
4.5000000000
  0
POINT
  8
5
  6
CONTINUOUS
 62
6
 10
353.5000000000
 20
20.5000000000
  0
POINT
  8
5
  6
CONTINUOUS
 62
6
 10
353.5000000000
 20
8.0000000000
  0
LINE
  8
5
  6
CONTINUOUS
 62
6
 10
347.5000000000
 20
26.5000000000
 11
402.5000000000
 21
26.5000000000
  0
LINE
  8
5
  6
CONTINUOUS
 62
6
 10
347.5000000000
 20
11.5000000000
 11
392.5000000000
 21
11.5000000000
  0
TEXT
  8
5
  6
CONTINUOUS
 62
7
 10
362.928500
 20
26.250000
 40
3.500000
  1
Document Name
 41
0.807728
 50
0.000000
 51
0.000000
 72
   5
 73
   0
 11
387.071500
 21
26.250000
  0
TEXT
  8
5
  6
CONTINUOUS
 62
7
 10
359.678500
 20
11.250000
 40
3.500000
  1
Document No.
 41
0.749428
 50
0.000000
 51
0.000000
 72
   5
 73
   0
 11
380.321500
 21
11.250000
  0
ENDBLK
  8
0
  0
BLOCK
  8
5
  2
S1
 70
     0
 10
315.5000000000
 20
252.5000000000
  3
S1
  0
LINE
  8
5
  6
CONTINUOUS
 62
6
 10
228.5000000000
 20
272.5000000000
 11
228.5000000000
 21
277.5000000000
  0
LINE
  8
5
  6
CONTINUOUS
 62
6
 10
228.5000000000
 20
277.5000000000
 11
233.5000000000
 21
277.5000000000
  0
LINE
  8
5
  6
CONTINUOUS
 62
6
 10
233.5000000000
 20
277.5000000000
 11
253.5000000000
 21
277.5000000000
  0
LINE
  8
5
  6
CONTINUOUS
 62
6
 10
253.5000000000
 20
277.5000000000
 11
293.5000000000
 21
277.5000000000
  0
LINE
  8
5
  6
CONTINUOUS
 62
6
 10
293.5000000000
 20
277.5000000000
 11
308.5000000000
 21
277.5000000000
  0
LINE
  8
5
  6
CONTINUOUS
 62
6
 10
308.5000000000
 20
277.5000000000
 11
313.5000000000
 21
277.5000000000
  0
LINE
  8
5
  6
CONTINUOUS
 62
6
 10
313.5000000000
 20
277.5000000000
 11
313.5000000000
 21
272.5000000000
  0
LINE
  8
5
  6
CONTINUOUS
 62
6
 10
313.5000000000
 20
272.5000000000
 11
308.5000000000
 21
272.5000000000
  0
LINE
  8
5
  6
CONTINUOUS
 62
6
 10
308.5000000000
 20
272.5000000000
 11
293.5000000000
 21
272.5000000000
  0
LINE
  8
5
  6
CONTINUOUS
 62
6
 10
293.5000000000
 20
272.5000000000
 11
253.5000000000
 21
272.5000000000
  0
LINE
  8
5
  6
CONTINUOUS
 62
6
 10
253.5000000000
 20
272.5000000000
 11
233.5000000000
 21
272.5000000000
  0
LINE
  8
5
  6
CONTINUOUS
 62
6
 10
233.5000000000
 20
272.5000000000
 11
228.5000000000
 21
272.5000000000
  0
LINE
  8
5
  6
CONTINUOUS
 62
6
 10
233.5000000000
 20
277.5000000000
 11
233.5000000000
 21
272.5000000000
  0
LINE
  8
5
  6
CONTINUOUS
 62
6
 10
253.5000000000
 20
277.5000000000
 11
253.5000000000
 21
272.5000000000
  0
LINE
  8
5
  6
CONTINUOUS
 62
6
 10
293.5000000000
 20
277.5000000000
 11
293.5000000000
 21
272.5000000000
  0
LINE
  8
5
  6
CONTINUOUS
 62
6
 10
308.5000000000
 20
277.5000000000
 11
308.5000000000
 21
272.5000000000
  0
TEXT
  8
5
  6
CONTINUOUS
 62
7
 10
228.700000
 20
273.850000
 40
2.300000
  1
項番
 41
0.921659
 50
0.000000
 51
0.000000
 72
   5
 73
   0
 11
233.300000
 21
273.850000
  0
TEXT
  8
5
  6
CONTINUOUS
 62
7
 10
238.508000
 20
273.500000
 40
3.000000
  1
品　　名
 41
0.737916
 50
0.000000
 51
0.000000
 72
   5
 73
   0
 11
248.492000
 21
273.500000
  0
TEXT
  8
5
  6
CONTINUOUS
 62
7
 10
258.347000
 20
273.500000
 40
3.000000
  1
定  格 / 型  番 / 材　質
 41
0.686277
 50
0.000000
 51
0.000000
 72
   5
 73
   0
 11
288.653000
 21
273.500000
  0
TEXT
  8
5
  6
CONTINUOUS
 62
7
 10
295.802500
 20
273.500000
 40
3.000000
  1
メーカー
 41
0.768293
 50
0.000000
 51
0.000000
 72
   5
 73
   0
 11
306.197500
 21
273.500000
  0
TEXT
  8
5
  6
CONTINUOUS
 62
7
 10
308.700000
 20
273.850000
 40
2.300000
  1
数量
 41
0.921659
 50
0.000000
 51
0.000000
 72
   5
 73
   0
 11
313.300000
 21
273.850000
  0
LINE
  8
5
  6
CONTINUOUS
 62
6
 10
228.5000000000
 20
267.5000000000
 11
228.5000000000
 21
272.5000000000
  0
LINE
  8
5
  6
CONTINUOUS
 62
6
 10
228.5000000000
 20
272.5000000000
 11
233.5000000000
 21
272.5000000000
  0
LINE
  8
5
  6
CONTINUOUS
 62
6
 10
233.5000000000
 20
272.5000000000
 11
253.5000000000
 21
272.5000000000
  0
LINE
  8
5
  6
CONTINUOUS
 62
6
 10
253.5000000000
 20
272.5000000000
 11
293.5000000000
 21
272.5000000000
  0
LINE
  8
5
  6
CONTINUOUS
 62
6
 10
293.5000000000
 20
272.5000000000
 11
308.5000000000
 21
272.5000000000
  0
LINE
  8
5
  6
CONTINUOUS
 62
6
 10
308.5000000000
 20
272.5000000000
 11
313.5000000000
 21
272.5000000000
  0
LINE
  8
5
  6
CONTINUOUS
 62
6
 10
313.5000000000
 20
272.5000000000
 11
313.5000000000
 21
267.5000000000
  0
LINE
  8
5
  6
CONTINUOUS
 62
6
 10
313.5000000000
 20
267.5000000000
 11
308.5000000000
 21
267.5000000000
  0
LINE
  8
5
  6
CONTINUOUS
 62
6
 10
308.5000000000
 20
267.5000000000
 11
293.5000000000
 21
267.5000000000
  0
LINE
  8
5
  6
CONTINUOUS
 62
6
 10
253.5000000000
 20
267.5000000000
 11
233.5000000000
 21
267.5000000000
  0
LINE
  8
5
  6
CONTINUOUS
 62
6
 10
233.5000000000
 20
267.5000000000
 11
228.5000000000
 21
267.5000000000
  0
LINE
  8
5
  6
CONTINUOUS
 62
6
 10
233.5000000000
 20
272.5000000000
 11
233.5000000000
 21
267.5000000000
  0
LINE
  8
5
  6
CONTINUOUS
 62
6
 10
253.5000000000
 20
272.5000000000
 11
253.5000000000
 21
267.5000000000
  0
LINE
  8
5
  6
CONTINUOUS
 62
6
 10
293.5000000000
 20
272.5000000000
 11
293.5000000000
 21
267.5000000000
  0
LINE
  8
5
  6
CONTINUOUS
 62
6
 10
308.5000000000
 20
272.5000000000
 11
308.5000000000
 21
267.5000000000
  0
TEXT
  8
5
  6
CONTINUOUS
 62
7
 10
230.125000
 20
268.250000
 40
3.500000
  1
1
 41
1.000000
 50
0.000000
 51
0.000000
 72
   5
 73
   0
 11
231.875000
 21
268.250000
  0
TEXT
  8
5
  6
CONTINUOUS
 62
7
 10
234.500000
 20
268.500000
 40
3.000000
  1
ベース
 41
0.841018
 50
0.000000
 51
0.000000
 72
   5
 73
   0
 11
242.927000
 21
268.500000
  0
TEXT
  8
5
  6
CONTINUOUS
 62
7
 10
254.329547
 20
269.028436
 40
3.000000
  1
ｱﾙﾐﾀﾞｲｷｬｽﾄ銀色塗装
 41
0.833541
 50
0.000000
 51
0.000000
 72
   5
 73
   0
 11
282.361547
 21
269.028436
  0
TEXT
  8
5
  6
CONTINUOUS
 62
7
 10
254.329547
 20
266.028436
 40
3.000000
  1
又は
 41
0.921659
 50
0.000000
 51
0.000000
 72
   5
 73
   0
 11
260.329547
 21
266.028436
  0
TEXT
  8
5
  6
CONTINUOUS
 62
7
 10
254.329547
 20
263.028436
 40
3.000000
  1
PBT 黒色(UL  V-0)
 41
0.751838
 50
0.000000
 51
0.000000
 72
   5
 73
   0
 11
278.869547
 21
263.028436
  0
TEXT
  8
5
  6
CONTINUOUS
 62
7
 10
310.125000
 20
268.250000
 40
3.500000
  1
1
 41
1.000000
 50
0.000000
 51
0.000000
 72
   5
 73
   0
 11
311.875000
 21
268.250000
  0
LINE
  8
5
  6
CONTINUOUS
 62
6
 10
313.5000000000
 20
262.5000000000
 11
308.5000000000
 21
262.5000000000
  0
LINE
  8
5
  6
CONTINUOUS
 62
6
 10
313.5000000000
 20
257.5000000000
 11
308.5000000000
 21
257.5000000000
  0
LINE
  8
5
  6
CONTINUOUS
 62
6
 10
313.5000000000
 20
252.5000000000
 11
308.5000000000
 21
252.5000000000
  0
LINE
  8
5
  6
CONTINUOUS
 62
6
 10
313.5000000000
 20
247.5000000000
 11
308.5000000000
 21
247.5000000000
  0
LINE
  8
5
  6
CONTINUOUS
 62
6
 10
313.5000000000
 20
242.5000000000
 11
308.5000000000
 21
242.5000000000
  0
LINE
  8
5
  6
CONTINUOUS
 62
6
 10
400.5000000000
 20
267.5000000000
 11
395.5000000000
 21
267.5000000000
  0
LINE
  8
5
  6
CONTINUOUS
 62
6
 10
400.5000000000
 20
262.5000000000
 11
395.5000000000
 21
262.5000000000
  0
LINE
  8
5
  6
CONTINUOUS
 62
6
 10
400.5000000000
 20
257.5000000000
 11
395.5000000000
 21
257.5000000000
  0
LINE
  8
5
  6
CONTINUOUS
 62
6
 10
308.5000000000
 20
262.5000000000
 11
293.5000000000
 21
262.5000000000
  0
LINE
  8
5
  6
CONTINUOUS
 62
6
 10
308.5000000000
 20
257.5000000000
 11
293.5000000000
 21
257.5000000000
  0
LINE
  8
5
  6
CONTINUOUS
 62
6
 10
308.5000000000
 20
252.5000000000
 11
293.5000000000
 21
252.5000000000
  0
LINE
  8
5
  6
CONTINUOUS
 62
6
 10
308.5000000000
 20
247.5000000000
 11
293.5000000000
 21
247.5000000000
  0
LINE
  8
5
  6
CONTINUOUS
 62
6
 10
308.5000000000
 20
242.5000000000
 11
293.5000000000
 21
242.5000000000
  0
LINE
  8
5
  6
CONTINUOUS
 62
6
 10
395.5000000000
 20
267.5000000000
 11
380.5000000000
 21
267.5000000000
  0
LINE
  8
5
  6
CONTINUOUS
 62
6
 10
395.5000000000
 20
262.5000000000
 11
380.5000000000
 21
262.5000000000
  0
LINE
  8
5
  6
CONTINUOUS
 62
6
 10
395.5000000000
 20
257.5000000000
 11
380.5000000000
 21
257.5000000000
  0
LINE
  8
5
  6
CONTINUOUS
 62
6
 10
293.5000000000
 20
262.5000000000
 11
253.5000000000
 21
262.5000000000
  0
LINE
  8
5
  6
CONTINUOUS
 62
6
 10
293.5000000000
 20
257.5000000000
 11
253.5000000000
 21
257.5000000000
  0
LINE
  8
5
  6
CONTINUOUS
 62
6
 10
293.5000000000
 20
252.5000000000
 11
253.5000000000
 21
252.5000000000
  0
LINE
  8
5
  6
CONTINUOUS
 62
6
 10
293.5000000000
 20
247.5000000000
 11
253.5000000000
 21
247.5000000000
  0
LINE
  8
5
  6
CONTINUOUS
 62
6
 10
293.5000000000
 20
242.5000000000
 11
253.5000000000
 21
242.5000000000
  0
LINE
  8
5
  6
CONTINUOUS
 62
6
 10
380.5000000000
 20
267.5000000000
 11
340.5000000000
 21
267.5000000000
  0
LINE
  8
5
  6
CONTINUOUS
 62
6
 10
380.5000000000
 20
262.5000000000
 11
340.5000000000
 21
262.5000000000
  0
LINE
  8
5
  6
CONTINUOUS
 62
6
 10
253.5000000000
 20
262.5000000000
 11
233.5000000000
 21
262.5000000000
  0
LINE
  8
5
  6
CONTINUOUS
 62
6
 10
253.5000000000
 20
257.5000000000
 11
233.5000000000
 21
257.5000000000
  0
LINE
  8
5
  6
CONTINUOUS
 62
6
 10
253.5000000000
 20
252.5000000000
 11
233.5000000000
 21
252.5000000000
  0
LINE
  8
5
  6
CONTINUOUS
 62
6
 10
253.5000000000
 20
247.5000000000
 11
233.5000000000
 21
247.5000000000
  0
LINE
  8
5
  6
CONTINUOUS
 62
6
 10
253.5000000000
 20
242.5000000000
 11
233.5000000000
 21
242.5000000000
  0
LINE
  8
5
  6
CONTINUOUS
 62
6
 10
340.5000000000
 20
267.5000000000
 11
320.5000000000
 21
267.5000000000
  0
LINE
  8
5
  6
CONTINUOUS
 62
6
 10
340.5000000000
 20
262.5000000000
 11
320.5000000000
 21
262.5000000000
  0
LINE
  8
5
  6
CONTINUOUS
 62
6
 10
340.5000000000
 20
257.5000000000
 11
320.5000000000
 21
257.5000000000
  0
LINE
  8
5
  6
CONTINUOUS
 62
6
 10
233.5000000000
 20
262.5000000000
 11
228.5000000000
 21
262.5000000000
  0
LINE
  8
5
  6
CONTINUOUS
 62
6
 10
233.5000000000
 20
257.5000000000
 11
228.5000000000
 21
257.5000000000
  0
LINE
  8
5
  6
CONTINUOUS
 62
6
 10
233.5000000000
 20
252.5000000000
 11
228.5000000000
 21
252.5000000000
  0
LINE
  8
5
  6
CONTINUOUS
 62
6
 10
233.5000000000
 20
247.5000000000
 11
228.5000000000
 21
247.5000000000
  0
LINE
  8
5
  6
CONTINUOUS
 62
6
 10
233.5000000000
 20
242.5000000000
 11
228.5000000000
 21
242.5000000000
  0
LINE
  8
5
  6
CONTINUOUS
 62
6
 10
320.5000000000
 20
267.5000000000
 11
315.5000000000
 21
267.5000000000
  0
LINE
  8
5
  6
CONTINUOUS
 62
6
 10
320.5000000000
 20
262.5000000000
 11
315.5000000000
 21
262.5000000000
  0
LINE
  8
5
  6
CONTINUOUS
 62
6
 10
320.5000000000
 20
257.5000000000
 11
315.5000000000
 21
257.5000000000
  0
TEXT
  8
5
  6
CONTINUOUS
 62
7
 10
230.125000
 20
263.250000
 40
3.500000
  1
2
 41
1.000000
 50
0.000000
 51
0.000000
 72
   5
 73
   0
 11
231.875000
 21
263.250000
  0
TEXT
  8
5
  6
CONTINUOUS
 62
7
 10
230.125000
 20
258.250000
 40
3.500000
  1
3
 41
1.000000
 50
0.000000
 51
0.000000
 72
   5
 73
   0
 11
231.875000
 21
258.250000
  0
TEXT
  8
5
  6
CONTINUOUS
 62
7
 10
230.125000
 20
253.250000
 40
3.500000
  1
4
 41
1.000000
 50
0.000000
 51
0.000000
 72
   5
 73
   0
 11
231.875000
 21
253.250000
  0
TEXT
  8
5
  6
CONTINUOUS
 62
7
 10
230.125000
 20
248.250000
 40
3.500000
  1
5
 41
1.000000
 50
0.000000
 51
0.000000
 72
   5
 73
   0
 11
231.875000
 21
248.250000
  0
TEXT
  8
5
  6
CONTINUOUS
 62
7
 10
230.125000
 20
243.250000
 40
3.500000
  1
6
 41
1.000000
 50
0.000000
 51
0.000000
 72
   5
 73
   0
 11
231.875000
 21
243.250000
  0
TEXT
  8
5
  6
CONTINUOUS
 62
7
 10
317.125000
 20
268.250000
 40
3.500000
  1
7
 41
1.000000
 50
0.000000
 51
0.000000
 72
   5
 73
   0
 11
318.875000
 21
268.250000
  0
TEXT
  8
5
  6
CONTINUOUS
 62
7
 10
317.125000
 20
263.250000
 40
3.500000
  1
8
 41
1.000000
 50
0.000000
 51
0.000000
 72
   5
 73
   0
 11
318.875000
 21
263.250000
  0
TEXT
  8
5
  6
CONTINUOUS
 62
7
 10
317.125000
 20
258.250000
 40
3.500000
  1
9
 41
1.000000
 50
0.000000
 51
0.000000
 72
   5
 73
   0
 11
318.875000
 21
258.250000
  0
TEXT
  8
5
  6
CONTINUOUS
 62
7
 10
234.500000
 20
263.500000
 40
3.000000
  1
カバー
 41
0.833832
 50
0.000000
 51
0.000000
 72
   5
 73
   0
 11
242.855000
 21
263.500000
  0
TEXT
  8
5
  6
CONTINUOUS
 62
7
 10
234.500000
 20
258.500000
 40
3.000000
  1
ロック
 41
0.719162
 50
0.000000
 51
0.000000
 72
   5
 73
   0
 11
241.706000
 21
258.500000
  0
TEXT
  8
5
  6
CONTINUOUS
 62
7
 10
234.500000
 20
253.500000
 40
3.000000
  1
添付品ﾋﾞｽ
 41
0.822804
 50
0.000000
 51
0.000000
 72
   5
 73
   0
 11
247.706000
 21
253.500000
  0
TEXT
  8
5
  6
CONTINUOUS
 62
7
 10
234.500000
 20
243.500000
 40
3.000000
  1
添付品ﾋﾞｽ
 41
0.822804
 50
0.000000
 51
0.000000
 72
   5
 73
   0
 11
247.706000
 21
243.500000
  0
TEXT
  8
5
  6
CONTINUOUS
 62
7
 10
321.500000
 20
268.500000
 40
3.000000
  1
添付品ﾋﾞｽ
 41
0.822804
 50
0.000000
 51
0.000000
 72
   5
 73
   0
 11
334.706000
 21
268.500000
  0
TEXT
  8
5
  6
CONTINUOUS
 62
7
 10
321.500000
 20
258.500000
 40
3.000000
  1
ACｱｳﾄﾚｯﾄ
 41
0.872254
 50
0.000000
 51
0.000000
 72
   5
 73
   0
 11
335.081000
 21
258.500000
  0
TEXT
  8
5
  6
CONTINUOUS
 62
7
 10
254.500000
 20
258.500000
 40
3.000000
  1
M4×20 脱落防止ビス
 41
0.819085
 50
0.000000
 51
0.000000
 72
   5
 73
   0
 11
282.439000
 21
258.500000
  0
TEXT
  8
5
  6
CONTINUOUS
 62
7
 10
254.500000
 20
253.500000
 40
3.000000
  1
M3×8小ワｾﾑｽ(ﾍﾞｰｽ固定用)
 41
0.831095
 50
0.000000
 51
0.000000
 72
   5
 73
   0
 11
291.625000
 21
253.500000
  0
TEXT
  8
5
  6
CONTINUOUS
 62
7
 10
254.500000
 20
243.500000
 40
3.000000
  1
M5×10ｱﾌﾞｾｯﾄ
 41
0.813247
 50
0.000000
 51
0.000000
 72
   5
 73
   0
 11
273.286000
 21
243.500000
  0
TEXT
  8
5
  6
CONTINUOUS
 62
7
 10
341.500000
 20
268.500000
 40
3.000000
  1
M5 内歯菊座金
 41
0.851365
 50
0.000000
 51
0.000000
 72
   5
 73
   0
 11
361.141000
 21
268.500000
  0
TEXT
  8
5
  6
CONTINUOUS
 62
7
 10
341.500000
 20
258.250000
 40
3.500000
  1
GF15ILA
 41
0.807080
 50
0.000000
 51
0.000000
 72
   5
 73
   0
 11
354.268000
 21
258.250000
  0
TEXT
  8
5
  6
CONTINUOUS
 62
7
 10
381.500000
 20
258.500000
 40
3.000000
  1
HUBBELL
 41
0.928982
 50
0.000000
 51
0.000000
 72
   5
 73
   0
 11
394.097000
 21
258.500000
  0
TEXT
  8
5
  6
CONTINUOUS
 62
7
 10
310.125000
 20
263.250000
 40
3.500000
  1
1
 41
1.000000
 50
0.000000
 51
0.000000
 72
   5
 73
   0
 11
311.875000
 21
263.250000
  0
TEXT
  8
5
  6
CONTINUOUS
 62
7
 10
310.125000
 20
258.250000
 40
3.500000
  1
1
 41
1.000000
 50
0.000000
 51
0.000000
 72
   5
 73
   0
 11
311.875000
 21
258.250000
  0
TEXT
  8
5
  6
CONTINUOUS
 62
7
 10
310.125000
 20
253.250000
 40
3.500000
  1
4
 41
1.000000
 50
0.000000
 51
0.000000
 72
   5
 73
   0
 11
311.875000
 21
253.250000
  0
TEXT
  8
5
  6
CONTINUOUS
 62
7
 10
310.125000
 20
243.250000
 40
3.500000
  1
1
 41
1.000000
 50
0.000000
 51
0.000000
 72
   5
 73
   0
 11
311.875000
 21
243.250000
  0
TEXT
  8
5
  6
CONTINUOUS
 62
7
 10
397.125000
 20
268.250000
 40
3.500000
  1
1
 41
1.000000
 50
0.000000
 51
0.000000
 72
   5
 73
   0
 11
398.875000
 21
268.250000
  0
LINE
  8
5
  6
CONTINUOUS
 62
6
 10
228.5000000000
 20
262.5000000000
 11
228.5000000000
 21
267.5000000000
  0
LINE
  8
5
  6
CONTINUOUS
 62
6
 10
228.5000000000
 20
257.5000000000
 11
228.5000000000
 21
262.5000000000
  0
LINE
  8
5
  6
CONTINUOUS
 62
6
 10
228.5000000000
 20
252.5000000000
 11
228.5000000000
 21
257.5000000000
  0
LINE
  8
5
  6
CONTINUOUS
 62
6
 10
228.5000000000
 20
247.5000000000
 11
228.5000000000
 21
252.5000000000
  0
LINE
  8
5
  6
CONTINUOUS
 62
6
 10
228.5000000000
 20
242.5000000000
 11
228.5000000000
 21
247.5000000000
  0
LINE
  8
5
  6
CONTINUOUS
 62
6
 10
315.5000000000
 20
267.5000000000
 11
315.5000000000
 21
272.5000000000
  0
LINE
  8
5
  6
CONTINUOUS
 62
6
 10
315.5000000000
 20
262.5000000000
 11
315.5000000000
 21
267.5000000000
  0
LINE
  8
5
  6
CONTINUOUS
 62
6
 10
315.5000000000
 20
257.5000000000
 11
315.5000000000
 21
262.5000000000
  0
LINE
  8
5
  6
CONTINUOUS
 62
6
 10
233.5000000000
 20
267.5000000000
 11
233.5000000000
 21
262.5000000000
  0
LINE
  8
5
  6
CONTINUOUS
 62
6
 10
233.5000000000
 20
262.5000000000
 11
233.5000000000
 21
257.5000000000
  0
LINE
  8
5
  6
CONTINUOUS
 62
6
 10
233.5000000000
 20
257.5000000000
 11
233.5000000000
 21
252.5000000000
  0
LINE
  8
5
  6
CONTINUOUS
 62
6
 10
233.5000000000
 20
252.5000000000
 11
233.5000000000
 21
247.5000000000
  0
LINE
  8
5
  6
CONTINUOUS
 62
6
 10
233.5000000000
 20
247.5000000000
 11
233.5000000000
 21
242.5000000000
  0
LINE
  8
5
  6
CONTINUOUS
 62
6
 10
320.5000000000
 20
272.5000000000
 11
320.5000000000
 21
267.5000000000
  0
LINE
  8
5
  6
CONTINUOUS
 62
6
 10
320.5000000000
 20
267.5000000000
 11
320.5000000000
 21
262.5000000000
  0
LINE
  8
5
  6
CONTINUOUS
 62
6
 10
320.5000000000
 20
262.5000000000
 11
320.5000000000
 21
257.5000000000
  0
LINE
  8
5
  6
CONTINUOUS
 62
6
 10
253.5000000000
 20
267.5000000000
 11
253.5000000000
 21
262.5000000000
  0
LINE
  8
5
  6
CONTINUOUS
 62
6
 10
253.5000000000
 20
262.5000000000
 11
253.5000000000
 21
257.5000000000
  0
LINE
  8
5
  6
CONTINUOUS
 62
6
 10
253.5000000000
 20
257.5000000000
 11
253.5000000000
 21
252.5000000000
  0
LINE
  8
5
  6
CONTINUOUS
 62
6
 10
253.5000000000
 20
252.5000000000
 11
253.5000000000
 21
247.5000000000
  0
LINE
  8
5
  6
CONTINUOUS
 62
6
 10
253.5000000000
 20
247.5000000000
 11
253.5000000000
 21
242.5000000000
  0
LINE
  8
5
  6
CONTINUOUS
 62
6
 10
340.5000000000
 20
272.5000000000
 11
340.5000000000
 21
267.5000000000
  0
LINE
  8
5
  6
CONTINUOUS
 62
6
 10
340.5000000000
 20
267.5000000000
 11
340.5000000000
 21
262.5000000000
  0
LINE
  8
5
  6
CONTINUOUS
 62
6
 10
340.5000000000
 20
262.5000000000
 11
340.5000000000
 21
257.5000000000
  0
LINE
  8
5
  6
CONTINUOUS
 62
6
 10
293.5000000000
 20
267.5000000000
 11
293.5000000000
 21
262.5000000000
  0
LINE
  8
5
  6
CONTINUOUS
 62
6
 10
293.5000000000
 20
262.5000000000
 11
293.5000000000
 21
257.5000000000
  0
LINE
  8
5
  6
CONTINUOUS
 62
6
 10
293.5000000000
 20
252.5000000000
 11
293.5000000000
 21
247.5000000000
  0
LINE
  8
5
  6
CONTINUOUS
 62
6
 10
293.5000000000
 20
247.5000000000
 11
293.5000000000
 21
242.5000000000
  0
LINE
  8
5
  6
CONTINUOUS
 62
6
 10
380.5000000000
 20
272.5000000000
 11
380.5000000000
 21
267.5000000000
  0
LINE
  8
5
  6
CONTINUOUS
 62
6
 10
380.5000000000
 20
267.5000000000
 11
380.5000000000
 21
262.5000000000
  0
LINE
  8
5
  6
CONTINUOUS
 62
6
 10
380.5000000000
 20
262.5000000000
 11
380.5000000000
 21
257.5000000000
  0
LINE
  8
5
  6
CONTINUOUS
 62
6
 10
308.5000000000
 20
267.5000000000
 11
308.5000000000
 21
262.5000000000
  0
LINE
  8
5
  6
CONTINUOUS
 62
6
 10
308.5000000000
 20
262.5000000000
 11
308.5000000000
 21
257.5000000000
  0
LINE
  8
5
  6
CONTINUOUS
 62
6
 10
308.5000000000
 20
257.5000000000
 11
308.5000000000
 21
252.5000000000
  0
LINE
  8
5
  6
CONTINUOUS
 62
6
 10
308.5000000000
 20
252.5000000000
 11
308.5000000000
 21
247.5000000000
  0
LINE
  8
5
  6
CONTINUOUS
 62
6
 10
308.5000000000
 20
247.5000000000
 11
308.5000000000
 21
242.5000000000
  0
LINE
  8
5
  6
CONTINUOUS
 62
6
 10
395.5000000000
 20
272.5000000000
 11
395.5000000000
 21
267.5000000000
  0
LINE
  8
5
  6
CONTINUOUS
 62
6
 10
395.5000000000
 20
267.5000000000
 11
395.5000000000
 21
262.5000000000
  0
LINE
  8
5
  6
CONTINUOUS
 62
6
 10
395.5000000000
 20
262.5000000000
 11
395.5000000000
 21
257.5000000000
  0
LINE
  8
5
  6
CONTINUOUS
 62
6
 10
313.5000000000
 20
267.5000000000
 11
313.5000000000
 21
262.5000000000
  0
LINE
  8
5
  6
CONTINUOUS
 62
6
 10
313.5000000000
 20
262.5000000000
 11
313.5000000000
 21
257.5000000000
  0
LINE
  8
5
  6
CONTINUOUS
 62
6
 10
313.5000000000
 20
257.5000000000
 11
313.5000000000
 21
252.5000000000
  0
LINE
  8
5
  6
CONTINUOUS
 62
6
 10
313.5000000000
 20
252.5000000000
 11
313.5000000000
 21
247.5000000000
  0
LINE
  8
5
  6
CONTINUOUS
 62
6
 10
313.5000000000
 20
247.5000000000
 11
313.5000000000
 21
242.5000000000
  0
LINE
  8
5
  6
CONTINUOUS
 62
6
 10
400.5000000000
 20
272.5000000000
 11
400.5000000000
 21
267.5000000000
  0
LINE
  8
5
  6
CONTINUOUS
 62
6
 10
400.5000000000
 20
267.5000000000
 11
400.5000000000
 21
262.5000000000
  0
LINE
  8
5
  6
CONTINUOUS
 62
6
 10
400.5000000000
 20
262.5000000000
 11
400.5000000000
 21
257.5000000000
  0
LINE
  8
5
  6
CONTINUOUS
 62
6
 10
400.5000000000
 20
252.5000000000
 11
395.5000000000
 21
252.5000000000
  0
LINE
  8
5
  6
CONTINUOUS
 62
6
 10
395.5000000000
 20
252.5000000000
 11
380.5000000000
 21
252.5000000000
  0
LINE
  8
5
  6
CONTINUOUS
 62
6
 10
380.5000000000
 20
252.5000000000
 11
340.5000000000
 21
252.5000000000
  0
LINE
  8
5
  6
CONTINUOUS
 62
6
 10
340.5000000000
 20
252.5000000000
 11
320.5000000000
 21
252.5000000000
  0
LINE
  8
5
  6
CONTINUOUS
 62
6
 10
320.5000000000
 20
252.5000000000
 11
315.5000000000
 21
252.5000000000
  0
LINE
  8
5
  6
CONTINUOUS
 62
6
 10
315.5000000000
 20
252.5000000000
 11
315.5000000000
 21
257.5000000000
  0
LINE
  8
5
  6
CONTINUOUS
 62
6
 10
320.5000000000
 20
257.5000000000
 11
320.5000000000
 21
252.5000000000
  0
LINE
  8
5
  6
CONTINUOUS
 62
6
 10
340.5000000000
 20
257.5000000000
 11
340.5000000000
 21
252.5000000000
  0
LINE
  8
5
  6
CONTINUOUS
 62
6
 10
380.5000000000
 20
257.5000000000
 11
380.5000000000
 21
252.5000000000
  0
LINE
  8
5
  6
CONTINUOUS
 62
6
 10
395.5000000000
 20
257.5000000000
 11
395.5000000000
 21
252.5000000000
  0
LINE
  8
5
  6
CONTINUOUS
 62
6
 10
400.5000000000
 20
257.5000000000
 11
400.5000000000
 21
252.5000000000
  0
ENDBLK
  8
0
  0
BLOCK
  8
3
  2
BALN0
 70
     0
 10
195.3032465186
 20
163.2325171158
  3
BALN0
  0
SOLID
  8
3
  6
CONTINUOUS
 62
5
 10
195.1923524315
 20
165.2294403746
 11
196.2056710514
 21
165.0173504309
 12
195.3032465186
 22
163.2325171158
 13
195.3032465186
 23
163.2325171158
  0
LINE
  8
3
  6
BYBLOCK
 62
5
 10
195.3032465186
 20
163.2325171158
 11
197.2517980872
 21
172.5422634993
  0
CIRCLE
  8
3
  6
BYBLOCK
 62
5
 10
197.8663875496
 20
175.4786353750
 40
3.0000000000
  0
TEXT
  8
3
  6
CONTINUOUS
 62
7
 10
196.866388
 20
173.478635
 40
4.000000
  1
9
 41
1.000000
 50
0.000000
 51
0.000000
 72
   5
 73
   0
 11
198.866388
 21
173.478635
  0
ENDBLK
  8
0
  0
BLOCK
  8
3
  2
BALN1
 70
     0
 10
180.2508498414
 20
180.7526467295
  3
BALN1
  0
SOLID
  8
3
  6
CONTINUOUS
 62
5
 10
178.6864763909
 20
179.5065585675
 11
178.2730186113
 21
180.4556894511
 12
180.2508498414
 22
180.7526467295
 13
180.2508498414
 23
180.7526467295
  0
LINE
  8
3
  6
BYBLOCK
 62
5
 10
180.2508498414
 20
180.7526467295
 11
166.3478603497
 21
174.6962647651
  0
CIRCLE
  8
3
  6
BYBLOCK
 62
5
 10
163.5974902507
 20
173.4981561229
 40
3.0000000000
  0
TEXT
  8
3
  6
CONTINUOUS
 62
7
 10
161.847490
 20
171.748156
 40
3.500000
  1
10
 41
0.854701
 50
0.000000
 51
0.000000
 72
   5
 73
   0
 11
165.347490
 21
171.748156
  0
ENDBLK
  8
0
  0
BLOCK
  8
1
  2
*D0
 70
     1
 10
0.0000000000
 20
0.0000000000
  3
*D0
  0
LINE
  8
1
  6
BYBLOCK
 62
5
 10
122.1566089140
 20
90.3588253725
 11
122.1566089140
 21
95.7536737299
  0
LINE
  8
1
  6
BYBLOCK
 62
5
 10
105.6566089140
 20
90.3588253725
 11
105.6566089140
 21
95.7536737299
  0
LINE
  8
1
  6
BYBLOCK
 62
5
 10
105.6566089140
 20
94.7536737299
 11
122.1566089140
 21
94.7536737299
  0
SOLID
  8
1
  6
CONTINUOUS
 62
5
 10
120.2247572614
 20
94.2360356397
 11
120.2247572614
 21
95.2713118201
 12
122.1566089140
 22
94.7536737299
 13
122.1566089140
 23
94.7536737299
  0
SOLID
  8
1
  6
CONTINUOUS
 62
5
 10
107.5884605665
 20
95.2713118201
 11
107.5884605665
 21
94.2360356397
 12
105.6566089140
 22
94.7536737299
 13
105.6566089140
 23
94.7536737299
  0
TEXT
  8
1
  6
CONTINUOUS
 62
7
 10
110.406609
 20
95.753674
 40
3.500000
  1
16.5
 41
0.796813
 50
0.000000
 51
0.000000
 72
   5
 73
   0
 11
117.406609
 21
95.753674
  0
POINT
  8
DEFPOINTS
  6
BYBLOCK
 62
5
 10
122.1566089140
 20
89.8588253725
  0
POINT
  8
DEFPOINTS
  6
BYBLOCK
 62
5
 10
105.6566089140
 20
89.8588253725
  0
POINT
  8
DEFPOINTS
  6
BYBLOCK
 62
5
 10
105.6566089140
 20
94.7536737299
  0
ENDBLK
  8
0
  0
BLOCK
  8
1
  2
*D1
 70
     1
 10
0.0000000000
 20
0.0000000000
  3
*D1
  0
LINE
  8
1
  6
BYBLOCK
 62
5
 10
24.9407258647
 20
23.5827940853
 11
17.6541168789
 21
23.5827940853
  0
LINE
  8
1
  6
BYBLOCK
 62
5
 10
25.9407258647
 20
32.5827940853
 11
17.6541168789
 21
32.5827940853
  0
LINE
  8
1
  6
BYBLOCK
 62
5
 10
18.6541168789
 20
32.5827940853
 11
18.6541168789
 21
23.5827940853
  0
SOLID
  8
1
  6
CONTINUOUS
 62
5
 10
18.1364787887
 20
25.5146457379
 11
19.1717549691
 21
25.5146457379
 12
18.6541168789
 22
23.5827940853
 13
18.6541168789
 23
23.5827940853
  0
SOLID
  8
1
  6
CONTINUOUS
 62
5
 10
19.1717549691
 20
30.6509424328
 11
18.1364787887
 21
30.6509424328
 12
18.6541168789
 22
32.5827940853
 13
18.6541168789
 23
32.5827940853
  0
TEXT
  8
1
  6
CONTINUOUS
 62
7
 10
17.654117
 20
27.207794
 40
3.500000
  1
9
 41
1.000000
 50
90.000000
 51
0.000000
 72
   5
 73
   0
 11
17.654117
 21
28.957794
  0
POINT
  8
DEFPOINTS
  6
BYBLOCK
 62
5
 10
25.4407258647
 20
23.5827940853
  0
POINT
  8
DEFPOINTS
  6
BYBLOCK
 62
5
 10
26.4407258647
 20
32.5827940853
  0
POINT
  8
DEFPOINTS
  6
BYBLOCK
 62
5
 10
18.6541168789
 20
32.5827940853
  0
ENDBLK
  8
0
  0
BLOCK
  8
1
  2
*D2
 70
     1
 10
0.0000000000
 20
0.0000000000
  3
*D2
  0
LINE
  8
1
  6
BYBLOCK
 62
5
 10
26.9407258647
 20
33.0827940853
 11
17.4145405822
 21
33.0827940853
  0
LINE
  8
1
  6
BYBLOCK
 62
5
 10
33.4407258647
 20
47.5827940853
 11
17.4145405822
 21
47.5827940853
  0
LINE
  8
1
  6
BYBLOCK
 62
5
 10
18.4145405822
 20
47.5827940853
 11
18.4145405822
 21
33.0827940853
  0
SOLID
  8
1
  6
CONTINUOUS
 62
5
 10
17.8969024920
 20
35.0146457379
 11
18.9321786724
 21
35.0146457379
 12
18.4145405822
 22
33.0827940853
 13
18.4145405822
 23
33.0827940853
  0
SOLID
  8
1
  6
CONTINUOUS
 62
5
 10
18.9321786724
 20
45.6509424328
 11
17.8969024920
 21
45.6509424328
 12
18.4145405822
 22
47.5827940853
 13
18.4145405822
 23
47.5827940853
  0
TEXT
  8
1
  6
CONTINUOUS
 62
7
 10
17.414541
 20
36.832794
 40
3.500000
  1
14.5
 41
0.796813
 50
90.000000
 51
0.000000
 72
   5
 73
   0
 11
17.414541
 21
43.832794
  0
POINT
  8
DEFPOINTS
  6
BYBLOCK
 62
5
 10
27.4407258647
 20
33.0827940853
  0
POINT
  8
DEFPOINTS
  6
BYBLOCK
 62
5
 10
33.9407258647
 20
47.5827940853
  0
POINT
  8
DEFPOINTS
  6
BYBLOCK
 62
5
 10
18.4145405822
 20
47.5827940853
  0
ENDBLK
  8
0
  0
BLOCK
  8
1
  2
*D3
 70
     1
 10
0.0000000000
 20
0.0000000000
  3
*D3
  0
LINE
  8
1
  6
BYBLOCK
 62
5
 10
24.9407258647
 20
23.5827940853
 11
9.9078166190
 21
23.5827940853
  0
LINE
  8
1
  6
BYBLOCK
 62
5
 10
33.4407258647
 20
47.5827940853
 11
9.9078166190
 21
47.5827940853
  0
LINE
  8
1
  6
BYBLOCK
 62
5
 10
10.9078166190
 20
47.5827940853
 11
10.9078166190
 21
23.5827940853
  0
SOLID
  8
1
  6
CONTINUOUS
 62
5
 10
10.3901785287
 20
25.5146457379
 11
11.4254547092
 21
25.5146457379
 12
10.9078166190
 22
23.5827940853
 13
10.9078166190
 23
23.5827940853
  0
SOLID
  8
1
  6
CONTINUOUS
 62
5
 10
11.4254547092
 20
45.6509424328
 11
10.3901785287
 21
45.6509424328
 12
10.9078166190
 22
47.5827940853
 13
10.9078166190
 23
47.5827940853
  0
TEXT
  8
1
  6
CONTINUOUS
 62
7
 10
9.907817
 20
33.832794
 40
3.500000
  1
24
 41
0.854701
 50
90.000000
 51
0.000000
 72
   5
 73
   0
 11
9.907817
 21
37.332794
  0
POINT
  8
DEFPOINTS
  6
BYBLOCK
 62
5
 10
25.4407258647
 20
23.5827940853
  0
POINT
  8
DEFPOINTS
  6
BYBLOCK
 62
5
 10
33.9407258647
 20
47.5827940853
  0
POINT
  8
DEFPOINTS
  6
BYBLOCK
 62
5
 10
10.9078166190
 20
47.5827940853
  0
ENDBLK
  8
0
  0
BLOCK
  8
1
  2
*D4
 70
     1
 10
0.0000000000
 20
0.0000000000
  3
*D4
  0
LINE
  8
1
  6
BYBLOCK
 62
5
 10
24.9407258647
 20
216.1368942825
 11
13.9678380111
 21
216.1368942825
  0
LINE
  8
1
  6
BYBLOCK
 62
5
 10
24.9407258647
 20
60.6368942825
 11
13.9678380111
 21
60.6368942825
  0
LINE
  8
1
  6
BYBLOCK
 62
5
 10
14.9678380111
 20
60.6368942825
 11
14.9678380111
 21
216.1368942825
  0
SOLID
  8
1
  6
CONTINUOUS
 62
5
 10
15.4854761013
 20
214.2050426299
 11
14.4501999209
 21
214.2050426299
 12
14.9678380111
 22
216.1368942825
 13
14.9678380111
 23
216.1368942825
  0
SOLID
  8
1
  6
CONTINUOUS
 62
5
 10
14.4501999209
 20
62.5687459351
 11
15.4854761013
 21
62.5687459351
 12
14.9678380111
 22
60.6368942825
 13
14.9678380111
 23
60.6368942825
  0
TEXT
  8
1
  6
CONTINUOUS
 62
7
 10
13.967838
 20
132.136894
 40
5.000000
  1
155.5
 41
0.786164
 50
90.000000
 51
0.000000
 72
   5
 73
   0
 11
13.967838
 21
144.636894
  0
POINT
  8
DEFPOINTS
  6
BYBLOCK
 62
5
 10
25.4407258647
 20
216.1368942825
  0
POINT
  8
DEFPOINTS
  6
BYBLOCK
 62
5
 10
25.4407258647
 20
60.6368942825
  0
POINT
  8
DEFPOINTS
  6
BYBLOCK
 62
5
 10
14.9678380111
 20
60.6368942825
  0
ENDBLK
  8
0
  0
BLOCK
  8
1
  2
*D5
 70
     1
 10
0.0000000000
 20
0.0000000000
  3
*D5
  0
LINE
  8
1
  6
BYBLOCK
 62
5
 10
25.4407258647
 20
216.6368942825
 11
25.4407258647
 21
221.0992275332
  0
LINE
  8
1
  6
BYBLOCK
 62
5
 10
94.4407258647
 20
216.6368942825
 11
94.4407258647
 21
221.0992275332
  0
LINE
  8
1
  6
BYBLOCK
 62
5
 10
94.4407258647
 20
220.0992275332
 11
25.4407258647
 21
220.0992275332
  0
SOLID
  8
1
  6
CONTINUOUS
 62
5
 10
27.3725775173
 20
220.6168656234
 11
27.3725775173
 21
219.5815894430
 12
25.4407258647
 22
220.0992275332
 13
25.4407258647
 23
220.0992275332
  0
SOLID
  8
1
  6
CONTINUOUS
 62
5
 10
92.5088742121
 20
219.5815894430
 11
92.5088742121
 21
220.6168656234
 12
94.4407258647
 22
220.0992275332
 13
94.4407258647
 23
220.0992275332
  0
TEXT
  8
1
  6
CONTINUOUS
 62
7
 10
57.440726
 20
221.099228
 40
5.000000
  1
69
 41
0.854701
 50
0.000000
 51
0.000000
 72
   5
 73
   0
 11
62.440726
 21
221.099228
  0
POINT
  8
DEFPOINTS
  6
BYBLOCK
 62
5
 10
25.4407258647
 20
216.1368942825
  0
POINT
  8
DEFPOINTS
  6
BYBLOCK
 62
5
 10
94.4407258647
 20
216.1368942825
  0
POINT
  8
DEFPOINTS
  6
BYBLOCK
 62
5
 10
94.4407258647
 20
220.0992275332
  0
ENDBLK
  8
0
  0
BLOCK
  8
1
  2
BALN2
 70
     0
 10
62.7855132621
 20
63.0979767600
  3
BALN2
  0
SOLID
  8
1
  6
CONTINUOUS
 62
5
 10
64.7758146584
 20
62.9012527097
 11
64.4108028073
 21
61.9324580368
 12
62.7855132621
 22
63.0979767600
 13
62.7855132621
 23
63.0979767600
  0
LINE
  8
1
  6
BYBLOCK
 62
5
 10
62.7855132621
 20
63.0979767600
 11
86.1595079142
 21
54.2913789404
  0
CIRCLE
  8
1
  6
BYBLOCK
 62
5
 10
88.9668592991
 20
53.2336558189
 40
3.0000000000
  0
TEXT
  8
1
  6
CONTINUOUS
 62
7
 10
88.091859
 20
51.483656
 40
3.500000
  1
3
 41
1.000000
 50
0.000000
 51
0.000000
 72
   5
 73
   0
 11
89.841859
 21
51.483656
  0
ENDBLK
  8
0
  0
BLOCK
  8
1
  2
*D6
 70
     1
 10
0.0000000000
 20
0.0000000000
  3
*D6
  0
LINE
  8
1
  6
BYBLOCK
 62
5
 10
136.6727066227
 20
84.0886479334
 11
135.6888043315
 21
81.7904015843
  0
LINE
  8
1
  6
BYBLOCK
 62
5
 10
138.6405112052
 20
88.6851406317
 11
139.6244134964
 21
90.9833869808
  0
SOLID
  8
1
  6
CONTINUOUS
 62
5
 10
136.3882692562
 20
82.1089774092
 11
135.4365413754
 21
82.5164216515
 12
136.6727066227
 22
84.0886479334
 13
136.6727066227
 23
84.0886479334
  0
SOLID
  8
1
  6
CONTINUOUS
 62
5
 10
138.9249485717
 20
90.6648111559
 11
139.8766764525
 21
90.2573669135
 12
138.6405112052
 22
88.6851406317
 13
138.6405112052
 23
88.6851406317
  0
TEXT
  8
1
  6
CONTINUOUS
 62
7
 10
140.189638
 20
94.844567
 40
3.500000
  1
2-M5
 41
0.796813
 50
66.823748
 51
0.000000
 72
   5
 73
   0
 11
142.944564
 21
101.279657
  0
POINT
  8
DEFPOINTS
  6
BYBLOCK
 62
5
 10
136.6727066227
 20
84.0886479334
  0
POINT
  8
DEFPOINTS
  6
BYBLOCK
 62
5
 10
138.6405112052
 20
88.6851406317
  0
LINE
  8
1
  6
BYBLOCK
 62
5
 10
136.6727066227
 20
84.0886479334
 11
143.8638624650
 21
100.8860960213
  0
ENDBLK
  8
0
  0
BLOCK
  8
1
  2
LTEX0
 70
     0
 10
137.6566089140
 20
83.8868942825
  3
LTEX0
  0
SOLID
  8
1
  6
CONTINUOUS
 62
5
 10
137.8564563376
 20
81.8969040797
 11
136.8346867583
 21
82.0635885018
 12
137.6566089140
 22
83.8868942825
 13
137.6566089140
 23
83.8868942825
  0
TEXT
  8
1
  6
CONTINUOUS
 62
7
 10
133.619486
 20
60.139476
 40
5.000000
  1
 ⑥⑦
 41
0.880282
 50
0.000000
 51
0.000000
 72
   5
 73
   0
 11
146.119486
 21
60.139476
  0
LINE
  8
1
  6
BYBLOCK
 62
5
 10
137.6566089140
 20
83.8868942825
 11
133.6194862929
 21
59.1394761964
  0
LINE
  8
1
  6
BYBLOCK
 62
5
 10
133.6194862929
 20
59.1394761964
 11
146.1194862929
 21
59.1394761964
  0
ENDBLK
  8
0
  0
BLOCK
  8
1
  2
S2
 70
     0
 10
251.1694042692
 20
162.0398942825
  3
S2
  0
CIRCLE
  8
1
  6
CONTINUOUS
 62
5
 10
251.1694042692
 20
162.0398942825
 40
2.5000000000
  0
LINE
  8
1
  6
CONTINUOUS
 62
5
 10
253.0444042693
 20
162.0398942825
 11
249.2944042693
 21
162.0398942825
  0
LINE
  8
1
  6
CONTINUOUS
 62
5
 10
252.4194042693
 20
161.1023942825
 11
249.9194042693
 21
161.1023942825
  0
LINE
  8
1
  6
CONTINUOUS
 62
5
 10
251.7944042693
 20
160.1648942825
 11
250.5444042693
 21
160.1648942825
  0
LINE
  8
1
  6
CONTINUOUS
 62
5
 10
251.1694042692
 20
162.0398942825
 11
251.1694042693
 21
163.9148942825
  0
ENDBLK
  8
0
  0
BLOCK
  8
3
  2
BALN3
 70
     0
 10
106.3252681392
 20
198.0515469823
  3
BALN3
  0
SOLID
  8
3
  6
CONTINUOUS
 62
5
 10
105.3140684404
 20
199.7770831799
 11
106.3123116105
 21
200.0515050140
 12
106.3252681392
 22
198.0515469823
 13
106.3252681392
 23
198.0515469823
  0
LINE
  8
3
  6
BYBLOCK
 62
5
 10
106.3252681392
 20
198.0515469823
 11
100.7742088817
 21
218.2442077057
  0
CIRCLE
  8
3
  6
BYBLOCK
 62
5
 10
99.9789954712
 20
221.1368942825
 40
3.0000000000
  0
TEXT
  8
3
  6
CONTINUOUS
 62
7
 10
99.103995
 20
219.386894
 40
3.500000
  1
2
 41
1.000000
 50
0.000000
 51
0.000000
 72
   5
 73
   0
 11
100.853995
 21
219.386894
  0
ENDBLK
  8
0
  0
BLOCK
  8
3
  2
BALN4
 70
     0
 10
125.2794223691
 20
210.9687949083
  3
BALN4
  0
SOLID
  8
3
  6
CONTINUOUS
 62
5
 10
124.9964182488
 20
212.9486708306
 11
126.0242715727
 21
212.8249198135
 12
125.2794223691
 22
210.9687949083
 13
125.2794223691
 23
210.9687949083
  0
LINE
  8
3
  6
BYBLOCK
 62
5
 10
125.2794223691
 20
210.9687949083
 11
126.1450336635
 21
218.1584040689
  0
CIRCLE
  8
3
  6
BYBLOCK
 62
5
 10
126.5036365738
 20
221.1368942825
 40
3.0000000000
  0
TEXT
  8
3
  6
CONTINUOUS
 62
7
 10
125.628637
 20
219.386894
 40
3.500000
  1
1
 41
1.000000
 50
0.000000
 51
0.000000
 72
   5
 73
   0
 11
127.378637
 21
219.386894
  0
ENDBLK
  8
0
  0
BLOCK
  8
3
  2
BALN5
 70
     0
 10
163.3371686205
 20
193.3868942825
  3
BALN5
  0
SOLID
  8
3
  6
CONTINUOUS
 62
5
 10
163.1206936226
 20
195.3751444115
 11
164.1438208375
 21
195.2170069022
 12
163.3371686205
 22
193.3868942825
 13
163.3371686205
 23
193.3868942825
  0
LINE
  8
3
  6
BYBLOCK
 62
5
 10
163.3371686205
 20
193.3868942825
 11
167.1680417782
 21
218.1720992811
  0
CIRCLE
  8
3
  6
BYBLOCK
 62
5
 10
167.6262890910
 20
221.1368942825
 40
3.0000000000
  0
TEXT
  8
3
  6
CONTINUOUS
 62
7
 10
166.751289
 20
219.386894
 40
3.500000
  1
4
 41
1.000000
 50
0.000000
 51
0.000000
 72
   5
 73
   0
 11
168.501289
 21
219.386894
  0
ENDBLK
  8
0
  0
BLOCK
  8
3
  2
BALN6
 70
     0
 10
183.3371686205
 20
197.2868942825
  3
BALN6
  0
SOLID
  8
3
  6
CONTINUOUS
 62
5
 10
183.3179244812
 20
199.2868016961
 11
184.3204564138
 21
199.0284869775
 12
183.3371686205
 22
197.2868942825
 13
183.3371686205
 23
197.2868942825
  0
LINE
  8
3
  6
BYBLOCK
 62
5
 10
183.3371686205
 20
197.2868942825
 11
188.7338767341
 21
218.2317798264
  0
CIRCLE
  8
3
  6
BYBLOCK
 62
5
 10
189.4824153081
 20
221.1368942825
 40
3.0000000000
  0
TEXT
  8
3
  6
CONTINUOUS
 62
7
 10
188.607415
 20
219.386894
 40
3.500000
  1
5
 41
1.000000
 50
0.000000
 51
0.000000
 72
   5
 73
   0
 11
190.357415
 21
219.386894
  0
ENDBLK
  8
0
  0
BLOCK
  8
3
  2
BALN7
 70
     0
 10
204.0538270525
 20
183.4190997007
  3
BALN7
  0
SOLID
  8
3
  6
CONTINUOUS
 62
5
 10
204.0609799289
 20
185.4190869098
 11
205.0600152297
 21
185.1475629928
 12
204.0538270525
 22
183.4190997007
 13
204.0538270525
 23
183.4190997007
  0
LINE
  8
3
  6
BYBLOCK
 62
5
 10
204.0538270525
 20
183.4190997007
 11
213.5181837818
 21
218.2419122872
  0
CIRCLE
  8
3
  6
BYBLOCK
 62
5
 10
214.3049996733
 20
221.1368942825
 40
3.0000000000
  0
TEXT
  8
3
  6
CONTINUOUS
 62
7
 10
213.430000
 20
219.386894
 40
3.500000
  1
8
 41
1.000000
 50
0.000000
 51
0.000000
 72
   5
 73
   0
 11
215.180000
 21
219.386894
  0
ENDBLK
  8
0
  0
BLOCK
  8
3
  2
BALN8
 70
     0
 10
259.6762259717
 20
135.6744456198
  3
BALN8
  0
SOLID
  8
3
  6
CONTINUOUS
 62
5
 10
258.9568925362
 20
137.5406072978
 11
259.9863457817
 21
137.6502557583
 12
259.6762259717
 22
135.6744456198
 13
259.6762259717
 23
135.6744456198
  0
LINE
  8
3
  6
BYBLOCK
 62
5
 10
259.6762259717
 20
135.6744456198
 11
250.8912415679
 21
218.1537678519
  0
CIRCLE
  8
3
  6
BYBLOCK
 62
5
 10
250.5735047285
 20
221.1368942825
 40
3.0000000000
  0
TEXT
  8
3
  6
CONTINUOUS
 62
7
 10
248.823505
 20
219.386894
 40
3.500000
  1
11
 41
0.854701
 50
0.000000
 51
0.000000
 72
   5
 73
   0
 11
252.323505
 21
219.386894
  0
ENDBLK
  8
0
  0
BLOCK
  8
4
  2
*D7
 70
     1
 10
0.0000000000
 20
0.0000000000
  3
*D7
  0
LINE
  8
4
  6
BYBLOCK
 62
5
 10
321.2194042677
 20
189.3868942825
 11
321.2194042677
 21
201.0803431065
  0
LINE
  8
4
  6
BYBLOCK
 62
5
 10
327.7194042677
 20
192.3868942825
 11
327.7194042677
 21
201.0803431065
  0
LINE
  8
4
  6
BYBLOCK
 62
5
 10
327.7194042677
 20
200.0803431065
 11
321.2194042677
 21
200.0803431065
  0
SOLID
  8
4
  6
CONTINUOUS
 62
5
 10
323.1512559202
 20
200.5979811967
 11
323.1512559202
 21
199.5627050163
 12
321.2194042677
 22
200.0803431065
 13
321.2194042677
 23
200.0803431065
  0
SOLID
  8
4
  6
CONTINUOUS
 62
5
 10
325.7875526151
 20
199.5627050163
 11
325.7875526151
 21
200.5979811967
 12
327.7194042677
 22
200.0803431065
 13
327.7194042677
 23
200.0803431065
  0
TEXT
  8
4
  6
CONTINUOUS
 62
7
 10
321.844404
 20
201.080343
 40
3.500000
  1
6.5
 41
0.815217
 50
0.000000
 51
0.000000
 72
   5
 73
   0
 11
327.094404
 21
201.080343
  0
POINT
  8
DEFPOINTS
  6
BYBLOCK
 62
5
 10
321.2194042677
 20
188.8868942825
  0
POINT
  8
DEFPOINTS
  6
BYBLOCK
 62
5
 10
327.7194042677
 20
191.8868942825
  0
POINT
  8
DEFPOINTS
  6
BYBLOCK
 62
5
 10
327.7194042677
 20
200.0803431065
  0
ENDBLK
  8
0
  0
BLOCK
  8
4
  2
*D8
 70
     1
 10
0.0000000000
 20
0.0000000000
  3
*D8
  0
LINE
  8
4
  6
BYBLOCK
 62
5
 10
347.7194042677
 20
191.6368942825
 11
347.7194042677
 21
201.0803431065
  0
LINE
  8
4
  6
BYBLOCK
 62
5
 10
347.7194042677
 20
200.0803431065
 11
327.7194042677
 21
200.0803431065
  0
SOLID
  8
4
  6
CONTINUOUS
 62
5
 10
329.6512559202
 20
200.5979811967
 11
329.6512559202
 21
199.5627050163
 12
327.7194042677
 22
200.0803431065
 13
327.7194042677
 23
200.0803431065
  0
SOLID
  8
4
  6
CONTINUOUS
 62
5
 10
345.7875526151
 20
199.5627050163
 11
345.7875526151
 21
200.5979811967
 12
347.7194042677
 22
200.0803431065
 13
347.7194042677
 23
200.0803431065
  0
TEXT
  8
4
  6
CONTINUOUS
 62
7
 10
335.969404
 20
201.080343
 40
3.500000
  1
20
 41
0.854701
 50
0.000000
 51
0.000000
 72
   5
 73
   0
 11
339.469404
 21
201.080343
  0
POINT
  8
DEFPOINTS
  6
BYBLOCK
 62
5
 10
327.7194042677
 20
191.8868942825
  0
POINT
  8
DEFPOINTS
  6
BYBLOCK
 62
5
 10
347.7194042677
 20
191.1368942825
  0
POINT
  8
DEFPOINTS
  6
BYBLOCK
 62
5
 10
347.7194042677
 20
200.0803431065
  0
ENDBLK
  8
0
  0
BLOCK
  8
4
  2
*D9
 70
     1
 10
0.0000000000
 20
0.0000000000
  3
*D9
  0
LINE
  8
4
  6
BYBLOCK
 62
5
 10
367.7194042677
 20
192.3868942825
 11
367.7194042677
 21
201.0803431065
  0
LINE
  8
4
  6
BYBLOCK
 62
5
 10
367.7194042677
 20
200.0803431065
 11
347.7194042677
 21
200.0803431065
  0
SOLID
  8
4
  6
CONTINUOUS
 62
5
 10
349.6512559202
 20
200.5979811967
 11
349.6512559202
 21
199.5627050163
 12
347.7194042677
 22
200.0803431065
 13
347.7194042677
 23
200.0803431065
  0
SOLID
  8
4
  6
CONTINUOUS
 62
5
 10
365.7875526151
 20
199.5627050163
 11
365.7875526151
 21
200.5979811967
 12
367.7194042677
 22
200.0803431065
 13
367.7194042677
 23
200.0803431065
  0
TEXT
  8
4
  6
CONTINUOUS
 62
7
 10
355.969404
 20
201.080343
 40
3.500000
  1
20
 41
0.854701
 50
0.000000
 51
0.000000
 72
   5
 73
   0
 11
359.469404
 21
201.080343
  0
POINT
  8
DEFPOINTS
  6
BYBLOCK
 62
5
 10
347.7194042677
 20
191.1368942825
  0
POINT
  8
DEFPOINTS
  6
BYBLOCK
 62
5
 10
367.7194042677
 20
191.8868942825
  0
POINT
  8
DEFPOINTS
  6
BYBLOCK
 62
5
 10
367.7194042677
 20
200.0803431065
  0
ENDBLK
  8
0
  0
BLOCK
  8
4
  2
*D10
 70
     1
 10
0.0000000000
 20
0.0000000000
  3
*D10
  0
LINE
  8
4
  6
BYBLOCK
 62
5
 10
374.2194042677
 20
189.3868942825
 11
374.2194042677
 21
201.0803431065
  0
LINE
  8
4
  6
BYBLOCK
 62
5
 10
374.2194042677
 20
200.0803431065
 11
367.7194042677
 21
200.0803431065
  0
SOLID
  8
4
  6
CONTINUOUS
 62
5
 10
369.6512559202
 20
200.5979811967
 11
369.6512559202
 21
199.5627050163
 12
367.7194042677
 22
200.0803431065
 13
367.7194042677
 23
200.0803431065
  0
SOLID
  8
4
  6
CONTINUOUS
 62
5
 10
372.2875526151
 20
199.5627050163
 11
372.2875526151
 21
200.5979811967
 12
374.2194042677
 22
200.0803431065
 13
374.2194042677
 23
200.0803431065
  0
TEXT
  8
4
  6
CONTINUOUS
 62
7
 10
368.344404
 20
201.080343
 40
3.500000
  1
6.5
 41
0.815217
 50
0.000000
 51
0.000000
 72
   5
 73
   0
 11
373.594404
 21
201.080343
  0
POINT
  8
DEFPOINTS
  6
BYBLOCK
 62
5
 10
367.7194042677
 20
191.8868942825
  0
POINT
  8
DEFPOINTS
  6
BYBLOCK
 62
5
 10
374.2194042677
 20
188.8868942825
  0
POINT
  8
DEFPOINTS
  6
BYBLOCK
 62
5
 10
374.2194042677
 20
200.0803431065
  0
ENDBLK
  8
0
  0
BLOCK
  8
4
  2
*D11
 70
     1
 10
0.0000000000
 20
0.0000000000
  3
*D11
  0
LINE
  8
4
  6
BYBLOCK
 62
5
 10
321.2194042677
 20
201.0803431065
 11
321.2194042677
 21
208.0803431065
  0
LINE
  8
4
  6
BYBLOCK
 62
5
 10
374.2194042677
 20
189.3868942825
 11
374.2194042677
 21
208.0803431065
  0
LINE
  8
4
  6
BYBLOCK
 62
5
 10
374.2194042677
 20
207.0803431065
 11
321.2194042677
 21
207.0803431065
  0
SOLID
  8
4
  6
CONTINUOUS
 62
5
 10
323.1512559202
 20
207.5979811967
 11
323.1512559202
 21
206.5627050163
 12
321.2194042677
 22
207.0803431065
 13
321.2194042677
 23
207.0803431065
  0
SOLID
  8
4
  6
CONTINUOUS
 62
5
 10
372.2875526151
 20
206.5627050163
 11
372.2875526151
 21
207.5979811967
 12
374.2194042677
 22
207.0803431065
 13
374.2194042677
 23
207.0803431065
  0
TEXT
  8
4
  6
CONTINUOUS
 62
7
 10
345.969404
 20
208.080343
 40
3.500000
  1
53
 41
0.854701
 50
0.000000
 51
0.000000
 72
   5
 73
   0
 11
349.469404
 21
208.080343
  0
POINT
  8
DEFPOINTS
  6
BYBLOCK
 62
5
 10
321.2194042677
 20
188.8868942825
  0
POINT
  8
DEFPOINTS
  6
BYBLOCK
 62
5
 10
374.2194042677
 20
188.8868942825
  0
POINT
  8
DEFPOINTS
  6
BYBLOCK
 62
5
 10
374.2194042677
 20
207.0803431065
  0
ENDBLK
  8
0
  0
BLOCK
  8
4
  2
*D12
 70
     1
 10
0.0000000000
 20
0.0000000000
  3
*D12
  0
LINE
  8
4
  6
BYBLOCK
 62
5
 10
326.8685346431
 20
194.6222164599
 11
325.4504186021
 21
196.6810867556
  0
LINE
  8
4
  6
BYBLOCK
 62
5
 10
328.5702738923
 20
192.1515721051
 11
329.9883899332
 21
190.0927018095
  0
SOLID
  8
4
  6
CONTINUOUS
 62
5
 10
325.3463988410
 20
195.9195609015
 11
326.1989985913
 21
196.5068176048
 12
326.8685346431
 22
194.6222164599
 13
326.8685346431
 23
194.6222164599
  0
SOLID
  8
4
  6
CONTINUOUS
 62
5
 10
330.0924096943
 20
190.8542276636
 11
329.2398099441
 21
190.2669709602
 12
328.5702738923
 22
192.1515721051
 13
328.5702738923
 23
192.1515721051
  0
TEXT
  8
4
  6
CONTINUOUS
 62
7
 10
334.599569
 20
185.160934
 40
3.500000
  1
4-M3
 41
0.796813
 50
304.558432
 51
0.000000
 72
   5
 73
   0
 11
338.570294
 21
179.396097
  0
POINT
  8
DEFPOINTS
  6
BYBLOCK
 62
5
 10
326.8685346431
 20
194.6222164599
  0
POINT
  8
DEFPOINTS
  6
BYBLOCK
 62
5
 10
328.5702738923
 20
192.1515721051
  0
LINE
  8
4
  6
BYBLOCK
 62
5
 10
326.8685346431
 20
194.6222164599
 11
337.7467455331
 21
178.8288507380
  0
ENDBLK
  8
0
  0
BLOCK
  8
4
  2
*D13
 70
     1
 10
0.0000000000
 20
0.0000000000
  3
*D13
  0
LINE
  8
4
  6
BYBLOCK
 62
5
 10
346.3182064302
 20
195.1473330404
 11
344.7613199442
 21
197.1033761048
  0
LINE
  8
4
  6
BYBLOCK
 62
5
 10
349.1206021051
 20
191.6264555246
 11
350.6774885912
 21
189.6704124603
  0
SOLID
  8
4
  6
CONTINUOUS
 62
5
 10
344.7101279794
 20
196.3364855521
 11
345.5201458963
 21
196.9812085499
 12
346.3182064302
 22
195.1473330404
 13
346.3182064302
 23
195.1473330404
  0
SOLID
  8
4
  6
CONTINUOUS
 62
5
 10
350.7286805560
 20
190.4373030130
 11
349.9186626390
 21
189.7925800152
 12
349.1206021051
 22
191.6264555246
 13
349.1206021051
 23
191.6264555246
  0
TEXT
  8
4
  6
CONTINUOUS
 62
7
 10
355.745052
 20
184.909390
 40
3.500000
  1
2-φ4.5
 41
0.804598
 50
308.517570
 51
0.000000
 72
   5
 73
   0
 11
363.373796
 21
175.324779
  0
POINT
  8
DEFPOINTS
  6
BYBLOCK
 62
5
 10
346.3182064302
 20
195.1473330404
  0
POINT
  8
DEFPOINTS
  6
BYBLOCK
 62
5
 10
349.1206021051
 20
191.6264555246
  0
LINE
  8
4
  6
BYBLOCK
 62
5
 10
346.3182064302
 20
195.1473330404
 11
362.5913783542
 21
174.7020241744
  0
ENDBLK
  8
0
  0
BLOCK
  8
1
  2
*D14
 70
     1
 10
0.0000000000
 20
0.0000000000
  3
*D14
  0
LINE
  8
1
  6
BYBLOCK
 62
5
 10
368.7194042677
 20
76.3868942825
 11
308.0235379846
 21
76.3868942825
  0
LINE
  8
1
  6
BYBLOCK
 62
5
 10
320.7194042677
 20
80.8868942825
 11
308.0235379846
 21
80.8868942825
  0
LINE
  8
1
  6
BYBLOCK
 62
5
 10
309.0235379846
 20
83.3868942825
 11
309.0235379846
 21
73.8868942825
  0
SOLID
  8
1
  6
CONTINUOUS
 62
5
 10
309.5411760748
 20
74.4550426299
 11
308.5058998944
 21
74.4550426299
 12
309.0235379846
 22
76.3868942825
 13
309.0235379846
 23
76.3868942825
  0
SOLID
  8
1
  6
CONTINUOUS
 62
5
 10
308.5058998944
 20
82.8187459351
 11
309.5411760748
 21
82.8187459351
 12
309.0235379846
 22
80.8868942825
 13
309.0235379846
 23
80.8868942825
  0
TEXT
  8
1
  6
CONTINUOUS
 62
7
 10
308.023538
 20
76.386894
 40
3.000000
  1
4.5
 41
0.815217
 50
90.000000
 51
0.000000
 72
   5
 73
   0
 11
308.023538
 21
80.886894
  0
POINT
  8
DEFPOINTS
  6
BYBLOCK
 62
5
 10
369.2194042677
 20
76.3868942825
  0
POINT
  8
DEFPOINTS
  6
BYBLOCK
 62
5
 10
321.2194042677
 20
80.8868942825
  0
POINT
  8
DEFPOINTS
  6
BYBLOCK
 62
5
 10
309.0235379846
 20
80.8868942825
  0
ENDBLK
  8
0
  0
BLOCK
  8
1
  2
*D15
 70
     1
 10
0.0000000000
 20
0.0000000000
  3
*D15
  0
LINE
  8
1
  6
BYBLOCK
 62
5
 10
320.7194042677
 20
188.8868942825
 11
308.0235379846
 21
188.8868942825
  0
LINE
  8
1
  6
BYBLOCK
 62
5
 10
309.0235379846
 20
188.8868942825
 11
309.0235379846
 21
80.8868942825
  0
SOLID
  8
1
  6
CONTINUOUS
 62
5
 10
308.5058998944
 20
82.8187459351
 11
309.5411760748
 21
82.8187459351
 12
309.0235379846
 22
80.8868942825
 13
309.0235379846
 23
80.8868942825
  0
SOLID
  8
1
  6
CONTINUOUS
 62
5
 10
309.5411760748
 20
186.9550426299
 11
308.5058998944
 21
186.9550426299
 12
309.0235379846
 22
188.8868942825
 13
309.0235379846
 23
188.8868942825
  0
TEXT
  8
1
  6
CONTINUOUS
 62
7
 10
308.023538
 20
132.261894
 40
3.500000
  1
108
 41
0.815217
 50
90.000000
 51
0.000000
 72
   5
 73
   0
 11
308.023538
 21
137.511894
  0
POINT
  8
DEFPOINTS
  6
BYBLOCK
 62
5
 10
321.2194042677
 20
80.8868942825
  0
POINT
  8
DEFPOINTS
  6
BYBLOCK
 62
5
 10
321.2194042677
 20
188.8868942825
  0
POINT
  8
DEFPOINTS
  6
BYBLOCK
 62
5
 10
309.0235379846
 20
188.8868942825
  0
ENDBLK
  8
0
  0
BLOCK
  8
1
  2
*D16
 70
     1
 10
0.0000000000
 20
0.0000000000
  3
*D16
  0
LINE
  8
1
  6
BYBLOCK
 62
5
 10
368.7194042677
 20
193.3868942825
 11
308.0235379846
 21
193.3868942825
  0
LINE
  8
1
  6
BYBLOCK
 62
5
 10
309.0235379846
 20
195.8868942825
 11
309.0235379846
 21
186.3868942825
  0
SOLID
  8
1
  6
CONTINUOUS
 62
5
 10
309.5411760748
 20
186.9550426299
 11
308.5058998944
 21
186.9550426299
 12
309.0235379846
 22
188.8868942825
 13
309.0235379846
 23
188.8868942825
  0
SOLID
  8
1
  6
CONTINUOUS
 62
5
 10
308.5058998944
 20
195.3187459351
 11
309.5411760748
 21
195.3187459351
 12
309.0235379846
 22
193.3868942825
 13
309.0235379846
 23
193.3868942825
  0
TEXT
  8
1
  6
CONTINUOUS
 62
7
 10
307.023538
 20
188.886894
 40
3.000000
  1
4.5
 41
0.815217
 50
90.000000
 51
0.000000
 72
   5
 73
   0
 11
307.023538
 21
193.386894
  0
POINT
  8
DEFPOINTS
  6
BYBLOCK
 62
5
 10
321.2194042677
 20
188.8868942825
  0
POINT
  8
DEFPOINTS
  6
BYBLOCK
 62
5
 10
369.2194042677
 20
193.3868942825
  0
POINT
  8
DEFPOINTS
  6
BYBLOCK
 62
5
 10
309.0235379846
 20
193.3868942825
  0
ENDBLK
  8
0
  0
BLOCK
  8
1
  2
*D17
 70
     1
 10
0.0000000000
 20
0.0000000000
  3
*D17
  0
LINE
  8
1
  6
BYBLOCK
 62
5
 10
308.0235379846
 20
76.3868942825
 11
301.0235379846
 21
76.3868942825
  0
LINE
  8
1
  6
BYBLOCK
 62
5
 10
368.7194042677
 20
193.3868942825
 11
301.0235379846
 21
193.3868942825
  0
LINE
  8
1
  6
BYBLOCK
 62
5
 10
302.0235379846
 20
193.3868942825
 11
302.0235379846
 21
76.3868942825
  0
SOLID
  8
1
  6
CONTINUOUS
 62
5
 10
301.5058998944
 20
78.3187459351
 11
302.5411760748
 21
78.3187459351
 12
302.0235379846
 22
76.3868942825
 13
302.0235379846
 23
76.3868942825
  0
SOLID
  8
1
  6
CONTINUOUS
 62
5
 10
302.5411760748
 20
191.4550426299
 11
301.5058998944
 21
191.4550426299
 12
302.0235379846
 22
193.3868942825
 13
302.0235379846
 23
193.3868942825
  0
TEXT
  8
1
  6
CONTINUOUS
 62
7
 10
301.023538
 20
132.261894
 40
3.500000
  1
117
 41
0.815217
 50
90.000000
 51
0.000000
 72
   5
 73
   0
 11
301.023538
 21
137.511894
  0
POINT
  8
DEFPOINTS
  6
BYBLOCK
 62
5
 10
369.2194042677
 20
76.3868942825
  0
POINT
  8
DEFPOINTS
  6
BYBLOCK
 62
5
 10
369.2194042677
 20
193.3868942825
  0
POINT
  8
DEFPOINTS
  6
BYBLOCK
 62
5
 10
302.0235379846
 20
193.3868942825
  0
ENDBLK
  8
0
  0
BLOCK
  8
1
  2
*D18
 70
     1
 10
0.0000000000
 20
0.0000000000
  3
*D18
  0
LINE
  8
1
  6
BYBLOCK
 62
5
 10
382.7194042677
 20
60.6368942825
 11
390.8626383306
 21
60.6368942825
  0
LINE
  8
1
  6
BYBLOCK
 62
5
 10
374.7194042677
 20
80.8868942825
 11
390.8626383306
 21
80.8868942825
  0
LINE
  8
1
  6
BYBLOCK
 62
5
 10
389.8626383306
 20
80.8868942825
 11
389.8626383306
 21
60.6368942825
  0
SOLID
  8
1
  6
CONTINUOUS
 62
5
 10
389.3450002404
 20
62.5687459351
 11
390.3802764208
 21
62.5687459351
 12
389.8626383306
 22
60.6368942825
 13
389.8626383306
 23
60.6368942825
  0
SOLID
  8
1
  6
CONTINUOUS
 62
5
 10
390.3802764208
 20
78.9550426299
 11
389.3450002404
 21
78.9550426299
 12
389.8626383306
 22
80.8868942825
 13
389.8626383306
 23
80.8868942825
  0
TEXT
  8
1
  6
CONTINUOUS
 62
7
 10
388.862638
 20
66.386894
 40
3.500000
  1
20.25
 41
0.786164
 50
90.000000
 51
0.000000
 72
   5
 73
   0
 11
388.862638
 21
75.136894
  0
POINT
  8
DEFPOINTS
  6
BYBLOCK
 62
5
 10
382.2194042677
 20
60.6368942825
  0
POINT
  8
DEFPOINTS
  6
BYBLOCK
 62
5
 10
374.2194042677
 20
80.8868942825
  0
POINT
  8
DEFPOINTS
  6
BYBLOCK
 62
5
 10
389.8626383306
 20
80.8868942825
  0
ENDBLK
  8
0
  0
BLOCK
  8
1
  2
*D19
 70
     1
 10
0.0000000000
 20
0.0000000000
  3
*D19
  0
LINE
  8
1
  6
BYBLOCK
 62
5
 10
374.7194042677
 20
188.8868942825
 11
390.8626383306
 21
188.8868942825
  0
LINE
  8
1
  6
BYBLOCK
 62
5
 10
389.8626383306
 20
188.8868942825
 11
389.8626383306
 21
80.8868942825
  0
SOLID
  8
1
  6
CONTINUOUS
 62
5
 10
389.3450002404
 20
82.8187459351
 11
390.3802764208
 21
82.8187459351
 12
389.8626383306
 22
80.8868942825
 13
389.8626383306
 23
80.8868942825
  0
SOLID
  8
1
  6
CONTINUOUS
 62
5
 10
390.3802764208
 20
186.9550426299
 11
389.3450002404
 21
186.9550426299
 12
389.8626383306
 22
188.8868942825
 13
389.8626383306
 23
188.8868942825
  0
TEXT
  8
1
  6
CONTINUOUS
 62
7
 10
388.862638
 20
132.261894
 40
3.500000
  1
108
 41
0.815217
 50
90.000000
 51
0.000000
 72
   5
 73
   0
 11
388.862638
 21
137.511894
  0
POINT
  8
DEFPOINTS
  6
BYBLOCK
 62
5
 10
374.2194042677
 20
80.8868942825
  0
POINT
  8
DEFPOINTS
  6
BYBLOCK
 62
5
 10
374.2194042677
 20
188.8868942825
  0
POINT
  8
DEFPOINTS
  6
BYBLOCK
 62
5
 10
389.8626383306
 20
188.8868942825
  0
ENDBLK
  8
0
  0
BLOCK
  8
1
  2
*D20
 70
     1
 10
0.0000000000
 20
0.0000000000
  3
*D20
  0
LINE
  8
1
  6
BYBLOCK
 62
5
 10
382.7194042677
 20
216.1368942825
 11
390.8626383306
 21
216.1368942825
  0
LINE
  8
1
  6
BYBLOCK
 62
5
 10
389.8626383306
 20
216.1368942825
 11
389.8626383306
 21
188.8868942825
  0
SOLID
  8
1
  6
CONTINUOUS
 62
5
 10
389.3450002404
 20
190.8187459351
 11
390.3802764208
 21
190.8187459351
 12
389.8626383306
 22
188.8868942825
 13
389.8626383306
 23
188.8868942825
  0
SOLID
  8
1
  6
CONTINUOUS
 62
5
 10
390.3802764208
 20
214.2050426299
 11
389.3450002404
 21
214.2050426299
 12
389.8626383306
 22
216.1368942825
 13
389.8626383306
 23
216.1368942825
  0
TEXT
  8
1
  6
CONTINUOUS
 62
7
 10
388.862638
 20
198.136894
 40
3.500000
  1
27.25
 41
0.786164
 50
90.000000
 51
0.000000
 72
   5
 73
   0
 11
388.862638
 21
206.886894
  0
POINT
  8
DEFPOINTS
  6
BYBLOCK
 62
5
 10
374.2194042677
 20
188.8868942825
  0
POINT
  8
DEFPOINTS
  6
BYBLOCK
 62
5
 10
382.2194042677
 20
216.1368942825
  0
POINT
  8
DEFPOINTS
  6
BYBLOCK
 62
5
 10
389.8626383306
 20
216.1368942825
  0
ENDBLK
  8
0
  0
BLOCK
  8
1
  2
LTEX1
 70
     0
 10
326.0737455970
 20
60.6368942825
  3
LTEX1
  0
SOLID
  8
1
  6
CONTINUOUS
 62
5
 10
326.8959892049
 20
62.4600551227
 11
327.6974098697
 21
61.8046760814
 12
326.0737455970
 22
60.6368942825
 13
326.0737455970
 23
60.6368942825
  0
TEXT
  8
1
  6
CONTINUOUS
 62
7
 10
330.569247
 20
67.134153
 40
2.500000
  1
製品外形
 41
0.886918
 50
0.000000
 51
0.000000
 72
   5
 73
   0
 11
340.569247
 21
67.134153
  0
LINE
  8
1
  6
BYBLOCK
 62
5
 10
326.0737455970
 20
60.6368942825
 11
330.5692473272
 21
66.1341527508
  0
LINE
  8
1
  6
BYBLOCK
 62
5
 10
330.5692473272
 20
66.1341527508
 11
340.5692473272
 21
66.1341527508
  0
ENDBLK
  8
0
  0
BLOCK
  8
1
  2
S3
 70
     0
 10
9.0000000000
 20
262.0000000000
  3
S3
  0
LINE
  8
1
  6
CONTINUOUS
 62
6
 10
11.5000000000
 20
260.0000000000
 11
6.5000000000
 21
260.0000000000
  0
TEXT
  8
1
  6
CONTINUOUS
 62
6
 10
7.904400
 20
259.621673
 40
3.300000
  1
C
 41
1.328000
 50
0.000000
 51
0.000000
 72
   5
 73
   0
 11
10.095600
 21
259.621673
  0
LINE
  8
1
  6
CONTINUOUS
 62
6
 10
9.0000000000
 20
264.0000000000
 11
6.5000000000
 21
260.0000000000
  0
LINE
  8
1
  6
CONTINUOUS
 62
6
 10
9.0000000000
 20
264.0000000000
 11
11.5000000000
 21
260.0000000000
  0
POINT
  8
1
  6
CONTINUOUS
 62
6
 10
9.0000000000
 20
262.0000000000
  0
ENDBLK
  8
0
  0
BLOCK
  8
1
  2
S4
 70
     0
 10
156.7185417190
 20
257.0258233343
  3
S4
  0
LINE
  8
1
  6
CONTINUOUS
 62
6
 10
159.2185417190
 20
255.0258233343
 11
154.2185417190
 21
255.0258233343
  0
TEXT
  8
1
  6
CONTINUOUS
 62
6
 10
155.622942
 20
254.647496
 40
3.300000
  1
C
 41
1.328000
 50
0.000000
 51
0.000000
 72
   5
 73
   0
 11
157.814142
 21
254.647496
  0
LINE
  8
1
  6
CONTINUOUS
 62
6
 10
156.7185417190
 20
259.0258233343
 11
154.2185417190
 21
255.0258233343
  0
LINE
  8
1
  6
CONTINUOUS
 62
6
 10
156.7185417190
 20
259.0258233343
 11
159.2185417190
 21
255.0258233343
  0
POINT
  8
1
  6
CONTINUOUS
 62
6
 10
156.7185417190
 20
257.0258233343
  0
ENDBLK
  8
0
  0
BLOCK
  8
3
  2
LTEX2
 70
     0
 10
132.2724486543
 20
82.7949292581
  3
LTEX2
  0
SOLID
  8
3
  6
CONTINUOUS
 62
5
 10
132.7470395393
 20
80.8520541999
 11
131.7120188880
 21
80.8750546588
 12
132.2724486543
 22
82.7949292581
 13
132.2724486543
 23
82.7949292581
  0
TEXT
  8
3
  6
CONTINUOUS
 62
7
 10
131.016851
 20
27.293027
 40
3.500000
  1
 PBT品はｱｰｽ部(2箇所) は無いです
 41
0.820106
 50
0.000000
 51
0.000000
 72
   5
 73
   0
 11
185.266851
 21
27.293027
  0
LINE
  8
3
  6
BYBLOCK
 62
5
 10
132.2724486543
 20
82.7949292581
 11
131.0168508238
 21
26.2930268879
  0
LINE
  8
3
  6
BYBLOCK
 62
5
 10
131.0168508238
 20
26.2930268879
 11
185.2668508238
 21
26.2930268879
  0
ENDBLK
  8
0
  0
BLOCK
  8
3
  2
LTEX3
 70
     0
 10
85.9407258647
 20
13.3783063462
  3
LTEX3
  0
SOLID
  8
3
  6
CONTINUOUS
 62
5
 10
87.6552853281
 20
14.4080081702
 11
87.9404288284
 21
13.4127745524
 12
85.9407258647
 22
13.3783063462
 13
85.9407258647
 23
13.3783063462
  0
TEXT
  8
3
  6
CONTINUOUS
 62
7
 10
131.016851
 20
27.293027
 40
3.500000
  1
 
 41
1.000000
 50
0.000000
 51
0.000000
 72
   5
 73
   0
 11
132.766851
 21
27.293027
  0
LINE
  8
3
  6
BYBLOCK
 62
5
 10
85.9407258647
 20
13.3783063462
 11
131.0168508238
 21
26.2930268879
  0
LINE
  8
3
  6
BYBLOCK
 62
5
 10
131.0168508238
 20
26.2930268879
 11
132.7668508238
 21
26.2930268879
  0
ENDBLK
  8
0
  0
BLOCK
  8
3
  2
LTEX4
 70
     0
 10
36.9407258647
 20
14.8132752953
  3
LTEX4
  0
SOLID
  8
3
  6
CONTINUOUS
 62
5
 10
38.7956528463
 20
15.5611027439
 11
38.9210534773
 21
14.5334493726
 12
36.9407258647
 22
14.8132752953
 13
36.9407258647
 23
14.8132752953
  0
TEXT
  8
3
  6
CONTINUOUS
 62
7
 10
131.016851
 20
27.293027
 40
3.500000
  1
 
 41
1.000000
 50
0.000000
 51
0.000000
 72
   5
 73
   0
 11
132.766851
 21
27.293027
  0
LINE
  8
3
  6
BYBLOCK
 62
5
 10
36.9407258647
 20
14.8132752953
 11
131.0168508238
 21
26.2930268879
  0
LINE
  8
3
  6
BYBLOCK
 62
5
 10
131.0168508238
 20
26.2930268879
 11
132.7668508238
 21
26.2930268879
  0
ENDBLK
  8
0
  0
BLOCK
  8
1
  2
S5
 70
     0
 10
134.9630154338
 20
34.5440983452
  3
S5
  0
LINE
  8
1
  6
CONTINUOUS
 62
6
 10
137.4630154338
 20
32.5440983452
 11
132.4630154338
 21
32.5440983451
  0
TEXT
  8
1
  6
CONTINUOUS
 62
6
 10
133.867415
 20
32.165771
 40
3.300000
  1
C
 41
1.328000
 50
0.000000
 51
0.000000
 72
   5
 73
   0
 11
136.058615
 21
32.165771
  0
LINE
  8
1
  6
CONTINUOUS
 62
6
 10
134.9630154338
 20
36.5440983452
 11
132.4630154338
 21
32.5440983451
  0
LINE
  8
1
  6
CONTINUOUS
 62
6
 10
134.9630154338
 20
36.5440983452
 11
137.4630154338
 21
32.5440983452
  0
POINT
  8
1
  6
CONTINUOUS
 62
6
 10
134.9630154338
 20
34.5440983452
  0
ENDBLK
  8
0
  0
BLOCK
  8
1
  2
S6
 70
     0
 10
225.3982676976
 20
267.6607447232
  3
S6
  0
LINE
  8
1
  6
CONTINUOUS
 62
6
 10
227.8982676976
 20
265.6607447232
 11
222.8982676976
 21
265.6607447232
  0
TEXT
  8
1
  6
CONTINUOUS
 62
6
 10
224.302668
 20
265.282417
 40
3.300000
  1
C
 41
1.328000
 50
0.000000
 51
0.000000
 72
   5
 73
   0
 11
226.493868
 21
265.282417
  0
LINE
  8
1
  6
CONTINUOUS
 62
6
 10
225.3982676976
 20
269.6607447232
 11
222.8982676976
 21
265.6607447232
  0
LINE
  8
1
  6
CONTINUOUS
 62
6
 10
225.3982676976
 20
269.6607447232
 11
227.8982676976
 21
265.6607447232
  0
POINT
  8
1
  6
CONTINUOUS
 62
6
 10
225.3982676976
 20
267.6607447232
  0
ENDBLK
  8
0
  0
ENDSEC
  0
SECTION
  2
ENTITIES
  0
LINE
  8
1
  6
CONTINUOUS
 62
7
 10
209.3371686205
 20
197.1368942825
 11
157.3371686205
 21
197.1368942825
  0
LINE
  8
1
  6
CONTINUOUS
 62
7
 10
210.8371686205
 20
74.1368942825
 11
210.8371686205
 21
195.6368942825
  0
LINE
  8
1
  6
CONTINUOUS
 62
7
 10
157.3371686205
 20
72.6368942825
 11
209.3371686205
 21
72.6368942825
  0
LINE
  8
1
  6
CONTINUOUS
 62
7
 10
155.8371686205
 20
74.1368942825
 11
155.8371686205
 21
195.6368942825
  0
LINE
  8
1
  6
CONTINUOUS
 62
7
 10
212.8371686205
 20
71.6368942825
 11
212.8371686205
 21
198.1368942825
  0
LINE
  8
1
  6
CONTINUOUS
 62
7
 10
211.8371686205
 20
199.1368942825
 11
154.8371686205
 21
199.1368942825
  0
LINE
  8
1
  6
CONTINUOUS
 62
7
 10
153.8371686205
 20
71.6368942825
 11
153.8371686205
 21
198.1368942825
  0
LINE
  8
1
  6
CONTINUOUS
 62
7
 10
154.8371686205
 20
70.6368942825
 11
211.8371686205
 21
70.6368942825
  0
ARC
  8
1
  6
CONTINUOUS
 62
7
 10
157.3371686205
 20
195.6368942825
 40
1.5000000000
 50
90.0000000000
 51
180.0000000000
  0
ARC
  8
1
  6
CONTINUOUS
 62
7
 10
209.3371686205
 20
195.6368942825
 40
1.5000000000
 50
0.0000000000
 51
90.0000000000
  0
ARC
  8
1
  6
CONTINUOUS
 62
7
 10
209.3371686205
 20
74.1368942825
 40
1.5000000000
 50
270.0000000000
 51
0.0000000000
  0
ARC
  8
1
  6
CONTINUOUS
 62
7
 10
157.3371686205
 20
74.1368942825
 40
1.5000000000
 50
180.0000000000
 51
270.0000000000
  0
CIRCLE
  8
1
  6
HIDDEN
 62
3
 10
163.3371686205
 20
193.3868942825
 40
1.7500000000
  0
CIRCLE
  8
1
  6
HIDDEN
 62
3
 10
163.3371686205
 20
193.3868942825
 40
3.2500000000
  0
CIRCLE
  8
1
  6
HIDDEN
 62
3
 10
203.3371686205
 20
193.3868942825
 40
1.7500000000
  0
CIRCLE
  8
1
  6
HIDDEN
 62
3
 10
203.3371686205
 20
193.3868942825
 40
3.2500000000
  0
LINE
  8
1
  6
HIDDEN
 62
3
 10
206.3371686205
 20
188.3868942825
 11
209.3371686205
 21
188.3868942825
  0
LINE
  8
1
  6
HIDDEN
 62
3
 10
158.3371686205
 20
188.3868942825
 11
206.3371686205
 21
188.3868942825
  0
CIRCLE
  8
1
  6
HIDDEN
 62
3
 10
163.3371686205
 20
76.3868942825
 40
1.7500000000
  0
CIRCLE
  8
1
  6
HIDDEN
 62
3
 10
163.3371686205
 20
76.3868942825
 40
3.2500000000
  0
CIRCLE
  8
1
  6
HIDDEN
 62
3
 10
203.3371686205
 20
76.3868942825
 40
1.7500000000
  0
CIRCLE
  8
1
  6
HIDDEN
 62
3
 10
203.3371686205
 20
76.3868942825
 40
3.2500000000
  0
CIRCLE
  8
1
  6
HIDDEN
 62
3
 10
183.3371686205
 20
193.3868942825
 40
2.0000000000
  0
LINE
  8
1
  6
CONTINUOUS
 62
7
 10
214.8371686205
 20
71.6368942825
 11
214.8371686205
 21
198.1368942825
  0
LINE
  8
1
  6
CONTINUOUS
 62
7
 10
211.8371686205
 20
201.1368942825
 11
154.8371686205
 21
201.1368942825
  0
LINE
  8
1
  6
CONTINUOUS
 62
7
 10
151.8371686205
 20
71.6368942825
 11
151.8371686205
 21
198.1368942825
  0
LINE
  8
1
  6
CONTINUOUS
 62
7
 10
154.8371686205
 20
68.6368942825
 11
211.8371686205
 21
68.6368942825
  0
LINE
  8
1
  6
CONTINUOUS
 62
7
 10
216.8371686205
 20
61.6368942825
 11
216.8371686205
 21
205.5118942825
  0
LINE
  8
1
  6
CONTINUOUS
 62
7
 10
149.8371686205
 20
205.5118942825
 11
149.8371686205
 21
61.6368942825
  0
LINE
  8
1
  6
CONTINUOUS
 62
7
 10
217.8371686205
 20
60.6368942825
 11
217.8371686205
 21
216.1368942825
  0
LINE
  8
1
  6
CONTINUOUS
 62
7
 10
148.8371686205
 20
216.1368942825
 11
148.8371686205
 21
60.6368942825
  0
ARC
  8
1
  6
CONTINUOUS
 62
7
 10
154.8371686205
 20
198.1368942825
 40
1.0000000000
 50
90.0000000000
 51
180.0000000000
  0
ARC
  8
1
  6
CONTINUOUS
 62
7
 10
211.8371686205
 20
198.1368942825
 40
1.0000000000
 50
0.0000000000
 51
90.0000000000
  0
ARC
  8
1
  6
CONTINUOUS
 62
7
 10
211.8371686205
 20
71.6368942825
 40
1.0000000000
 50
270.0000000000
 51
0.0000000000
  0
ARC
  8
1
  6
CONTINUOUS
 62
7
 10
154.8371686205
 20
71.6368942825
 40
1.0000000000
 50
180.0000000000
 51
270.0000000000
  0
LINE
  8
1
  6
HIDDEN
 62
3
 10
209.3371686205
 20
178.3868942825
 11
209.3371686205
 21
188.3868942825
  0
ARC
  8
1
  6
CONTINUOUS
 62
7
 10
154.8371686205
 20
198.1368942825
 40
3.0000000000
 50
90.0000000000
 51
180.0000000000
  0
ARC
  8
1
  6
CONTINUOUS
 62
7
 10
211.8371686205
 20
198.1368942825
 40
3.0000000000
 50
0.0000000000
 51
90.0000000000
  0
ARC
  8
1
  6
CONTINUOUS
 62
7
 10
211.8371686205
 20
71.6368942825
 40
3.0000000000
 50
270.0000000000
 51
0.0000000000
  0
ARC
  8
1
  6
CONTINUOUS
 62
7
 10
154.8371686205
 20
71.6368942825
 40
3.0000000000
 50
180.0000000000
 51
270.0000000000
  0
LINE
  8
1
  6
DASHDOT
 62
1
 10
219.8371686205
 20
209.1368942825
 11
146.8371686205
 21
209.1368942825
  0
LINE
  8
1
  6
CONTINUOUS
 62
7
 10
217.8371686205
 20
60.6368942825
 11
148.8371686205
 21
60.6368942825
  0
LINE
  8
1
  6
CONTINUOUS
 62
7
 10
149.8371686205
 20
61.6368942825
 11
216.8371686205
 21
61.6368942825
  0
LINE
  8
1
  6
CONTINUOUS
 62
7
 10
149.8371686205
 20
203.1368942825
 11
149.8371686205
 21
215.1368942825
  0
LINE
  8
1
  6
CONTINUOUS
 62
7
 10
149.8371686205
 20
215.1368942825
 11
154.8371686205
 21
215.1368942825
  0
LINE
  8
1
  6
CONTINUOUS
 62
7
 10
154.8371686205
 20
215.1368942825
 11
154.8371686205
 21
203.1368942825
  0
LINE
  8
1
  6
CONTINUOUS
 62
7
 10
154.8371686205
 20
203.1368942825
 11
149.8371686205
 21
203.1368942825
  0
LINE
  8
1
  6
CONTINUOUS
 62
7
 10
216.8371686205
 20
215.1368942825
 11
211.8371686205
 21
215.1368942825
  0
LINE
  8
1
  6
CONTINUOUS
 62
7
 10
211.8371686205
 20
215.1368942825
 11
211.8371686205
 21
203.1368942825
  0
LINE
  8
1
  6
CONTINUOUS
 62
7
 10
211.8371686205
 20
203.1368942825
 11
216.8371686205
 21
203.1368942825
  0
LINE
  8
1
  6
CONTINUOUS
 62
7
 10
216.8371686205
 20
203.1368942825
 11
216.8371686205
 21
215.1368942825
  0
LINE
  8
1
  6
CONTINUOUS
 62
7
 10
211.8371686205
 20
203.1368942825
 11
211.8371686205
 21
202.1368942825
  0
LINE
  8
1
  6
CONTINUOUS
 62
7
 10
211.8371686205
 20
202.1368942825
 11
154.8371686205
 21
202.1368942825
  0
LINE
  8
1
  6
CONTINUOUS
 62
7
 10
154.8371686205
 20
202.1368942825
 11
154.8371686205
 21
203.1368942825
  0
LINE
  8
1
  6
CONTINUOUS
 62
7
 10
217.8371686205
 20
216.1368942825
 11
148.8371686205
 21
216.1368942825
  0
CIRCLE
  8
1
  6
HIDDEN
 62
3
 10
183.3371686205
 20
193.3868942825
 40
1.6500000000
  0
CIRCLE
  8
1
  6
HIDDEN
 62
3
 10
183.3371686205
 20
76.3868942825
 40
2.0000000000
  0
CIRCLE
  8
1
  6
HIDDEN
 62
3
 10
183.3371686205
 20
76.3868942825
 40
1.6500000000
  0
CIRCLE
  8
1
  6
HIDDEN
 62
7
 10
183.3371686205
 20
65.1368942825
 40
2.0000000000
  0
CIRCLE
  8
1
  6
CONTINUOUS
 62
7
 10
183.3371686205
 20
65.1368942825
 40
1.6500000000
  0
INSERT
  8
5
  6
CONTINUOUS
 62
7
  2
S0
 10
0.0000000000
 20
0.0000000000
  0
TEXT
  8
5
  6
CONTINUOUS
 62
7
 10
349.684277
 20
5.000000
 40
6.000000
  1
M0051A051C
 41
0.765697
 50
0.000000
 51
0.000000
 72
   5
 73
   0
 11
379.684277
 21
5.000000
  0
TEXT
  8
5
  6
CONTINUOUS
 62
7
 10
348.653069
 20
20.642557
 40
5.000000
  1
Panel Interface
 41
0.759109
 50
0.000000
 51
0.000000
 72
   5
 73
   0
 11
386.153069
 21
20.642557
  0
TEXT
  8
5
  6
CONTINUOUS
 62
7
 10
348.653069
 20
15.642557
 40
5.000000
  1
Type:MCON-001-051
 41
0.757576
 50
0.000000
 51
0.000000
 72
   5
 73
   0
 11
391.153069
 21
15.642557
  0
TEXT
  8
5
  6
CONTINUOUS
 62
7
 10
293.500000
 20
10.750000
 40
3.000000
  1
Yamada
 41
0.779221
 50
0.000000
 51
0.000000
 72
   5
 73
   0
 11
302.500000
 21
10.750000
  0
TEXT
  8
5
  6
CONTINUOUS
 62
7
 10
304.500000
 20
10.750000
 40
3.000000
  1
Yamada
 41
0.779221
 50
0.000000
 51
0.000000
 72
   5
 73
   0
 11
313.500000
 21
10.750000
  0
TEXT
  8
1
  6
CONTINUOUS
 62
7
 10
167.835635
 20
52.378379
 40
4.000000
  1
内 部 図
 41
0.854701
 50
0.000000
 51
0.000000
 72
   5
 73
   0
 11
183.835635
 21
52.378379
  0
LINE
  8
1
  6
HIDDEN
 62
3
 10
209.3371686205
 20
178.3868942825
 11
206.3371686205
 21
178.3868942825
  0
LINE
  8
1
  6
HIDDEN
 62
3
 10
206.3371686205
 20
178.3868942825
 11
206.3371686205
 21
188.3868942825
  0
LINE
  8
1
  6
HIDDEN
 62
3
 10
157.3371686205
 20
81.3868942825
 11
160.3371686205
 21
81.3868942825
  0
LINE
  8
1
  6
HIDDEN
 62
3
 10
208.3371686205
 20
81.3868942825
 11
160.3371686205
 21
81.3868942825
  0
LINE
  8
1
  6
HIDDEN
 62
3
 10
157.3371686205
 20
91.3868942825
 11
160.3371686205
 21
91.3868942825
  0
LINE
  8
1
  6
HIDDEN
 62
3
 10
160.3371686205
 20
91.3868942825
 11
160.3371686205
 21
81.3868942825
  0
LINE
  8
1
  6
HIDDEN
 62
3
 10
157.3371686205
 20
91.3868942825
 11
157.3371686205
 21
81.3868942825
  0
LINE
  8
1
  6
HIDDEN
 62
3
 10
209.3371686205
 20
82.3868942825
 11
209.3371686205
 21
178.3868942825
  0
LINE
  8
1
  6
HIDDEN
 62
3
 10
157.3371686205
 20
187.3868942825
 11
157.3371686205
 21
91.3868942825
  0
ARC
  8
1
  6
HIDDEN
 62
3
 10
158.3371686205
 20
187.3868942825
 40
1.0000000000
 50
90.0000000000
 51
180.0000000000
  0
ARC
  8
1
  6
HIDDEN
 62
3
 10
208.3371686205
 20
82.3868942825
 40
1.0000000000
 50
270.0000000000
 51
0.0000000000
  0
LINE
  8
3
  6
CONTINUOUS
 62
7
 10
210.5871686205
 20
73.8868942827
 11
210.5871686205
 21
195.8868942823
  0
LINE
  8
3
  6
CONTINUOUS
 62
7
 10
209.5871686205
 20
196.8868942823
 11
157.0871686205
 21
196.8868942827
  0
LINE
  8
3
  6
CONTINUOUS
 62
7
 10
156.0871686205
 20
73.8868942823
 11
156.0871686205
 21
195.8868942827
  0
LINE
  8
3
  6
CONTINUOUS
 62
7
 10
209.5871686205
 20
72.8868942827
 11
157.0871686205
 21
72.8868942823
  0
LINE
  8
3
  6
CONTINUOUS
 62
7
 10
157.0871686205
 20
196.8868942827
 11
156.0871686205
 21
195.8868942827
  0
LINE
  8
3
  6
CONTINUOUS
 62
7
 10
210.5871686205
 20
195.8868942823
 11
209.5871686205
 21
196.8868942823
  0
LINE
  8
3
  6
CONTINUOUS
 62
7
 10
210.5871686205
 20
73.8868942827
 11
209.5871686205
 21
72.8868942827
  0
LINE
  8
3
  6
CONTINUOUS
 62
7
 10
157.0871686205
 20
72.8868942823
 11
156.0871686205
 21
73.8868942823
  0
CIRCLE
  8
3
  6
CONTINUOUS
 62
6
 10
183.3371686205
 20
193.3868942825
 40
3.9000000000
  0
LINE
  8
3
  6
CONTINUOUS
 62
6
 10
181.6135958414
 20
195.1104670616
 11
185.0607413996
 21
191.6633215033
  0
LINE
  8
3
  6
CONTINUOUS
 62
6
 10
181.6135958414
 20
191.6633215033
 11
185.0607413996
 21
195.1104670616
  0
CIRCLE
  8
3
  6
CONTINUOUS
 62
6
 10
183.3371686205
 20
193.3868942825
 40
3.4125000000
  0
CIRCLE
  8
3
  6
CONTINUOUS
 62
6
 10
183.3371686205
 20
76.3868942825
 40
3.9000000000
  0
LINE
  8
3
  6
CONTINUOUS
 62
6
 10
181.6135958414
 20
78.1104670617
 11
185.0607413996
 21
74.6633215034
  0
LINE
  8
3
  6
CONTINUOUS
 62
6
 10
181.6135958414
 20
74.6633215034
 11
185.0607413996
 21
78.1104670617
  0
CIRCLE
  8
3
  6
CONTINUOUS
 62
6
 10
183.3371686205
 20
76.3868942825
 40
3.4125000000
  0
INSERT
  8
5
  6
CONTINUOUS
 62
7
  2
S1
 10
315.5000000000
 20
252.5000000000
  0
LINE
  8
5
  6
CONTINUOUS
 62
6
 10
13.5000000000
 20
254.5000000000
 11
13.5000000000
 21
279.5000000000
  0
LINE
  8
5
  6
CONTINUOUS
 62
6
 10
25.5000000000
 20
254.5000000000
 11
25.5000000000
 21
279.5000000000
  0
LINE
  8
5
  6
CONTINUOUS
 62
6
 10
90.0000000000
 20
254.5000000000
 11
90.0000000000
 21
279.5000000000
  0
LINE
  8
5
  6
CONTINUOUS
 62
6
 10
99.0000000000
 20
279.5000000000
 11
99.0000000000
 21
254.5000000000
  0
TEXT
  8
5
  6
CONTINUOUS
 62
6
 10
16.534500
 20
255.500000
 40
3.000000
  1
Date
 41
0.787649
 50
0.000000
 51
0.000000
 72
   5
 73
   0
 11
22.465500
 21
255.500000
  0
TEXT
  8
5
  6
CONTINUOUS
 62
6
 10
6.292500
 20
255.500000
 40
3.000000
  1
Rev.
 41
0.719124
 50
0.000000
 51
0.000000
 72
   5
 73
   0
 11
11.707500
 21
255.500000
  0
TEXT
  8
5
  6
CONTINUOUS
 62
6
 10
27.000000
 20
255.500000
 40
3.000000
  1
Content
 41
0.746681
 50
0.000000
 51
0.000000
 72
   5
 73
   0
 11
37.125000
 21
255.500000
  0
TEXT
  8
5
  6
CONTINUOUS
 62
6
 10
90.972000
 20
255.500000
 40
3.000000
  1
Name
 41
0.937052
 50
0.000000
 51
0.000000
 72
   5
 73
   0
 11
98.028000
 21
255.500000
  0
LINE
  8
5
  6
CONTINUOUS
 62
6
 10
4.5000000000
 20
259.5000000000
 11
99.0000000000
 21
259.5000000000
  0
LINE
  8
5
  6
CONTINUOUS
 62
6
 10
4.5000000000
 20
264.5000000000
 11
99.0000000000
 21
264.5000000000
  0
LINE
  8
5
  6
CONTINUOUS
 62
6
 10
4.5000000000
 20
269.5000000000
 11
99.0000000000
 21
269.5000000000
  0
LINE
  8
5
  6
CONTINUOUS
 62
6
 10
4.5000000000
 20
274.5000000000
 11
99.0000000000
 21
274.5000000000
  0
LINE
  8
5
  6
CONTINUOUS
 62
6
 10
4.5000000000
 20
254.5000000000
 11
99.0000000000
 21
254.5000000000
  0
POINT
  8
5
  6
CONTINUOUS
 62
6
 10
9.0000000000
 20
262.0000000000
  0
POINT
  8
5
  6
CONTINUOUS
 62
6
 10
9.0000000000
 20
267.0000000000
  0
POINT
  8
5
  6
CONTINUOUS
 62
6
 10
9.0000000000
 20
272.0000000000
  0
POINT
  8
5
  6
CONTINUOUS
 62
6
 10
9.0000000000
 20
277.0000000000
  0
POINT
  8
5
  6
CONTINUOUS
 62
6
 10
19.5000000000
 20
277.0000000000
  0
POINT
  8
5
  6
CONTINUOUS
 62
6
 10
19.5000000000
 20
272.0000000000
  0
POINT
  8
5
  6
CONTINUOUS
 62
6
 10
19.5000000000
 20
267.0000000000
  0
POINT
  8
5
  6
CONTINUOUS
 62
6
 10
19.5000000000
 20
262.0000000000
  0
POINT
  8
5
  6
CONTINUOUS
 62
6
 10
94.5000000000
 20
262.0000000000
  0
POINT
  8
5
  6
CONTINUOUS
 62
6
 10
94.5000000000
 20
267.0000000000
  0
POINT
  8
5
  6
CONTINUOUS
 62
6
 10
94.5000000000
 20
272.0000000000
  0
POINT
  8
5
  6
CONTINUOUS
 62
6
 10
94.5000000000
 20
277.0000000000
  0
POINT
  8
5
  6
CONTINUOUS
 62
6
 10
25.5000000000
 20
277.0000000000
  0
POINT
  8
5
  6
CONTINUOUS
 62
6
 10
25.5000000000
 20
272.0000000000
  0
POINT
  8
5
  6
CONTINUOUS
 62
6
 10
25.5000000000
 20
267.0000000000
  0
POINT
  8
5
  6
CONTINUOUS
 62
6
 10
25.5000000000
 20
262.0000000000
  0
TEXT
  8
5
  6
CONTINUOUS
 62
7
 10
254.500000
 20
248.500000
 40
3.000000
  1
M4×8小ワｾﾑｽ(ﾊﾟﾈﾙ固定用)
 41
0.833177
 50
0.000000
 51
0.000000
 72
   5
 73
   0
 11
291.718000
 21
248.500000
  0
TEXT
  8
5
  6
CONTINUOUS
 62
7
 10
234.500000
 20
248.500000
 40
3.000000
  1
添付品ﾋﾞｽ
 41
0.822804
 50
0.000000
 51
0.000000
 72
   5
 73
   0
 11
247.706000
 21
248.500000
  0
TEXT
  8
5
  6
CONTINUOUS
 62
7
 10
310.125000
 20
248.250000
 40
3.500000
  1
2
 41
1.000000
 50
0.000000
 51
0.000000
 72
   5
 73
   0
 11
311.875000
 21
248.250000
  0
LINE
  8
5
  6
CONTINUOUS
 62
6
 10
293.5000000000
 20
257.5000000000
 11
293.5000000000
 21
252.5000000000
  0
LINE
  8
3
  6
CONTINUOUS
 62
7
 10
210.5871686205
 20
73.8868942827
 11
210.5871686205
 21
195.8868942823
  0
LINE
  8
3
  6
CONTINUOUS
 62
7
 10
210.5871686205
 20
195.8868942823
 11
209.5871686205
 21
196.8868942823
  0
LINE
  8
3
  6
CONTINUOUS
 62
7
 10
209.5871686205
 20
196.8868942823
 11
157.0871686205
 21
196.8868942827
  0
LINE
  8
3
  6
CONTINUOUS
 62
7
 10
157.0871686205
 20
196.8868942827
 11
156.0871686205
 21
195.8868942827
  0
LINE
  8
3
  6
CONTINUOUS
 62
7
 10
156.0871686205
 20
73.8868942823
 11
156.0871686205
 21
195.8868942827
  0
LINE
  8
3
  6
CONTINUOUS
 62
7
 10
157.0871686205
 20
72.8868942823
 11
156.0871686205
 21
73.8868942823
  0
LINE
  8
3
  6
CONTINUOUS
 62
7
 10
209.5871686205
 20
72.8868942827
 11
157.0871686205
 21
72.8868942823
  0
LINE
  8
3
  6
CONTINUOUS
 62
7
 10
210.5871686205
 20
73.8868942827
 11
209.5871686205
 21
72.8868942827
  0
LINE
  8
5
  6
CONTINUOUS
 62
6
 10
380.5000000000
 20
257.5000000000
 11
340.5000000000
 21
257.5000000000
  0
TEXT
  8
5
  6
CONTINUOUS
 62
7
 10
316.250000
 20
253.250000
 40
3.500000
  1
10
 41
0.854701
 50
0.000000
 51
0.000000
 72
   5
 73
   0
 11
319.750000
 21
253.250000
  0
LINE
  8
5
  6
CONTINUOUS
 62
6
 10
315.5000000000
 20
247.5000000000
 11
315.5000000000
 21
252.5000000000
  0
LINE
  8
5
  6
CONTINUOUS
 62
6
 10
320.5000000000
 20
252.5000000000
 11
320.5000000000
 21
247.5000000000
  0
LINE
  8
5
  6
CONTINUOUS
 62
6
 10
340.5000000000
 20
252.5000000000
 11
340.5000000000
 21
247.5000000000
  0
LINE
  8
5
  6
CONTINUOUS
 62
6
 10
380.5000000000
 20
252.5000000000
 11
380.5000000000
 21
247.5000000000
  0
LINE
  8
5
  6
CONTINUOUS
 62
6
 10
395.5000000000
 20
252.5000000000
 11
395.5000000000
 21
247.5000000000
  0
LINE
  8
5
  6
CONTINUOUS
 62
6
 10
400.5000000000
 20
252.5000000000
 11
400.5000000000
 21
247.5000000000
  0
LINE
  8
5
  6
CONTINUOUS
 62
6
 10
315.4999999999
 20
242.5000000000
 11
315.4999999999
 21
247.5000000000
  0
LINE
  8
5
  6
CONTINUOUS
 62
6
 10
320.4999999999
 20
242.5000000000
 11
315.4999999999
 21
242.5000000000
  0
LINE
  8
5
  6
CONTINUOUS
 62
6
 10
320.4999999999
 20
247.5000000000
 11
320.4999999999
 21
242.5000000000
  0
LINE
  8
5
  6
CONTINUOUS
 62
6
 10
340.4999999999
 20
242.5000000000
 11
320.4999999999
 21
242.5000000000
  0
LINE
  8
5
  6
CONTINUOUS
 62
6
 10
340.4999999999
 20
247.5000000000
 11
340.4999999999
 21
242.5000000000
  0
LINE
  8
5
  6
CONTINUOUS
 62
6
 10
380.4999999999
 20
247.5000000000
 11
380.4999999999
 21
242.5000000000
  0
LINE
  8
5
  6
CONTINUOUS
 62
6
 10
395.4999999999
 20
247.5000000000
 11
395.4999999999
 21
242.5000000000
  0
LINE
  8
5
  6
CONTINUOUS
 62
6
 10
400.4999999999
 20
247.5000000000
 11
400.4999999999
 21
242.5000000000
  0
LINE
  8
5
  6
CONTINUOUS
 62
6
 10
400.4999999999
 20
242.5000000000
 11
395.4999999999
 21
242.5000000000
  0
LINE
  8
5
  6
CONTINUOUS
 62
6
 10
395.4999999999
 20
242.5000000000
 11
380.4999999999
 21
242.5000000000
  0
LINE
  8
5
  6
CONTINUOUS
 62
6
 10
380.4999999999
 20
242.5000000000
 11
340.4999999999
 21
242.5000000000
  0
LINE
  8
5
  6
CONTINUOUS
 62
6
 10
315.4999999999
 20
237.5000000000
 11
315.4999999999
 21
242.5000000000
  0
LINE
  8
5
  6
CONTINUOUS
 62
6
 10
320.4999999999
 20
237.5000000000
 11
315.4999999999
 21
237.5000000000
  0
LINE
  8
5
  6
CONTINUOUS
 62
6
 10
320.4999999999
 20
242.5000000000
 11
320.4999999999
 21
237.5000000000
  0
LINE
  8
5
  6
CONTINUOUS
 62
6
 10
340.4999999999
 20
237.5000000000
 11
320.4999999999
 21
237.5000000000
  0
LINE
  8
5
  6
CONTINUOUS
 62
6
 10
340.4999999999
 20
242.5000000000
 11
340.4999999999
 21
237.5000000000
  0
LINE
  8
5
  6
CONTINUOUS
 62
6
 10
380.4999999999
 20
242.5000000000
 11
380.4999999999
 21
237.5000000000
  0
LINE
  8
5
  6
CONTINUOUS
 62
6
 10
395.4999999999
 20
242.5000000000
 11
395.4999999999
 21
237.5000000000
  0
LINE
  8
5
  6
CONTINUOUS
 62
6
 10
400.4999999999
 20
242.5000000000
 11
400.4999999999
 21
237.5000000000
  0
LINE
  8
5
  6
CONTINUOUS
 62
6
 10
400.4999999999
 20
237.5000000000
 11
395.4999999999
 21
237.5000000000
  0
LINE
  8
5
  6
CONTINUOUS
 62
6
 10
395.4999999999
 20
237.5000000000
 11
380.4999999999
 21
237.5000000000
  0
LINE
  8
5
  6
CONTINUOUS
 62
6
 10
380.4999999999
 20
237.5000000000
 11
340.4999999999
 21
237.5000000000
  0
TEXT
  8
5
  6
CONTINUOUS
 62
7
 10
316.250000
 20
248.250000
 40
3.500000
  1
11
 41
0.854701
 50
0.000000
 51
0.000000
 72
   5
 73
   0
 11
319.750000
 21
248.250000
  0
TEXT
  8
5
  6
CONTINUOUS
 62
7
 10
316.250000
 20
238.250000
 40
3.500000
  1
--
 41
0.854701
 50
0.000000
 51
0.000000
 72
   5
 73
   0
 11
319.750000
 21
238.250000
  0
TEXT
  8
5
  6
CONTINUOUS
 62
7
 10
321.500000
 20
263.500000
 40
3.000000
  1
パネル
 41
0.877246
 50
0.000000
 51
0.000000
 72
   5
 73
   0
 11
330.290000
 21
263.500000
  0
TEXT
  8
5
  6
CONTINUOUS
 62
7
 10
341.500000
 20
263.250000
 40
3.500000
  1
M0051B051A (SPCCt=1.6)
 41
0.756829
 50
0.000000
 51
0.000000
 72
   5
 73
   0
 11
380.094500
 21
263.250000
  0
TEXT
  8
5
  6
CONTINUOUS
 62
7
 10
397.125000
 20
263.250000
 40
3.500000
  1
1
 41
1.000000
 50
0.000000
 51
0.000000
 72
   5
 73
   0
 11
398.875000
 21
263.250000
  0
TEXT
  8
5
  6
CONTINUOUS
 62
7
 10
294.500000
 20
268.500000
 40
3.000000
  1
MADOKA
 41
1.028831
 50
0.000000
 51
0.000000
 72
   5
 73
   0
 11
306.383000
 21
268.500000
  0
TEXT
  8
5
  6
CONTINUOUS
 62
7
 10
294.500000
 20
263.500000
 40
3.000000
  1
MADOKA
 41
1.028831
 50
0.000000
 51
0.000000
 72
   5
 73
   0
 11
306.383000
 21
263.500000
  0
TEXT
  8
5
  6
CONTINUOUS
 62
7
 10
381.500000
 20
263.500000
 40
3.000000
  1
MADOKA
 41
1.028831
 50
0.000000
 51
0.000000
 72
   5
 73
   0
 11
393.383000
 21
263.500000
  0
TEXT
  8
5
  6
CONTINUOUS
 62
7
 10
381.500000
 20
268.500000
 40
3.000000
  1
--
 41
0.854701
 50
0.000000
 51
0.000000
 72
   5
 73
   0
 11
384.500000
 21
268.500000
  0
TEXT
  8
5
  6
CONTINUOUS
 62
7
 10
294.500000
 20
243.500000
 40
3.000000
  1
--
 41
0.854701
 50
0.000000
 51
0.000000
 72
   5
 73
   0
 11
297.500000
 21
243.500000
  0
TEXT
  8
5
  6
CONTINUOUS
 62
7
 10
294.500000
 20
248.500000
 40
3.000000
  1
--
 41
0.854701
 50
0.000000
 51
0.000000
 72
   5
 73
   0
 11
297.500000
 21
248.500000
  0
TEXT
  8
5
  6
CONTINUOUS
 62
7
 10
294.500000
 20
253.500000
 40
3.000000
  1
--
 41
0.854701
 50
0.000000
 51
0.000000
 72
   5
 73
   0
 11
297.500000
 21
253.500000
  0
TEXT
  8
5
  6
CONTINUOUS
 62
7
 10
294.500000
 20
258.500000
 40
3.000000
  1
--
 41
0.854701
 50
0.000000
 51
0.000000
 72
   5
 73
   0
 11
297.500000
 21
258.500000
  0
TEXT
  8
5
  6
CONTINUOUS
 62
7
 10
397.125000
 20
258.250000
 40
3.500000
  1
1
 41
1.000000
 50
0.000000
 51
0.000000
 72
   5
 73
   0
 11
398.875000
 21
258.250000
  0
TEXT
  8
5
  6
CONTINUOUS
 62
7
 10
397.125000
 20
253.250000
 40
3.500000
  1
2
 41
1.000000
 50
0.000000
 51
0.000000
 72
   5
 73
   0
 11
398.875000
 21
253.250000
  0
TEXT
  8
5
  6
CONTINUOUS
 62
7
 10
321.500000
 20
253.500000
 40
3.000000
  1
↑固定ビス
 41
0.839085
 50
0.000000
 51
0.000000
 72
   5
 73
   0
 11
335.798000
 21
253.500000
  0
TEXT
  8
5
  6
CONTINUOUS
 62
7
 10
341.500000
 20
253.250000
 40
3.500000
  1
#6-32  5/16
 41
0.709583
 50
0.000000
 51
0.000000
 72
   5
 73
   0
 11
359.381500
 21
253.250000
  0
TEXT
  8
5
  6
CONTINUOUS
 62
7
 10
381.500000
 20
253.500000
 40
3.000000
  1
--
 41
0.854701
 50
0.000000
 51
0.000000
 72
   5
 73
   0
 11
384.500000
 21
253.500000
  0
POINT
  8
4
  6
CONTINUOUS
 62
7
 10
183.3371686205
 20
134.8868942825
  0
LINE
  8
3
  6
CONTINUOUS
 62
7
 10
210.5871686205
 20
73.8868942827
 11
210.5871686205
 21
195.8868942823
  0
LINE
  8
3
  6
CONTINUOUS
 62
7
 10
209.5871686205
 20
196.8868942823
 11
157.0871686205
 21
196.8868942827
  0
LINE
  8
3
  6
CONTINUOUS
 62
7
 10
166.5871686205
 20
168.3868942825
 11
200.0871686205
 21
168.3868942825
  0
LINE
  8
3
  6
CONTINUOUS
 62
7
 10
200.0871686205
 20
168.3868942825
 11
200.0871686205
 21
101.3868942825
  0
LINE
  8
3
  6
CONTINUOUS
 62
7
 10
200.0871686205
 20
101.3868942825
 11
166.5871686205
 21
101.3868942825
  0
LINE
  8
3
  6
CONTINUOUS
 62
7
 10
166.5871686205
 20
101.3868942825
 11
166.5871686205
 21
168.3868942825
  0
LINE
  8
3
  6
CONTINUOUS
 62
7
 10
156.0871686205
 20
73.8868942823
 11
156.0871686205
 21
195.8868942827
  0
LINE
  8
3
  6
CONTINUOUS
 62
7
 10
209.5871686205
 20
72.8868942827
 11
157.0871686205
 21
72.8868942823
  0
POINT
  8
3
  6
CONTINUOUS
 62
7
 10
183.3371686205
 20
134.8868942825
  0
LINE
  8
3
  6
CONTINUOUS
 62
7
 10
157.0871686205
 20
196.8868942827
 11
156.0871686205
 21
195.8868942827
  0
LINE
  8
3
  6
CONTINUOUS
 62
7
 10
210.5871686205
 20
195.8868942823
 11
209.5871686205
 21
196.8868942823
  0
LINE
  8
3
  6
CONTINUOUS
 62
7
 10
210.5871686205
 20
73.8868942827
 11
209.5871686205
 21
72.8868942827
  0
LINE
  8
3
  6
CONTINUOUS
 62
7
 10
157.0871686205
 20
72.8868942823
 11
156.0871686205
 21
73.8868942823
  0
LINE
  8
3
  6
CONTINUOUS
 62
5
 10
198.3471686205
 20
168.1608942825
 11
168.3271686205
 21
168.1608942825
  0
LINE
  8
3
  6
CONTINUOUS
 62
5
 10
168.3271686205
 20
101.6128942825
 11
198.3471686205
 21
101.6128942825
  0
ARC
  8
3
  6
CONTINUOUS
 62
5
 10
183.3371686205
 20
164.0108942825
 40
2.6500000000
 50
180.0000000000
 51
0.0000000000
  0
LINE
  8
3
  6
CONTINUOUS
 62
5
 10
180.6871686205
 20
164.0108942825
 11
180.6871686205
 21
166.6608942825
  0
LINE
  8
3
  6
CONTINUOUS
 62
5
 10
180.6871686205
 20
166.6608942825
 11
185.9871686205
 21
166.6608942825
  0
LINE
  8
3
  6
CONTINUOUS
 62
5
 10
185.9871686205
 20
166.6608942825
 11
185.9871686205
 21
164.0108942825
  0
LINE
  8
3
  6
CONTINUOUS
 62
5
 10
188.6371686205
 20
156.4608942825
 11
190.8371686205
 21
156.4608942825
  0
LINE
  8
3
  6
CONTINUOUS
 62
5
 10
190.8371686205
 20
156.4608942825
 11
190.8371686205
 21
147.7608942825
  0
LINE
  8
3
  6
CONTINUOUS
 62
5
 10
190.8371686205
 20
147.7608942825
 11
188.6371686205
 21
147.7608942825
  0
LINE
  8
3
  6
CONTINUOUS
 62
5
 10
188.6371686205
 20
147.7608942825
 11
188.6371686205
 21
156.4608942825
  0
LINE
  8
3
  6
CONTINUOUS
 62
5
 10
175.8371686205
 20
155.6108942825
 11
178.0371686205
 21
155.6108942825
  0
LINE
  8
3
  6
CONTINUOUS
 62
5
 10
178.0371686205
 20
155.6108942825
 11
178.0371686205
 21
148.6108942826
  0
LINE
  8
3
  6
CONTINUOUS
 62
5
 10
178.0371686205
 20
148.6108942826
 11
175.8371686205
 21
148.6108942826
  0
LINE
  8
3
  6
CONTINUOUS
 62
5
 10
175.8371686205
 20
148.6108942826
 11
175.8371686205
 21
155.6108942825
  0
ARC
  8
3
  6
CONTINUOUS
 62
5
 10
183.3371686205
 20
119.3628942825
 40
2.6500000000
 50
180.0000000000
 51
0.0000000000
  0
LINE
  8
3
  6
CONTINUOUS
 62
5
 10
180.6871686205
 20
119.3628942825
 11
180.6871686205
 21
122.0128942825
  0
LINE
  8
3
  6
CONTINUOUS
 62
5
 10
180.6871686205
 20
122.0128942825
 11
185.9871686205
 21
122.0128942825
  0
LINE
  8
3
  6
CONTINUOUS
 62
5
 10
185.9871686205
 20
122.0128942825
 11
185.9871686205
 21
119.3628942825
  0
LINE
  8
3
  6
CONTINUOUS
 62
5
 10
188.6371686205
 20
111.8128942825
 11
190.8371686205
 21
111.8128942825
  0
LINE
  8
3
  6
CONTINUOUS
 62
5
 10
190.8371686205
 20
111.8128942825
 11
190.8371686205
 21
103.1128942825
  0
LINE
  8
3
  6
CONTINUOUS
 62
5
 10
190.8371686205
 20
103.1128942825
 11
188.6371686205
 21
103.1128942825
  0
LINE
  8
3
  6
CONTINUOUS
 62
5
 10
188.6371686205
 20
103.1128942825
 11
188.6371686205
 21
111.8128942825
  0
LINE
  8
3
  6
CONTINUOUS
 62
5
 10
175.8371686205
 20
110.9628942825
 11
178.0371686205
 21
110.9628942825
  0
LINE
  8
3
  6
CONTINUOUS
 62
5
 10
178.0371686205
 20
110.9628942825
 11
178.0371686205
 21
103.9628942826
  0
LINE
  8
3
  6
CONTINUOUS
 62
5
 10
178.0371686205
 20
103.9628942826
 11
175.8371686205
 21
103.9628942826
  0
LINE
  8
3
  6
CONTINUOUS
 62
5
 10
175.8371686205
 20
103.9628942826
 11
175.8371686205
 21
110.9628942825
  0
CIRCLE
  8
3
  6
CONTINUOUS
 62
3
 10
195.5871686205
 20
134.1368942825
 40
1.7500000000
  0
LINE
  8
3
  6
CONTINUOUS
 62
3
 10
189.0871686205
 20
144.8868942825
 11
177.5871686205
 21
144.8868942825
  0
LINE
  8
3
  6
CONTINUOUS
 62
3
 10
192.5871686205
 20
141.3868942825
 11
192.5871686205
 21
128.3868942825
  0
LINE
  8
3
  6
CONTINUOUS
 62
3
 10
189.0871686205
 20
124.8868942825
 11
177.5871686205
 21
124.8868942825
  0
LINE
  8
3
  6
CONTINUOUS
 62
3
 10
174.0871686205
 20
128.3868942825
 11
174.0871686205
 21
141.3868942825
  0
ARC
  8
3
  6
CONTINUOUS
 62
3
 10
177.5871686205
 20
141.3868942825
 40
3.5000000000
 50
90.0000000000
 51
180.0000000000
  0
ARC
  8
3
  6
CONTINUOUS
 62
3
 10
177.5871686205
 20
128.3868942825
 40
3.5000000000
 50
180.0000000000
 51
270.0000000000
  0
ARC
  8
3
  6
CONTINUOUS
 62
3
 10
189.0871686205
 20
128.3868942825
 40
3.5000000000
 50
270.0000000000
 51
0.0000000000
  0
ARC
  8
3
  6
CONTINUOUS
 62
3
 10
189.0871686205
 20
141.3868942825
 40
3.5000000000
 50
0.0000000000
 51
90.0000000000
  0
LINE
  8
3
  6
CONTINUOUS
 62
3
 10
188.3371686205
 20
143.0868942825
 11
178.3371686205
 21
143.0868942825
  0
LINE
  8
3
  6
CONTINUOUS
 62
3
 10
189.3371686205
 20
142.0868942825
 11
189.3371686205
 21
139.0868942825
  0
LINE
  8
3
  6
CONTINUOUS
 62
3
 10
188.3371686205
 20
138.0868942825
 11
178.3371686205
 21
138.0868942825
  0
LINE
  8
3
  6
CONTINUOUS
 62
3
 10
177.3371686205
 20
139.0868942825
 11
177.3371686205
 21
142.0868942825
  0
ARC
  8
3
  6
CONTINUOUS
 62
3
 10
178.3371686205
 20
142.0868942825
 40
1.0000000000
 50
90.0000000000
 51
180.0000000000
  0
ARC
  8
3
  6
CONTINUOUS
 62
3
 10
178.3371686205
 20
139.0868942825
 40
1.0000000000
 50
180.0000000000
 51
270.0000000000
  0
ARC
  8
3
  6
CONTINUOUS
 62
3
 10
188.3371686205
 20
139.0868942825
 40
1.0000000000
 50
270.0000000000
 51
0.0000000000
  0
ARC
  8
3
  6
CONTINUOUS
 62
3
 10
188.3371686205
 20
142.0868942825
 40
1.0000000000
 50
0.0000000000
 51
90.0000000000
  0
LINE
  8
3
  6
CONTINUOUS
 62
3
 10
189.5871686205
 20
133.3868942825
 11
177.0871686205
 21
133.3868942825
  0
LINE
  8
3
  6
CONTINUOUS
 62
3
 10
190.5871686205
 20
132.3868942825
 11
190.5871686205
 21
127.8868942825
  0
LINE
  8
3
  6
CONTINUOUS
 62
3
 10
189.5871686205
 20
126.8868942825
 11
177.0871686205
 21
126.8868942825
  0
LINE
  8
3
  6
CONTINUOUS
 62
3
 10
176.0871686205
 20
127.8868942825
 11
176.0871686205
 21
132.3868942825
  0
ARC
  8
3
  6
CONTINUOUS
 62
3
 10
177.0871686205
 20
132.3868942825
 40
1.0000000000
 50
90.0000000000
 51
180.0000000000
  0
ARC
  8
3
  6
CONTINUOUS
 62
3
 10
177.0871686205
 20
127.8868942825
 40
1.0000000000
 50
180.0000000000
 51
270.0000000000
  0
ARC
  8
3
  6
CONTINUOUS
 62
3
 10
189.5871686205
 20
127.8868942825
 40
1.0000000000
 50
270.0000000000
 51
0.0000000000
  0
ARC
  8
3
  6
CONTINUOUS
 62
3
 10
189.5871686205
 20
132.3868942825
 40
1.0000000000
 50
0.0000000000
 51
90.0000000000
  0
TEXT
  8
3
  6
CONTINUOUS
 62
3
 10
179.487169
 20
140.736894
 40
2.200000
  1
T E S T
 41
0.774336
 50
0.000000
 51
0.000000
 72
   5
 73
   0
 11
187.187169
 21
140.736894
  0
TEXT
  8
3
  6
CONTINUOUS
 62
3
 10
187.187169
 20
140.436894
 40
2.200000
  1
T E S T
 41
0.774336
 50
180.000000
 51
0.000000
 72
   5
 73
   0
 11
179.487169
 21
140.436894
  0
TEXT
  8
3
  6
CONTINUOUS
 62
3
 10
177.712169
 20
130.511894
 40
2.500000
  1
R E S E T
 41
0.767918
 50
0.000000
 51
0.000000
 72
   5
 73
   0
 11
188.962169
 21
130.511894
  0
TEXT
  8
3
  6
CONTINUOUS
 62
3
 10
188.962169
 20
129.761894
 40
2.500000
  1
R E S E T
 41
0.767918
 50
180.000000
 51
0.000000
 72
   5
 73
   0
 11
177.712169
 21
129.761894
  0
TEXT
  8
3
  6
CONTINUOUS
 62
3
 10
195.587169
 20
144.586894
 40
1.800000
  1
REPLACE
 41
0.774336
 50
270.000000
 51
0.000000
 72
   5
 73
   0
 11
195.587169
 21
138.286894
  0
TEXT
  8
3
  6
CONTINUOUS
 62
3
 10
193.787169
 20
144.586894
 40
1.800000
  1
IF LIGHT
 41
0.770713
 50
270.000000
 51
0.000000
 72
   5
 73
   0
 11
193.787169
 21
137.386894
  0
TEXT
  8
3
  6
CONTINUOUS
 62
3
 10
195.587169
 20
130.886894
 40
1.800000
  1
GFCI
 41
0.796813
 50
270.000000
 51
0.000000
 72
   5
 73
   0
 11
195.587169
 21
127.286894
  0
TEXT
  8
3
  6
CONTINUOUS
 62
3
 10
193.787169
 20
130.886894
 40
1.800000
  1
PLASHES
 41
0.774336
 50
270.000000
 51
0.000000
 72
   5
 73
   0
 11
193.787169
 21
124.586894
  0
TEXT
  8
3
  6
CONTINUOUS
 62
3
 10
169.962169
 20
126.811894
 40
1.900000
  1
SEE  INSTRUCTIONS
 41
0.757576
 50
90.000000
 51
0.000000
 72
   5
 73
   0
 11
169.962169
 21
142.961894
  0
TEXT
  8
3
  6
CONTINUOUS
 62
3
 10
172.862169
 20
126.811894
 40
1.900000
  1
  TEST  MONTHLY
 41
0.759109
 50
90.000000
 51
0.000000
 72
   5
 73
   0
 11
172.862169
 21
141.061894
  0
POINT
  8
3
  6
CONTINUOUS
 62
7
 10
183.3371686205
 20
134.8868942825
  0
LINE
  8
3
  6
CONTINUOUS
 62
5
 10
166.8271686205
 20
103.1128942825
 11
166.8271686205
 21
166.6608942825
  0
LINE
  8
3
  6
CONTINUOUS
 62
5
 10
199.8471686205
 20
103.1128942825
 11
199.8471686205
 21
166.6608942825
  0
ARC
  8
3
  6
CONTINUOUS
 62
5
 10
168.3271686205
 20
166.6608942825
 40
1.5000000000
 50
90.0000000000
 51
180.0000000000
  0
ARC
  8
3
  6
CONTINUOUS
 62
5
 10
198.3471686205
 20
166.6608942825
 40
1.5000000000
 50
0.0000000000
 51
90.0000000000
  0
ARC
  8
3
  6
CONTINUOUS
 62
5
 10
198.3471686205
 20
103.1128942825
 40
1.5000000000
 50
270.0000000000
 51
0.0000000000
  0
ARC
  8
3
  6
CONTINUOUS
 62
5
 10
168.3271686205
 20
103.1128942825
 40
1.5000000000
 50
180.0000000000
 51
270.0000000000
  0
CIRCLE
  8
3
  6
CONTINUOUS
 62
6
 10
183.3371686205
 20
183.1368942825
 40
3.9000000000
  0
LINE
  8
3
  6
CONTINUOUS
 62
6
 10
181.6135958414
 20
184.8604670617
 11
185.0607413996
 21
181.4133215034
  0
LINE
  8
3
  6
CONTINUOUS
 62
6
 10
181.6135958414
 20
181.4133215034
 11
185.0607413996
 21
184.8604670617
  0
CIRCLE
  8
3
  6
CONTINUOUS
 62
6
 10
183.3371686205
 20
183.1368942825
 40
3.4125000000
  0
CIRCLE
  8
3
  6
CONTINUOUS
 62
6
 10
183.3371686205
 20
86.6368942825
 40
3.9000000000
  0
LINE
  8
3
  6
CONTINUOUS
 62
6
 10
181.6135958414
 20
88.3604670617
 11
185.0607413996
 21
84.9133215034
  0
LINE
  8
3
  6
CONTINUOUS
 62
6
 10
181.6135958414
 20
84.9133215034
 11
185.0607413996
 21
88.3604670617
  0
CIRCLE
  8
3
  6
CONTINUOUS
 62
6
 10
183.3371686205
 20
86.6368942825
 40
3.4125000000
  0
INSERT
  8
3
  6
CONTINUOUS
 62
5
  2
BALN0
 10
195.3032465186
 20
163.2325171158
  0
TEXT
  8
5
  6
CONTINUOUS
 62
7
 10
321.500000
 20
238.250000
 40
3.500000
  1
--
 41
0.854701
 50
0.000000
 51
0.000000
 72
   5
 73
   0
 11
325.000000
 21
238.250000
  0
TEXT
  8
5
  6
CONTINUOUS
 62
7
 10
341.500000
 20
238.500000
 40
3.000000
  1
--
 41
0.854701
 50
0.000000
 51
0.000000
 72
   5
 73
   0
 11
344.500000
 21
238.500000
  0
TEXT
  8
5
  6
CONTINUOUS
 62
7
 10
381.500000
 20
238.500000
 40
3.000000
  1
--
 41
0.854701
 50
0.000000
 51
0.000000
 72
   5
 73
   0
 11
384.500000
 21
238.500000
  0
TEXT
  8
5
  6
CONTINUOUS
 62
7
 10
396.250000
 20
238.250000
 40
3.500000
  1
--
 41
0.854701
 50
0.000000
 51
0.000000
 72
   5
 73
   0
 11
399.750000
 21
238.250000
  0
LINE
  8
3
  6
HIDDEN
 62
6
 10
180.3371686205
 20
186.7028942825
 11
176.3371686205
 21
184.7028942825
  0
LINE
  8
3
  6
HIDDEN
 62
6
 10
176.3371686205
 20
184.7028942825
 11
173.8371686205
 21
177.7028942825
  0
LINE
  8
3
  6
HIDDEN
 62
6
 10
173.8371686203
 20
177.7028942825
 11
173.8371686205
 21
168.1608942825
  0
LINE
  8
3
  6
HIDDEN
 62
6
 10
186.3371686205
 20
186.7028942825
 11
190.3371686205
 21
184.7028942825
  0
LINE
  8
3
  6
HIDDEN
 62
6
 10
190.3371686205
 20
184.7028942825
 11
192.8371686205
 21
177.7028942825
  0
LINE
  8
3
  6
HIDDEN
 62
6
 10
192.8371686205
 20
177.7028942825
 11
192.8371686205
 21
168.1608942825
  0
LINE
  8
3
  6
HIDDEN
 62
6
 10
186.3371686205
 20
186.7028942825
 11
180.3371686205
 21
186.7028942825
  0
ARC
  8
3
  6
HIDDEN
 62
6
 10
184.7221686205
 20
176.5428942825
 40
2.5400000000
 50
270.0000000000
 51
90.0000000000
  0
ARC
  8
3
  6
HIDDEN
 62
6
 10
181.9521686205
 20
176.5428942825
 40
2.5400000000
 50
90.0000000000
 51
270.0000000000
  0
LINE
  8
3
  6
HIDDEN
 62
6
 10
181.9521686205
 20
179.0828942825
 11
184.7221686205
 21
179.0828942825
  0
LINE
  8
3
  6
HIDDEN
 62
6
 10
184.7221686205
 20
174.0028942825
 11
181.9521686205
 21
174.0028942825
  0
CIRCLE
  8
3
  6
HIDDEN
 62
6
 10
183.3371686205
 20
183.2738942825
 40
1.5000000000
  0
LINE
  8
3
  6
HIDDEN
 62
6
 10
180.3371686205
 20
83.0708942825
 11
176.3371686205
 21
85.0708942825
  0
LINE
  8
3
  6
HIDDEN
 62
6
 10
176.3371686205
 20
85.0708942825
 11
173.8371686205
 21
92.0708942825
  0
LINE
  8
3
  6
HIDDEN
 62
6
 10
173.8371686203
 20
92.0708942825
 11
173.8371686205
 21
101.6128942825
  0
LINE
  8
3
  6
HIDDEN
 62
6
 10
186.3371686205
 20
83.0708942825
 11
190.3371686205
 21
85.0708942825
  0
LINE
  8
3
  6
HIDDEN
 62
6
 10
190.3371686205
 20
85.0708942825
 11
192.8371686205
 21
92.0708942825
  0
LINE
  8
3
  6
HIDDEN
 62
6
 10
192.8371686205
 20
92.0708942825
 11
192.8371686205
 21
101.6128942825
  0
LINE
  8
3
  6
HIDDEN
 62
6
 10
186.3371686205
 20
83.0708942825
 11
180.3371686205
 21
83.0708942825
  0
ARC
  8
3
  6
HIDDEN
 62
6
 10
184.7221686205
 20
93.2308942825
 40
2.5400000000
 50
270.0000000000
 51
90.0000000000
  0
ARC
  8
3
  6
HIDDEN
 62
6
 10
181.9521686205
 20
93.2308942825
 40
2.5400000000
 50
90.0000000000
 51
270.0000000000
  0
LINE
  8
3
  6
HIDDEN
 62
6
 10
181.9521686205
 20
90.6908942825
 11
184.7221686205
 21
90.6908942825
  0
LINE
  8
3
  6
HIDDEN
 62
6
 10
184.7221686205
 20
95.7708942825
 11
181.9521686205
 21
95.7708942825
  0
CIRCLE
  8
3
  6
HIDDEN
 62
6
 10
183.3371686205
 20
86.4998942825
 40
1.5000000000
  0
LINE
  8
3
  6
HIDDEN
 62
6
 10
172.3371686205
 20
186.5658942825
 11
176.3371686205
 21
184.5658942825
  0
LINE
  8
3
  6
HIDDEN
 62
6
 10
168.2371686205
 20
186.5658942825
 11
172.3371686205
 21
186.5658942825
  0
LINE
  8
3
  6
HIDDEN
 62
6
 10
166.7371686205
 20
180.3658942825
 11
166.7371686205
 21
185.0658942825
  0
LINE
  8
3
  6
HIDDEN
 62
6
 10
168.2371686205
 20
178.8658942825
 11
172.5371686204
 21
178.8658942825
  0
ARC
  8
3
  6
HIDDEN
 62
6
 10
168.2371686205
 20
185.0658942825
 40
1.5000000000
 50
90.0000000000
 51
180.0000000000
  0
ARC
  8
3
  6
HIDDEN
 62
6
 10
168.2371686205
 20
180.3658942825
 40
1.5000000000
 50
180.0000000000
 51
270.0000000000
  0
CIRCLE
  8
3
  6
HIDDEN
 62
6
 10
170.7371686205
 20
182.3658942825
 40
2.1000000000
  0
ARC
  8
3
  6
HIDDEN
 62
6
 10
172.5371686204
 20
177.5658942825
 40
1.3000000000
 50
0.0000000008
 51
90.0000000000
  0
LINE
  8
3
  6
HIDDEN
 62
6
 10
194.3371686205
 20
186.5658942825
 11
190.3371686205
 21
184.5658942825
  0
CIRCLE
  8
3
  6
HIDDEN
 62
6
 10
195.9371686205
 20
182.3658942825
 40
2.1000000000
  0
LINE
  8
3
  6
HIDDEN
 62
6
 10
198.4371686205
 20
186.5658942825
 11
194.3371686205
 21
186.5658942825
  0
ARC
  8
3
  6
HIDDEN
 62
6
 10
198.4371686205
 20
185.0658942825
 40
1.5000000000
 50
0.0000000000
 51
90.0000000000
  0
LINE
  8
3
  6
HIDDEN
 62
6
 10
199.9371686205
 20
180.3658942825
 11
199.9371686205
 21
185.0658942825
  0
ARC
  8
3
  6
HIDDEN
 62
6
 10
198.4371686205
 20
180.3658942825
 40
1.5000000000
 50
270.0000000000
 51
0.0000000000
  0
LINE
  8
3
  6
HIDDEN
 62
6
 10
198.4371686205
 20
178.8658942825
 11
194.1371686206
 21
178.8658942825
  0
ARC
  8
3
  6
HIDDEN
 62
6
 10
194.1371686206
 20
177.5658942825
 40
1.3000000000
 50
90.0000000000
 51
179.9999999992
  0
INSERT
  8
3
  6
CONTINUOUS
 62
5
  2
BALN1
 10
180.2508498414
 20
180.7526467295
  0
LINE
  8
3
  6
HIDDEN
 62
6
 10
198.4371686205
 20
90.9078942825
 11
194.1371686206
 21
90.9078942825
  0
ARC
  8
3
  6
HIDDEN
 62
6
 10
194.1371686206
 20
92.2078942825
 40
1.3000000000
 50
180.0000000008
 51
270.0000000000
  0
ARC
  8
3
  6
HIDDEN
 62
6
 10
198.4371686205
 20
89.4078942825
 40
1.5000000000
 50
0.0000000000
 51
90.0000000000
  0
LINE
  8
3
  6
HIDDEN
 62
6
 10
199.9371686205
 20
89.4078942825
 11
199.9371686205
 21
84.7078942826
  0
ARC
  8
3
  6
HIDDEN
 62
6
 10
198.4371686205
 20
84.7078942826
 40
1.5000000000
 50
270.0000000000
 51
0.0000000000
  0
LINE
  8
3
  6
HIDDEN
 62
6
 10
198.4371686205
 20
83.2078942825
 11
194.3371686205
 21
83.2078942825
  0
LINE
  8
3
  6
HIDDEN
 62
6
 10
194.3371686205
 20
83.2078942825
 11
190.3371686205
 21
85.2078942825
  0
CIRCLE
  8
3
  6
HIDDEN
 62
6
 10
195.9371686205
 20
87.4078942825
 40
2.1000000000
  0
ARC
  8
3
  6
HIDDEN
 62
6
 10
172.5371686204
 20
92.2078942825
 40
1.3000000000
 50
270.0000000000
 51
359.9999999992
  0
LINE
  8
3
  6
HIDDEN
 62
6
 10
168.2371686205
 20
90.9078942825
 11
172.5371686204
 21
90.9078942825
  0
ARC
  8
3
  6
HIDDEN
 62
6
 10
168.2371686205
 20
89.4078942825
 40
1.5000000000
 50
90.0000000000
 51
180.0000000000
  0
LINE
  8
3
  6
HIDDEN
 62
6
 10
166.7371686205
 20
89.4078942825
 11
166.7371686205
 21
84.7078942826
  0
ARC
  8
3
  6
HIDDEN
 62
6
 10
168.2371686205
 20
84.7078942826
 40
1.5000000000
 50
180.0000000000
 51
270.0000000000
  0
LINE
  8
3
  6
HIDDEN
 62
6
 10
168.2371686205
 20
83.2078942825
 11
172.3371686205
 21
83.2078942825
  0
LINE
  8
3
  6
HIDDEN
 62
6
 10
172.3371686205
 20
83.2078942825
 11
176.3371686205
 21
85.2078942825
  0
CIRCLE
  8
3
  6
HIDDEN
 62
6
 10
170.7371686205
 20
87.4078942825
 40
2.1000000000
  0
LINE
  8
1
  6
CONTINUOUS
 62
7
 10
93.4407258647
 20
61.6368942825
 11
93.4407258647
 21
205.5118942825
  0
LINE
  8
1
  6
CONTINUOUS
 62
7
 10
26.4407258647
 20
205.5118942825
 11
26.4407258647
 21
61.6368942825
  0
LINE
  8
1
  6
CONTINUOUS
 62
7
 10
94.4407258647
 20
60.6368942825
 11
94.4407258647
 21
216.1368942825
  0
LINE
  8
1
  6
CONTINUOUS
 62
7
 10
25.4407258647
 20
216.1368942825
 11
25.4407258647
 21
60.6368942825
  0
LINE
  8
1
  6
DASHDOT
 62
1
 10
99.4407258647
 20
209.1368942825
 11
20.4407258647
 21
209.1368942825
  0
LINE
  8
1
  6
CONTINUOUS
 62
7
 10
94.4407258647
 20
60.6368942825
 11
74.4032290241
 21
60.6368942825
  0
LINE
  8
1
  6
CONTINUOUS
 62
7
 10
45.4782227053
 20
60.6368942825
 11
25.4407258647
 21
60.6368942825
  0
LINE
  8
1
  6
CONTINUOUS
 62
7
 10
26.4407258647
 20
61.6368942825
 11
43.2421547278
 21
61.6368942825
  0
LINE
  8
1
  6
CONTINUOUS
 62
7
 10
76.6392970016
 20
61.6368942825
 11
93.4407258647
 21
61.6368942825
  0
LINE
  8
1
  6
CONTINUOUS
 62
7
 10
118.6566089140
 20
203.1368942825
 11
118.6566089140
 21
61.6368942825
  0
CIRCLE
  8
1
  6
CONTINUOUS
 62
7
 10
115.6566089140
 20
209.1368942825
 40
2.0000000000
  0
ARC
  8
1
  6
CONTINUOUS
 62
7
 10
115.6566089140
 20
209.1368942825
 40
6.0000000000
 50
90.0000000000
 51
270.0000000000
  0
LINE
  8
1
  6
CONTINUOUS
 62
7
 10
118.6566089140
 20
203.1368942825
 11
115.6566089140
 21
203.1368942825
  0
LINE
  8
1
  6
CONTINUOUS
 62
7
 10
118.6566089140
 20
215.1368942825
 11
115.6566089140
 21
215.1368942825
  0
LINE
  8
1
  6
CONTINUOUS
 62
7
 10
127.6566089140
 20
216.1368942825
 11
127.6566089140
 21
60.6368942825
  0
LINE
  8
1
  6
CONTINUOUS
 62
7
 10
26.4407258647
 20
203.1368942825
 11
26.4407258647
 21
215.1368942825
  0
LINE
  8
1
  6
CONTINUOUS
 62
7
 10
26.4407258647
 20
215.1368942825
 11
31.4407258647
 21
215.1368942825
  0
LINE
  8
1
  6
CONTINUOUS
 62
7
 10
31.4407258647
 20
215.1368942825
 11
31.4407258647
 21
203.1368942825
  0
LINE
  8
1
  6
CONTINUOUS
 62
7
 10
31.4407258647
 20
203.1368942825
 11
26.4407258647
 21
203.1368942825
  0
LINE
  8
1
  6
CONTINUOUS
 62
7
 10
93.4407258647
 20
215.1368942825
 11
88.4407258647
 21
215.1368942825
  0
LINE
  8
1
  6
CONTINUOUS
 62
7
 10
88.4407258647
 20
215.1368942825
 11
88.4407258647
 21
203.1368942825
  0
LINE
  8
1
  6
CONTINUOUS
 62
7
 10
88.4407258647
 20
203.1368942825
 11
93.4407258647
 21
203.1368942825
  0
LINE
  8
1
  6
CONTINUOUS
 62
7
 10
93.4407258647
 20
203.1368942825
 11
93.4407258647
 21
215.1368942825
  0
LINE
  8
1
  6
CONTINUOUS
 62
7
 10
88.4407258647
 20
203.1368942825
 11
88.4407258647
 21
202.1368942825
  0
LINE
  8
1
  6
CONTINUOUS
 62
7
 10
31.4407258647
 20
202.1368942825
 11
31.4407258647
 21
203.1368942825
  0
LINE
  8
1
  6
CONTINUOUS
 62
7
 10
94.4407258647
 20
216.1368942825
 11
25.4407258647
 21
216.1368942825
  0
LINE
  8
1
  6
CONTINUOUS
 62
7
 10
94.4407258647
 20
23.5827940853
 11
25.4407258647
 21
23.5827940853
  0
LINE
  8
1
  6
CONTINUOUS
 62
7
 10
26.4407258647
 20
32.5827940853
 11
93.4407258647
 21
32.5827940853
  0
LINE
  8
1
  6
CONTINUOUS
 62
7
 10
127.6566089140
 20
60.6368942825
 11
118.6566089140
 21
61.6368942825
  0
LINE
  8
1
  6
CONTINUOUS
 62
7
 10
127.6566089140
 20
216.1368942825
 11
118.6566089140
 21
215.1368942825
  0
LINE
  8
1
  6
CONTINUOUS
 62
7
 10
26.4407258647
 20
32.5827940853
 11
25.4407258647
 21
23.5827940853
  0
LINE
  8
1
  6
CONTINUOUS
 62
7
 10
93.4407258647
 20
32.5827940853
 11
94.4407258647
 21
23.5827940853
  0
LINE
  8
1
  6
HIDDEN
 62
7
 10
118.6566089140
 20
202.1368942825
 11
122.1566089140
 21
202.1368942825
  0
LINE
  8
1
  6
HIDDEN
 62
7
 10
122.1566089140
 20
202.1368942825
 11
122.1566089140
 21
215.5257831714
  0
LINE
  8
1
  6
HIDDEN
 62
7
 10
32.4407258647
 20
29.5827940853
 11
32.4407258647
 21
32.5827940853
  0
LINE
  8
1
  6
HIDDEN
 62
7
 10
87.4407258647
 20
29.5827940853
 11
32.4407258647
 21
29.5827940853
  0
LINE
  8
1
  6
HIDDEN
 62
7
 10
87.4407258647
 20
29.5827940853
 11
87.4407258647
 21
32.5827940853
  0
LINE
  8
1
  6
HIDDEN
 62
7
 10
83.1907258647
 20
29.5827940853
 11
83.1907258647
 21
25.5827940853
  0
LINE
  8
1
  6
HIDDEN
 62
7
 10
83.1907258647
 20
25.5827940853
 11
81.6907258647
 21
25.5827940853
  0
LINE
  8
1
  6
HIDDEN
 62
7
 10
78.1907258647
 20
25.5827940853
 11
76.6907258647
 21
25.5827940853
  0
LINE
  8
1
  6
HIDDEN
 62
7
 10
76.6907258647
 20
25.5827940853
 11
76.6907258647
 21
29.5827940853
  0
LINE
  8
1
  6
HIDDEN
 62
7
 10
78.1907258647
 20
25.5827940853
 11
78.1907258645
 21
23.5827940853
  0
LINE
  8
1
  6
HIDDEN
 62
7
 10
81.6907258647
 20
25.5827940853
 11
81.6907258646
 21
23.5827940853
  0
LINE
  8
1
  6
HIDDEN
 62
7
 10
36.6907258647
 20
29.5827940853
 11
36.6907258647
 21
25.5827940853
  0
LINE
  8
1
  6
HIDDEN
 62
7
 10
36.6907258647
 20
25.5827940853
 11
38.1907258647
 21
25.5827940853
  0
LINE
  8
1
  6
HIDDEN
 62
7
 10
41.6907258647
 20
25.5827940853
 11
43.1907258647
 21
25.5827940853
  0
LINE
  8
1
  6
HIDDEN
 62
7
 10
43.1907258647
 20
25.5827940853
 11
43.1907258647
 21
29.5827940853
  0
LINE
  8
1
  6
HIDDEN
 62
7
 10
41.6907258647
 20
25.5827940853
 11
41.6907258650
 21
23.5827940853
  0
LINE
  8
1
  6
HIDDEN
 62
7
 10
38.1907258647
 20
25.5827940853
 11
38.1907258648
 21
23.5827940853
  0
LINE
  8
1
  6
HIDDEN
 62
7
 10
57.9407258647
 20
29.5827940853
 11
57.9407258647
 21
23.5827940853
  0
LINE
  8
1
  6
HIDDEN
 62
7
 10
61.9407258647
 20
29.5827940853
 11
61.9407258647
 21
23.5827940853
  0
LINE
  8
1
  6
HIDDEN
 62
7
 10
61.5907258647
 20
29.5827940853
 11
61.5907258647
 21
23.5827940853
  0
LINE
  8
1
  6
HIDDEN
 62
7
 10
58.2907258647
 20
29.5827940853
 11
58.2907258647
 21
23.5827940853
  0
LINE
  8
1
  6
HIDDEN
 62
7
 10
118.6566089140
 20
197.1368942825
 11
122.1566089140
 21
197.1368942825
  0
LINE
  8
1
  6
HIDDEN
 62
7
 10
122.1566089140
 20
196.5118942825
 11
122.1566089140
 21
72.6368942825
  0
LINE
  8
1
  6
HIDDEN
 62
7
 10
122.1566089140
 20
72.6368942825
 11
118.6566089140
 21
72.6368942825
  0
LINE
  8
1
  6
HIDDEN
 62
7
 10
122.1566089140
 20
81.3868942825
 11
127.6566089140
 21
81.3868942825
  0
LINE
  8
1
  6
HIDDEN
 62
7
 10
122.1566089140
 20
188.3868942825
 11
127.6566089140
 21
188.3868942825
  0
LINE
  8
1
  6
HIDDEN
 62
7
 10
122.1566089140
 20
79.6368942825
 11
126.1566089140
 21
79.6368942825
  0
LINE
  8
1
  6
HIDDEN
 62
7
 10
126.1566089140
 20
79.6368942825
 11
126.1566089140
 21
78.1368942825
  0
LINE
  8
1
  6
HIDDEN
 62
7
 10
126.1566089140
 20
74.6368942826
 11
126.1566089140
 21
73.1368942825
  0
LINE
  8
1
  6
HIDDEN
 62
7
 10
126.1566089140
 20
73.1368942825
 11
122.1566089140
 21
73.1368942825
  0
LINE
  8
1
  6
HIDDEN
 62
7
 10
126.1566089140
 20
74.6368942826
 11
127.6566089140
 21
74.6368942823
  0
LINE
  8
1
  6
HIDDEN
 62
7
 10
126.1566089140
 20
78.1368942825
 11
127.6566089140
 21
78.1368942937
  0
LINE
  8
1
  6
HIDDEN
 62
7
 10
122.1566089140
 20
190.1368942825
 11
126.1566089140
 21
190.1368942825
  0
LINE
  8
1
  6
HIDDEN
 62
7
 10
126.1566089140
 20
190.1368942825
 11
126.1566089140
 21
191.6368942825
  0
LINE
  8
1
  6
HIDDEN
 62
7
 10
126.1566089140
 20
195.1368942825
 11
126.1566089140
 21
196.6368942825
  0
LINE
  8
1
  6
HIDDEN
 62
7
 10
126.1566089140
 20
196.6368942825
 11
122.1566089140
 21
196.6368942825
  0
LINE
  8
1
  6
HIDDEN
 62
7
 10
126.1566089140
 20
195.1368942825
 11
127.6566089140
 21
195.1368942827
  0
LINE
  8
1
  6
HIDDEN
 62
7
 10
126.1566089140
 20
191.6368942825
 11
127.6566089140
 21
191.6368942714
  0
ARC
  8
2
  6
HIDDEN
 62
5
 10
115.6566089140
 20
209.1368942825
 40
6.0000000000
 50
294.6243183522
 51
164.1092389898
  0
LINE
  8
2
  6
HIDDEN
 62
5
 10
118.1566089140
 20
203.6825382252
 11
118.1566089140
 21
203.1368942825
  0
LINE
  8
2
  6
CONTINUOUS
 62
5
 10
118.1566089140
 20
203.1368942825
 11
118.1566089140
 21
61.6368942825
  0
LINE
  8
2
  6
CONTINUOUS
 62
5
 10
110.0106748368
 20
61.6368942825
 11
118.1566089140
 21
61.6368942825
  0
LINE
  8
2
  6
CONTINUOUS
 62
5
 10
103.6566089140
 20
57.6368942825
 11
103.6566089140
 21
188.5118942825
  0
LINE
  8
2
  6
CONTINUOUS
 62
5
 10
118.1566089140
 20
202.1368942825
 11
107.4796711938
 21
202.1368942825
  0
CIRCLE
  8
2
  6
CONTINUOUS
 62
5
 10
115.6566089140
 20
209.1368942825
 40
2.0000000000
  0
LINE
  8
2
  6
CONTINUOUS
 62
5
 10
27.4407258647
 20
202.1368942825
 11
31.6407258647
 21
202.1368942825
  0
LINE
  8
2
  6
CONTINUOUS
 62
5
 10
31.6407258647
 20
202.1368942825
 11
31.6407258647
 21
215.1368942825
  0
LINE
  8
2
  6
CONTINUOUS
 62
5
 10
31.6407258647
 20
215.1368942825
 11
88.2407258647
 21
215.1368942825
  0
LINE
  8
2
  6
CONTINUOUS
 62
5
 10
88.2407258647
 20
215.1368942825
 11
88.2407258647
 21
202.1368942825
  0
LINE
  8
2
  6
CONTINUOUS
 62
5
 10
88.2407258647
 20
202.1368942825
 11
92.4407258647
 21
202.1368942825
  0
LINE
  8
2
  6
CONTINUOUS
 62
5
 10
92.4407258647
 20
202.1368942825
 11
92.4407258647
 21
61.6368942825
  0
LINE
  8
2
  6
CONTINUOUS
 62
5
 10
76.6392970016
 20
61.6368942825
 11
92.4407258647
 21
61.6368942825
  0
LINE
  8
2
  6
CONTINUOUS
 62
5
 10
43.2421547278
 20
61.6368942825
 11
27.4407258647
 21
61.6368942825
  0
LINE
  8
2
  6
CONTINUOUS
 62
5
 10
27.4407258647
 20
61.6368942825
 11
27.4407258647
 21
202.1368942825
  0
LINE
  8
2
  6
CONTINUOUS
 62
5
 10
47.0668182245
 20
58.0934070162
 11
45.8146335050
 21
60.1803815488
  0
LINE
  8
2
  6
CONTINUOUS
 62
5
 10
70.2421547278
 20
56.6368942825
 11
49.6392970016
 21
56.6368942825
  0
ARC
  8
2
  6
CONTINUOUS
 62
5
 10
43.2421547278
 20
58.6368942825
 40
3.0000000000
 50
30.9637565321
 51
90.0000000000
  0
ARC
  8
2
  6
CONTINUOUS
 62
5
 10
49.6392970016
 20
59.6368942825
 40
3.0000000000
 50
210.9637565321
 51
270.0000000000
  0
LINE
  8
2
  6
CONTINUOUS
 62
5
 10
72.8146335050
 20
58.0934070162
 11
74.0668182245
 21
60.1803815488
  0
ARC
  8
2
  6
CONTINUOUS
 62
5
 10
76.6392970016
 20
58.6368942825
 40
3.0000000000
 50
90.0000000000
 51
149.0362434679
  0
ARC
  8
2
  6
CONTINUOUS
 62
5
 10
70.2421547278
 20
59.6368942825
 40
3.0000000000
 50
270.0000000000
 51
329.0362434679
  0
LINE
  8
2
  6
HIDDEN
 62
5
 10
103.6566089140
 20
66.7868942825
 11
105.6566089140
 21
66.7868942825
  0
LINE
  8
2
  6
HIDDEN
 62
5
 10
105.6566089140
 20
67.1368942825
 11
103.6566089140
 21
67.1368942825
  0
LINE
  8
2
  6
HIDDEN
 62
5
 10
105.6566089140
 20
67.3868942825
 11
118.1566089140
 21
67.3868942825
  0
LINE
  8
2
  6
HIDDEN
 62
5
 10
103.6566089140
 20
63.4868942825
 11
105.6566089140
 21
63.4868942825
  0
LINE
  8
2
  6
HIDDEN
 62
5
 10
105.6566089140
 20
63.1368942825
 11
103.6566089140
 21
63.1368942825
  0
LINE
  8
2
  6
HIDDEN
 62
5
 10
105.6566089140
 20
62.8868942825
 11
118.1566089140
 21
62.8868942825
  0
LINE
  8
2
  6
HIDDEN
 62
5
 10
105.6566089140
 20
67.3868942825
 11
105.6566089140
 21
62.8868942825
  0
LINE
  8
1
  6
HIDDEN
 62
7
 10
118.6566089140
 20
67.1368942825
 11
127.6566089140
 21
67.1368942825
  0
LINE
  8
1
  6
HIDDEN
 62
7
 10
118.6566089140
 20
66.7868942825
 11
127.6566089140
 21
66.7868942825
  0
LINE
  8
1
  6
HIDDEN
 62
7
 10
118.6566089140
 20
63.4868942825
 11
127.6566089140
 21
63.4868942825
  0
LINE
  8
1
  6
HIDDEN
 62
7
 10
118.6566089140
 20
63.1368942825
 11
127.6566089140
 21
63.1368942825
  0
LINE
  8
2
  6
CONTINUOUS
 62
5
 10
108.1537214550
 20
60.3796756352
 11
106.9080526434
 21
57.2655036062
  0
LINE
  8
2
  6
CONTINUOUS
 62
5
 10
105.9795759525
 20
56.6368942825
 11
104.6566089140
 21
56.6368942825
  0
LINE
  8
2
  6
CONTINUOUS
 62
5
 10
33.9407258647
 20
47.5827940853
 11
85.9407258647
 21
47.5827940853
  0
LINE
  8
2
  6
CONTINUOUS
 62
5
 10
92.4407258647
 20
39.5827940853
 11
92.4407258647
 21
33.0827940853
  0
LINE
  8
2
  6
CONTINUOUS
 62
5
 10
92.4407258647
 20
33.0827940853
 11
27.4407258647
 21
33.0827940853
  0
LINE
  8
2
  6
CONTINUOUS
 62
5
 10
27.4407258647
 20
33.0827940853
 11
27.4407258647
 21
39.5827940853
  0
LINE
  8
2
  6
CONTINUOUS
 62
5
 10
92.4407258647
 20
39.5827940853
 11
85.9407258647
 21
47.5827940853
  0
LINE
  8
2
  6
CONTINUOUS
 62
5
 10
33.9407258647
 20
47.5827940853
 11
27.4407258647
 21
39.5827940853
  0
LINE
  8
2
  6
CONTINUOUS
 62
5
 10
31.5301489416
 20
202.1368942825
 11
33.9407258647
 21
188.5118942825
  0
LINE
  8
2
  6
CONTINUOUS
 62
5
 10
33.9407258647
 20
188.5118942825
 11
85.9407258647
 21
188.5118942825
  0
LINE
  8
2
  6
CONTINUOUS
 62
5
 10
85.9407258647
 20
188.5118942825
 11
88.3513027878
 21
202.1368942825
  0
LINE
  8
2
  6
CONTINUOUS
 62
5
 10
85.9407258647
 20
188.5118942825
 11
85.9407258647
 21
61.6368942825
  0
LINE
  8
2
  6
CONTINUOUS
 62
5
 10
33.9407258647
 20
61.6368942825
 11
33.9407258647
 21
188.5118942825
  0
LINE
  8
2
  6
CONTINUOUS
 62
5
 10
43.2421547278
 20
47.5827940853
 11
43.2421547278
 21
42.5827940853
  0
LINE
  8
2
  6
CONTINUOUS
 62
5
 10
43.2421547278
 20
42.5827940853
 11
49.6392970016
 21
44.5827940853
  0
LINE
  8
2
  6
CONTINUOUS
 62
5
 10
49.6392970016
 20
44.5827940853
 11
70.2421547278
 21
44.5827940853
  0
LINE
  8
2
  6
CONTINUOUS
 62
5
 10
70.2421547278
 20
44.5827940853
 11
76.6392970016
 21
42.5827940853
  0
LINE
  8
2
  6
CONTINUOUS
 62
5
 10
76.6392970016
 20
42.5827940853
 11
76.6392970016
 21
47.5827940853
  0
LINE
  8
2
  6
CONTINUOUS
 62
5
 10
49.6392970016
 20
47.5827940853
 11
49.6392970016
 21
44.5827940853
  0
LINE
  8
2
  6
CONTINUOUS
 62
5
 10
70.2421547278
 20
47.5827940853
 11
70.2421547278
 21
44.5827940853
  0
LINE
  8
2
  6
CONTINUOUS
 62
5
 10
43.2421547278
 20
42.5827940853
 11
76.6392970016
 21
42.5827940853
  0
ARC
  8
2
  6
CONTINUOUS
 62
5
 10
104.6566089140
 20
57.6368942825
 40
1.0000000000
 50
180.0000000000
 51
270.0000000000
  0
ARC
  8
2
  6
CONTINUOUS
 62
5
 10
105.9795759525
 20
57.6368942825
 40
1.0000000000
 50
270.0000000000
 51
338.1985905136
  0
ARC
  8
2
  6
CONTINUOUS
 62
5
 10
110.0106748368
 20
59.6368942825
 40
2.0000000000
 50
90.0000000000
 51
158.1985905136
  0
LINE
  8
1
  6
CONTINUOUS
 62
7
 10
94.4407258647
 20
23.5827940853
 11
25.4407258647
 21
23.5827940853
  0
LINE
  8
2
  6
CONTINUOUS
 62
5
 10
119.1566089140
 20
200.3868942825
 11
118.1566089140
 21
200.3868942825
  0
LINE
  8
2
  6
CONTINUOUS
 62
5
 10
119.1566089140
 20
200.3868942825
 11
119.1566089140
 21
199.8868942825
  0
LINE
  8
2
  6
CONTINUOUS
 62
5
 10
119.1566089140
 20
199.8868942825
 11
118.1566089140
 21
199.8868942825
  0
LINE
  8
2
  6
HIDDEN
 62
5
 10
118.1566089140
 20
199.8868942825
 11
108.9255800130
 21
199.8868942825
  0
LINE
  8
2
  6
CONTINUOUS
 62
5
 10
118.1566089140
 20
69.3868942825
 11
119.1566089140
 21
69.3868942825
  0
LINE
  8
2
  6
CONTINUOUS
 62
5
 10
119.1566089140
 20
69.3868942825
 11
119.1566089140
 21
69.8868942825
  0
LINE
  8
2
  6
CONTINUOUS
 62
5
 10
119.1566089140
 20
69.8868942825
 11
118.1566089140
 21
69.8868942825
  0
LINE
  8
2
  6
HIDDEN
 62
5
 10
118.1566089140
 20
69.8868942825
 11
105.6566089140
 21
69.8868942825
  0
DIMENSION
  8
1
  6
CONTINUOUS
 62
5
  2
*D0
 10
105.6566089140
 20
94.7536737299
 11
113.9066089140
 21
97.5036737299
  70
0
 13
122.1566089140
 23
89.8588253725
 14
105.6566089140
 24
89.8588253725
 50
0.000000
  0
CIRCLE
  8
1
  6
CONTINUOUS
 62
5
 10
131.6566089140
 20
183.3868942825
 40
2.0000000000
  0
LINE
  8
1
  6
CONTINUOUS
 62
5
 10
130.1566089138
 20
183.3868942825
 11
133.1566089138
 21
183.3868942825
  0
LINE
  8
1
  6
CONTINUOUS
 62
5
 10
130.6566089138
 20
182.6368942825
 11
132.6566089138
 21
182.6368942825
  0
LINE
  8
1
  6
CONTINUOUS
 62
5
 10
131.1566089138
 20
181.8868942825
 11
132.1566089138
 21
181.8868942825
  0
LINE
  8
1
  6
CONTINUOUS
 62
5
 10
131.6566089140
 20
183.3868942825
 11
131.6566089138
 21
184.8868942825
  0
LINE
  8
1
  6
CONTINUOUS
 62
7
 10
127.6566089140
 20
188.3868942825
 11
142.6566089140
 21
188.3868942825
  0
LINE
  8
1
  6
CONTINUOUS
 62
7
 10
142.6566089140
 20
188.3868942825
 11
142.6566089140
 21
178.3868942825
  0
LINE
  8
1
  6
CONTINUOUS
 62
7
 10
142.6566089140
 20
178.3868942825
 11
127.6566089140
 21
178.3868942825
  0
CIRCLE
  8
1
  6
CONTINUOUS
 62
7
 10
137.6566089140
 20
183.3868942825
 40
2.0000000000
  0
CIRCLE
  8
1
  6
HIDDEN
 62
7
 10
137.6566089140
 20
183.3868942825
 40
2.5000000000
  0
CIRCLE
  8
1
  6
HIDDEN
 62
5
 10
131.6566089140
 20
86.3868942825
 40
2.0000000000
  0
LINE
  8
1
  6
HIDDEN
 62
5
 10
130.1566089138
 20
86.3868942825
 11
133.1566089138
 21
86.3868942825
  0
LINE
  8
1
  6
HIDDEN
 62
5
 10
130.6566089138
 20
85.6368942825
 11
132.6566089138
 21
85.6368942825
  0
LINE
  8
1
  6
HIDDEN
 62
5
 10
131.1566089138
 20
84.8868942825
 11
132.1566089138
 21
84.8868942825
  0
LINE
  8
1
  6
HIDDEN
 62
5
 10
131.6566089140
 20
86.3868942825
 11
131.6566089138
 21
87.8868942825
  0
LINE
  8
1
  6
CONTINUOUS
 62
7
 10
127.6566089140
 20
91.3868942825
 11
142.6566089140
 21
91.3868942825
  0
LINE
  8
1
  6
CONTINUOUS
 62
7
 10
142.6566089140
 20
91.3868942825
 11
142.6566089140
 21
81.3868942825
  0
LINE
  8
1
  6
CONTINUOUS
 62
7
 10
142.6566089140
 20
81.3868942825
 11
127.6566089140
 21
81.3868942825
  0
CIRCLE
  8
1
  6
CONTINUOUS
 62
7
 10
137.6566089140
 20
86.3868942825
 40
2.0000000000
  0
CIRCLE
  8
1
  6
HIDDEN
 62
7
 10
137.6566089140
 20
86.3868942825
 40
2.5000000000
  0
DIMENSION
  8
1
  6
CONTINUOUS
 62
5
  2
*D1
 10
18.6541168789
 20
32.5827940853
 11
15.9041168789
 21
28.0827940853
  70
0
 13
25.4407258647
 23
23.5827940853
 14
26.4407258647
 24
32.5827940853
 50
90.000000
  0
DIMENSION
  8
1
  6
CONTINUOUS
 62
5
  2
*D2
 10
18.4145405822
 20
47.5827940853
 11
15.6645405822
 21
40.3327940853
  70
0
 13
27.4407258647
 23
33.0827940853
 14
33.9407258647
 24
47.5827940853
 50
90.000000
  0
DIMENSION
  8
1
  6
CONTINUOUS
 62
5
  2
*D3
 10
10.9078166190
 20
47.5827940853
 11
8.1578166190
 21
35.5827940853
  70
0
 13
25.4407258647
 23
23.5827940853
 14
33.9407258647
 24
47.5827940853
 50
90.000000
  0
LINE
  8
1
  6
CONTINUOUS
 62
7
 10
33.9407258647
 20
23.5827940853
 11
33.9407258647
 21
8.5827940853
  0
LINE
  8
1
  6
CONTINUOUS
 62
7
 10
33.9407258647
 20
8.5827940853
 11
36.9407258647
 21
8.5827940853
  0
LINE
  8
1
  6
CONTINUOUS
 62
7
 10
36.9407258647
 20
8.5827940853
 11
36.9407258647
 21
23.5827940853
  0
LINE
  8
1
  6
CONTINUOUS
 62
7
 10
85.9407258647
 20
23.5827940853
 11
85.9407258647
 21
8.5827940853
  0
LINE
  8
1
  6
CONTINUOUS
 62
7
 10
85.9407258647
 20
8.5827940853
 11
82.9407258647
 21
8.5827940853
  0
LINE
  8
1
  6
CONTINUOUS
 62
7
 10
82.9407258647
 20
8.5827940853
 11
82.9407258647
 21
23.5827940853
  0
LINE
  8
2
  6
CONTINUOUS
 62
5
 10
109.8858960748
 20
210.7797190840
 11
103.6566089140
 21
188.5118942825
  0
LINE
  8
2
  6
HIDDEN
 62
5
 10
108.9255800130
 20
199.8868942825
 11
105.6566089140
 21
188.2366181518
  0
LINE
  8
2
  6
HIDDEN
 62
5
 10
105.6566089140
 20
188.2366181518
 11
105.6566089140
 21
69.8868942825
  0
DIMENSION
  8
1
  6
CONTINUOUS
 62
5
  2
*D4
 10
14.9678380111
 20
60.6368942825
 11
11.4678380111
 21
138.3868942825
  70
0
 13
25.4407258647
 23
216.1368942825
 14
25.4407258647
 24
60.6368942825
 50
90.000000
  0
DIMENSION
  8
1
  6
CONTINUOUS
 62
5
  2
*D5
 10
94.4407258647
 20
220.0992275332
 11
59.9407258647
 21
223.5992275332
  70
0
 13
25.4407258647
 23
216.1368942825
 14
94.4407258647
 24
216.1368942825
 50
0.000000
  0
LINE
  8
2
  6
CONTINUOUS
 62
5
 10
29.1907258647
 20
33.0827940853
 11
29.1907258647
 21
32.0827940853
  0
LINE
  8
2
  6
CONTINUOUS
 62
5
 10
29.1907258647
 20
32.0827940853
 11
29.6907258647
 21
32.0827940853
  0
LINE
  8
2
  6
CONTINUOUS
 62
5
 10
29.6907258647
 20
32.0827940853
 11
29.6907258647
 21
33.0827940853
  0
LINE
  8
2
  6
CONTINUOUS
 62
5
 10
90.6907258647
 20
33.0827940853
 11
90.6907258647
 21
32.0827940853
  0
LINE
  8
2
  6
CONTINUOUS
 62
5
 10
90.6907258647
 20
32.0827940853
 11
90.1907258647
 21
32.0827940853
  0
LINE
  8
2
  6
CONTINUOUS
 62
5
 10
90.1907258647
 20
32.0827940853
 11
90.1907258647
 21
33.0827940853
  0
CIRCLE
  8
1
  6
CONTINUOUS
 62
7
 10
59.9407258647
 20
65.1368942825
 40
4.0000000000
  0
LINE
  8
1
  6
CONTINUOUS
 62
7
 10
58.1729589118
 20
66.9046612355
 11
61.7084928177
 21
63.3691273296
  0
LINE
  8
1
  6
CONTINUOUS
 62
7
 10
58.1729589118
 20
63.3691273296
 11
61.7084928177
 21
66.9046612355
  0
CIRCLE
  8
1
  6
CONTINUOUS
 62
7
 10
59.9407258647
 20
65.1368942825
 40
3.5000000000
  0
POINT
  8
1
  6
CONTINUOUS
 62
7
 10
59.9407258647
 20
47.5827940853
  0
LINE
  8
1
  6
CONTINUOUS
 62
7
 10
56.4407258647
 20
47.5827940875
 11
63.4407258647
 21
47.5827940832
  0
LINE
  8
1
  6
CONTINUOUS
 62
7
 10
59.1240591981
 20
50.2661274192
 11
60.7573925314
 21
50.2661274182
  0
ARC
  8
1
  6
CONTINUOUS
 62
7
 10
59.1240591981
 20
47.5827940858
 40
2.6833333333
 50
90.0000000000
 51
179.9999999648
  0
ARC
  8
1
  6
CONTINUOUS
 62
7
 10
60.7573925314
 20
47.5827940848
 40
2.6833333333
 50
359.9999999648
 51
90.0000000000
  0
POINT
  8
1
  6
CONTINUOUS
 62
7
 10
59.9407258647
 20
47.5827940853
  0
POINT
  8
1
  6
CONTINUOUS
 62
7
 10
59.9407258647
 20
47.5827940853
  0
POINT
  8
1
  6
CONTINUOUS
 62
7
 10
103.6566089140
 20
65.1368942825
  0
LINE
  8
1
  6
CONTINUOUS
 62
7
 10
103.6595364366
 20
61.6339667577
 11
103.6595364409
 21
68.6339667577
  0
LINE
  8
1
  6
CONTINUOUS
 62
7
 10
100.9762031049
 20
64.3173000911
 11
100.9762031059
 21
65.9506334244
  0
ARC
  8
1
  6
CONTINUOUS
 62
7
 10
103.6595364383
 20
64.3173000911
 40
2.6833333333
 50
180.0000000000
 51
269.9999999648
  0
ARC
  8
1
  6
CONTINUOUS
 62
7
 10
103.6595364393
 20
65.9506334244
 40
2.6833333333
 50
89.9999999648
 51
180.0000000000
  0
POINT
  8
1
  6
CONTINUOUS
 62
7
 10
103.6566089140
 20
65.1368942825
  0
POINT
  8
1
  6
CONTINUOUS
 62
7
 10
103.6566089140
 20
65.1368942825
  0
INSERT
  8
1
  6
CONTINUOUS
 62
5
  2
BALN2
 10
62.7855132621
 20
63.0979767600
  0
DIMENSION
  8
1
  6
CONTINUOUS
 62
5
  2
*D6
 10
136.6727066227
 20
84.0886479334
 11
135.1285379299
 21
87.4691868029
  70
3
 15
138.6405112052
 25
88.6851406317
  0
INSERT
  8
1
  6
CONTINUOUS
 62
5
  2
LTEX0
 10
137.6566089140
 20
83.8868942825
  0
LINE
  8
1
  6
HIDDEN
 62
7
 10
232.7194042677
 20
197.1368942825
 11
284.7194042677
 21
197.1368942825
  0
LINE
  8
1
  6
HIDDEN
 62
7
 10
231.2194042677
 20
74.1368942825
 11
231.2194042677
 21
195.6368942825
  0
LINE
  8
1
  6
HIDDEN
 62
7
 10
284.7194042677
 20
72.6368942825
 11
232.7194042677
 21
72.6368942825
  0
LINE
  8
1
  6
HIDDEN
 62
7
 10
286.2194042677
 20
74.1368942825
 11
286.2194042677
 21
195.6368942825
  0
LINE
  8
1
  6
CONTINUOUS
 62
7
 10
229.2194042677
 20
71.6368942825
 11
229.2194042677
 21
198.1368942825
  0
LINE
  8
1
  6
CONTINUOUS
 62
7
 10
230.2194042677
 20
199.1368942825
 11
287.2194042677
 21
199.1368942825
  0
LINE
  8
1
  6
CONTINUOUS
 62
7
 10
288.2194042677
 20
71.6368942825
 11
288.2194042677
 21
198.1368942825
  0
LINE
  8
1
  6
CONTINUOUS
 62
7
 10
287.2194042677
 20
70.6368942825
 11
230.2194042677
 21
70.6368942825
  0
LINE
  8
1
  6
CONTINUOUS
 62
7
 10
232.7194042677
 20
82.2618942825
 11
232.7194042677
 21
187.5118942825
  0
ARC
  8
1
  6
HIDDEN
 62
7
 10
284.7194042677
 20
195.6368942825
 40
1.5000000000
 50
0.0000000000
 51
90.0000000000
  0
ARC
  8
1
  6
HIDDEN
 62
7
 10
232.7194042677
 20
195.6368942825
 40
1.5000000000
 50
90.0000000000
 51
180.0000000000
  0
ARC
  8
1
  6
HIDDEN
 62
7
 10
232.7194042677
 20
74.1368942825
 40
1.5000000000
 50
180.0000000000
 51
270.0000000000
  0
ARC
  8
1
  6
HIDDEN
 62
7
 10
284.7194042677
 20
74.1368942825
 40
1.5000000000
 50
270.0000000000
 51
0.0000000000
  0
CIRCLE
  8
1
  6
CONTINUOUS
 62
7
 10
278.7194042677
 20
193.3868942825
 40
1.7500000000
  0
CIRCLE
  8
1
  6
HIDDEN
 62
7
 10
278.7194042677
 20
193.3868942825
 40
3.2500000000
  0
CIRCLE
  8
1
  6
CONTINUOUS
 62
7
 10
238.7194042677
 20
193.3868942825
 40
1.7500000000
  0
CIRCLE
  8
1
  6
HIDDEN
 62
7
 10
238.7194042677
 20
193.3868942825
 40
3.2500000000
  0
LINE
  8
1
  6
CONTINUOUS
 62
7
 10
233.7194042677
 20
188.5118942825
 11
283.7194042677
 21
188.5118942825
  0
CIRCLE
  8
1
  6
CONTINUOUS
 62
7
 10
278.7194042677
 20
76.3868942825
 40
1.7500000000
  0
CIRCLE
  8
1
  6
HIDDEN
 62
7
 10
278.7194042677
 20
76.3868942825
 40
3.2500000000
  0
CIRCLE
  8
1
  6
CONTINUOUS
 62
7
 10
238.7194042677
 20
76.3868942825
 40
1.7500000000
  0
CIRCLE
  8
1
  6
HIDDEN
 62
7
 10
238.7194042677
 20
76.3868942825
 40
3.2500000000
  0
LINE
  8
1
  6
CONTINUOUS
 62
7
 10
283.7194042677
 20
81.2618942825
 11
233.7194042677
 21
81.2618942825
  0
CIRCLE
  8
1
  6
HIDDEN
 62
7
 10
258.7194042677
 20
193.3868942825
 40
2.0000000000
  0
LINE
  8
1
  6
CONTINUOUS
 62
7
 10
224.2194042677
 20
60.6368942825
 11
224.2194042677
 21
216.1368942825
  0
LINE
  8
1
  6
CONTINUOUS
 62
7
 10
293.2194042677
 20
216.1368942825
 11
293.2194042677
 21
60.6368942825
  0
ARC
  8
1
  6
CONTINUOUS
 62
7
 10
287.2194042677
 20
198.1368942825
 40
1.0000000000
 50
0.0000000000
 51
90.0000000000
  0
ARC
  8
1
  6
CONTINUOUS
 62
7
 10
230.2194042677
 20
198.1368942825
 40
1.0000000000
 50
90.0000000000
 51
180.0000000000
  0
ARC
  8
1
  6
CONTINUOUS
 62
7
 10
230.2194042677
 20
71.6368942825
 40
1.0000000000
 50
180.0000000000
 51
270.0000000000
  0
ARC
  8
1
  6
CONTINUOUS
 62
7
 10
287.2194042677
 20
71.6368942825
 40
1.0000000000
 50
270.0000000000
 51
360.0000000000
  0
LINE
  8
1
  6
CONTINUOUS
 62
7
 10
284.7194042677
 20
82.2618942825
 11
284.7194042677
 21
187.5118942825
  0
ARC
  8
1
  6
CONTINUOUS
 62
7
 10
283.7194042677
 20
187.5118942825
 40
1.0000000000
 50
0.0000000000
 51
90.0000000000
  0
ARC
  8
1
  6
CONTINUOUS
 62
7
 10
233.7194042677
 20
187.5118942825
 40
1.0000000000
 50
90.0000000000
 51
180.0000000000
  0
ARC
  8
1
  6
CONTINUOUS
 62
7
 10
233.7194042677
 20
82.2618942825
 40
1.0000000000
 50
180.0000000000
 51
270.0000000000
  0
ARC
  8
1
  6
CONTINUOUS
 62
7
 10
283.7194042677
 20
82.2618942825
 40
1.0000000000
 50
270.0000000000
 51
0.0000000000
  0
LINE
  8
1
  6
CONTINUOUS
 62
7
 10
224.2194042677
 20
60.6368942825
 11
293.2194042677
 21
60.6368942825
  0
LINE
  8
1
  6
CONTINUOUS
 62
7
 10
224.2194042677
 20
216.1368942825
 11
293.2194042677
 21
216.1368942825
  0
CIRCLE
  8
1
  6
CONTINUOUS
 62
7
 10
258.7194042677
 20
193.3868942825
 40
1.6500000000
  0
CIRCLE
  8
1
  6
HIDDEN
 62
7
 10
258.7194042677
 20
76.3868942825
 40
2.0000000000
  0
CIRCLE
  8
1
  6
CONTINUOUS
 62
7
 10
258.7194042677
 20
76.3868942825
 40
1.6500000000
  0
CIRCLE
  8
1
  6
HIDDEN
 62
7
 10
258.7194042677
 20
64.6368942825
 40
2.0000000000
  0
CIRCLE
  8
1
  6
CONTINUOUS
 62
7
 10
258.7194042677
 20
64.6368942825
 40
1.6500000000
  0
LINE
  8
1
  6
CONTINUOUS
 62
7
 10
291.2194042677
 20
71.6368942825
 11
291.2194042677
 21
198.1368942825
  0
ARC
  8
1
  6
CONTINUOUS
 62
7
 10
287.2194042677
 20
198.1368942825
 40
4.0000000000
 50
360.0000000000
 51
90.0000000000
  0
LINE
  8
1
  6
CONTINUOUS
 62
7
 10
287.2194042677
 20
202.1368942825
 11
230.2194042677
 21
202.1368942825
  0
ARC
  8
1
  6
CONTINUOUS
 62
7
 10
230.2194042677
 20
198.1368942825
 40
4.0000000000
 50
90.0000000000
 51
180.0000000000
  0
LINE
  8
1
  6
CONTINUOUS
 62
7
 10
226.2194042677
 20
198.1368942825
 11
226.2194042677
 21
71.6368942825
  0
ARC
  8
1
  6
CONTINUOUS
 62
7
 10
230.2194042677
 20
71.6368942825
 40
4.0000000000
 50
180.0000000000
 51
270.0000000000
  0
LINE
  8
1
  6
CONTINUOUS
 62
7
 10
230.2194042677
 20
67.6368942825
 11
287.2194042677
 21
67.6368942825
  0
ARC
  8
1
  6
CONTINUOUS
 62
7
 10
287.2194042677
 20
71.6368942825
 40
4.0000000000
 50
270.0000000000
 51
0.0000000000
  0
LINE
  8
1
  6
CONTINUOUS
 62
7
 10
235.7194042677
 20
188.5118942825
 11
235.7194042677
 21
178.5118942825
  0
LINE
  8
1
  6
CONTINUOUS
 62
7
 10
235.7194042677
 20
178.5118942825
 11
232.7194042677
 21
178.5118942825
  0
LINE
  8
1
  6
CONTINUOUS
 62
7
 10
284.7194042677
 20
91.2618942826
 11
281.7194042677
 21
91.2618942826
  0
LINE
  8
1
  6
CONTINUOUS
 62
7
 10
281.7194042677
 20
91.2618942826
 11
281.7194042677
 21
81.2618942825
  0
LINE
  8
4
  6
HIDDEN
 62
6
 10
232.2194042677
 20
188.8868942825
 11
285.2194042677
 21
188.8868942825
  0
LINE
  8
4
  6
HIDDEN
 62
6
 10
285.2194042677
 20
188.8868942825
 11
285.2194042677
 21
80.8868942825
  0
LINE
  8
4
  6
HIDDEN
 62
6
 10
285.2194042677
 20
80.8868942825
 11
232.2194042677
 21
80.8868942825
  0
LINE
  8
4
  6
HIDDEN
 62
6
 10
232.2194042677
 20
80.8868942825
 11
232.2194042677
 21
188.8868942825
  0
TEXT
  8
1
  6
CONTINUOUS
 62
7
 10
251.164434
 20
51.365698
 40
5.000000
  1
裏 面 図
 41
0.854701
 50
0.000000
 51
0.000000
 72
   5
 73
   0
 11
271.164434
 21
51.365698
  0
LINE
  8
3
  6
CONTINUOUS
 62
7
 10
280.3094042677
 20
100.4598942825
 11
237.1294042677
 21
100.4598942825
  0
LINE
  8
3
  6
CONTINUOUS
 62
6
 10
255.7194042677
 20
186.5658942825
 11
251.7194042677
 21
184.5658942825
  0
LINE
  8
3
  6
CONTINUOUS
 62
6
 10
251.7194042677
 20
184.5658942825
 11
249.2194042677
 21
177.5658942825
  0
LINE
  8
3
  6
CONTINUOUS
 62
6
 10
249.2194042675
 20
177.5658942825
 11
249.2194042676
 21
169.0398942825
  0
LINE
  8
3
  6
CONTINUOUS
 62
6
 10
261.7194042677
 20
186.5658942825
 11
265.7194042677
 21
184.5658942825
  0
LINE
  8
3
  6
CONTINUOUS
 62
6
 10
265.7194042677
 20
184.5658942825
 11
268.2194042677
 21
177.5658942825
  0
LINE
  8
3
  6
CONTINUOUS
 62
6
 10
268.2194042677
 20
177.5658942825
 11
268.2194042676
 21
169.0398942825
  0
LINE
  8
3
  6
CONTINUOUS
 62
6
 10
261.7194042677
 20
186.5658942825
 11
255.7194042677
 21
186.5658942825
  0
ARC
  8
3
  6
CONTINUOUS
 62
6
 10
260.1044042677
 20
176.4058942825
 40
2.5400000000
 50
270.0000000000
 51
90.0000000000
  0
ARC
  8
3
  6
CONTINUOUS
 62
6
 10
257.3344042677
 20
176.4058942825
 40
2.5400000000
 50
90.0000000000
 51
270.0000000000
  0
LINE
  8
3
  6
CONTINUOUS
 62
6
 10
257.3344042677
 20
178.9458942825
 11
260.1044042677
 21
178.9458942825
  0
LINE
  8
3
  6
CONTINUOUS
 62
6
 10
260.1044042677
 20
173.8658942825
 11
257.3344042677
 21
173.8658942825
  0
CIRCLE
  8
3
  6
CONTINUOUS
 62
6
 10
258.7194042677
 20
183.1368942825
 40
1.5000000000
  0
LINE
  8
3
  6
CONTINUOUS
 62
6
 10
247.7194042677
 20
186.5658942825
 11
251.7194042677
 21
184.5658942825
  0
LINE
  8
3
  6
CONTINUOUS
 62
6
 10
243.6194042677
 20
186.5658942825
 11
247.7194042677
 21
186.5658942825
  0
LINE
  8
3
  6
CONTINUOUS
 62
6
 10
242.1194042677
 20
180.3658942825
 11
242.1194042677
 21
185.0658942825
  0
LINE
  8
3
  6
CONTINUOUS
 62
6
 10
243.6194042677
 20
178.8658942825
 11
247.9194042675
 21
178.8658942825
  0
ARC
  8
3
  6
CONTINUOUS
 62
6
 10
247.9194042675
 20
177.5658942825
 40
1.3000000000
 50
0.0000000008
 51
90.0000000000
  0
ARC
  8
3
  6
CONTINUOUS
 62
6
 10
243.6194042677
 20
185.0658942825
 40
1.5000000000
 50
90.0000000000
 51
180.0000000000
  0
ARC
  8
3
  6
CONTINUOUS
 62
6
 10
243.6194042677
 20
180.3658942825
 40
1.5000000000
 50
180.0000000000
 51
270.0000000000
  0
CIRCLE
  8
3
  6
CONTINUOUS
 62
6
 10
246.1194042677
 20
182.3658942825
 40
2.1000000000
  0
LINE
  8
3
  6
CONTINUOUS
 62
6
 10
269.7194042677
 20
186.5658942825
 11
265.7194042677
 21
184.5658942825
  0
LINE
  8
3
  6
CONTINUOUS
 62
6
 10
273.8194042677
 20
186.5658942825
 11
269.7194042677
 21
186.5658942825
  0
LINE
  8
3
  6
CONTINUOUS
 62
6
 10
275.3194042677
 20
180.3658942825
 11
275.3194042677
 21
185.0658942825
  0
LINE
  8
3
  6
CONTINUOUS
 62
6
 10
273.8194042677
 20
178.8658942825
 11
269.5194042678
 21
178.8658942825
  0
ARC
  8
3
  6
CONTINUOUS
 62
6
 10
273.8194042677
 20
185.0658942825
 40
1.5000000000
 50
0.0000000000
 51
90.0000000000
  0
ARC
  8
3
  6
CONTINUOUS
 62
6
 10
273.8194042677
 20
180.3658942825
 40
1.5000000000
 50
270.0000000000
 51
0.0000000000
  0
CIRCLE
  8
3
  6
CONTINUOUS
 62
6
 10
271.3194042677
 20
182.3658942825
 40
2.1000000000
  0
ARC
  8
3
  6
CONTINUOUS
 62
6
 10
269.5194042678
 20
177.5658942825
 40
1.3000000000
 50
90.0000000000
 51
179.9999999992
  0
LINE
  8
3
  6
CONTINUOUS
 62
6
 10
255.7194042677
 20
82.9338942825
 11
251.7194042677
 21
84.9338942825
  0
LINE
  8
3
  6
CONTINUOUS
 62
6
 10
251.7194042677
 20
84.9338942825
 11
249.2194042677
 21
91.9338942825
  0
LINE
  8
3
  6
CONTINUOUS
 62
6
 10
261.7194042677
 20
82.9338942825
 11
265.7194042677
 21
84.9338942825
  0
LINE
  8
3
  6
CONTINUOUS
 62
6
 10
265.7194042677
 20
84.9338942825
 11
268.2194042677
 21
91.9338942825
  0
LINE
  8
3
  6
CONTINUOUS
 62
6
 10
261.7194042677
 20
82.9338942825
 11
255.7194042677
 21
82.9338942825
  0
ARC
  8
3
  6
CONTINUOUS
 62
6
 10
260.1044042677
 20
93.0938942825
 40
2.5400000000
 50
270.0000000000
 51
90.0000000000
  0
ARC
  8
3
  6
CONTINUOUS
 62
6
 10
257.3344042677
 20
93.0938942825
 40
2.5400000000
 50
90.0000000000
 51
270.0000000000
  0
LINE
  8
3
  6
CONTINUOUS
 62
6
 10
257.3344042677
 20
90.5538942825
 11
260.1044042677
 21
90.5538942825
  0
LINE
  8
3
  6
CONTINUOUS
 62
6
 10
260.1044042677
 20
95.6338942825
 11
257.3344042677
 21
95.6338942825
  0
CIRCLE
  8
3
  6
CONTINUOUS
 62
6
 10
258.7194042677
 20
86.3628942825
 40
1.5000000000
  0
LINE
  8
3
  6
CONTINUOUS
 62
6
 10
247.7194042677
 20
82.9338942825
 11
251.7194042677
 21
84.9338942825
  0
LINE
  8
3
  6
CONTINUOUS
 62
6
 10
243.6194042677
 20
82.9338942825
 11
247.7194042677
 21
82.9338942825
  0
LINE
  8
3
  6
CONTINUOUS
 62
6
 10
242.1194042677
 20
89.1338942825
 11
242.1194042677
 21
84.4338942826
  0
LINE
  8
3
  6
CONTINUOUS
 62
6
 10
243.6194042677
 20
90.6338942825
 11
247.9194042675
 21
90.6338942825
  0
ARC
  8
3
  6
CONTINUOUS
 62
6
 10
247.9194042675
 20
91.9338942825
 40
1.3000000000
 50
270.0000000000
 51
359.9999999992
  0
ARC
  8
3
  6
CONTINUOUS
 62
6
 10
243.6194042677
 20
84.4338942826
 40
1.5000000000
 50
180.0000000000
 51
270.0000000000
  0
ARC
  8
3
  6
CONTINUOUS
 62
6
 10
243.6194042677
 20
89.1338942825
 40
1.5000000000
 50
90.0000000000
 51
180.0000000000
  0
CIRCLE
  8
3
  6
CONTINUOUS
 62
6
 10
246.1194042677
 20
87.1338942825
 40
2.1000000000
  0
LINE
  8
3
  6
CONTINUOUS
 62
6
 10
269.7194042677
 20
82.9338942825
 11
265.7194042677
 21
84.9338942825
  0
LINE
  8
3
  6
CONTINUOUS
 62
6
 10
273.8194042677
 20
82.9338942825
 11
269.7194042677
 21
82.9338942825
  0
LINE
  8
3
  6
CONTINUOUS
 62
6
 10
275.3194042677
 20
89.1338942825
 11
275.3194042677
 21
84.4338942826
  0
LINE
  8
3
  6
CONTINUOUS
 62
6
 10
273.8194042677
 20
90.6338942825
 11
269.5194042678
 21
90.6338942825
  0
ARC
  8
3
  6
CONTINUOUS
 62
6
 10
273.8194042677
 20
84.4338942826
 40
1.5000000000
 50
270.0000000000
 51
0.0000000000
  0
ARC
  8
3
  6
CONTINUOUS
 62
6
 10
273.8194042677
 20
89.1338942825
 40
1.5000000000
 50
0.0000000000
 51
90.0000000000
  0
CIRCLE
  8
3
  6
CONTINUOUS
 62
6
 10
271.3194042677
 20
87.1338942825
 40
2.1000000000
  0
ARC
  8
3
  6
CONTINUOUS
 62
6
 10
269.5194042678
 20
91.9338942825
 40
1.3000000000
 50
180.0000000008
 51
270.0000000000
  0
LINE
  8
3
  6
CONTINUOUS
 62
6
 10
268.2194042677
 20
91.9338942825
 11
268.2194042677
 21
100.4598942825
  0
LINE
  8
3
  6
CONTINUOUS
 62
6
 10
249.2194042675
 20
91.9338942825
 11
249.2194042676
 21
100.4598942825
  0
LINE
  8
3
  6
CONTINUOUS
 62
4
 10
235.9694042677
 20
101.4598942825
 11
281.4694042677
 21
101.4598942825
  0
LINE
  8
3
  6
CONTINUOUS
 62
4
 10
281.4694042677
 20
101.4598942825
 11
281.4694042677
 21
167.4598942825
  0
LINE
  8
3
  6
CONTINUOUS
 62
4
 10
281.4694042677
 20
167.4598942825
 11
280.4694042677
 21
167.4598942825
  0
LINE
  8
3
  6
CONTINUOUS
 62
4
 10
280.4694042677
 20
167.4598942825
 11
280.4694042677
 21
147.4598942825
  0
LINE
  8
3
  6
HIDDEN
 62
4
 10
280.4694042677
 20
147.4598942825
 11
280.4694042677
 21
101.4598942825
  0
LINE
  8
3
  6
CONTINUOUS
 62
4
 10
236.9694042677
 20
147.4598942825
 11
236.9694042677
 21
167.4598942825
  0
LINE
  8
3
  6
HIDDEN
 62
4
 10
236.9694042677
 20
101.4598942825
 11
236.9694042677
 21
147.4598942825
  0
LINE
  8
3
  6
CONTINUOUS
 62
4
 10
236.9694042677
 20
167.4598942825
 11
235.9694042677
 21
167.4598942825
  0
LINE
  8
3
  6
CONTINUOUS
 62
4
 10
235.9694042677
 20
167.4598942825
 11
235.9694042677
 21
101.4598942825
  0
LINE
  8
3
  6
HIDDEN
 62
4
 10
236.9694042677
 20
137.4598942825
 11
237.9694042677
 21
137.4598942825
  0
LINE
  8
3
  6
HIDDEN
 62
4
 10
237.9694042677
 20
137.4598942825
 11
238.9694042677
 21
137.4598942825
  0
LINE
  8
3
  6
HIDDEN
 62
4
 10
238.9694042677
 20
137.4598942825
 11
238.9694042677
 21
128.4598942825
  0
LINE
  8
3
  6
HIDDEN
 62
4
 10
238.9694042677
 20
128.4598942825
 11
237.9694042677
 21
128.4598942825
  0
LINE
  8
3
  6
HIDDEN
 62
4
 10
237.9694042677
 20
128.4598942825
 11
236.9694042677
 21
128.4598942825
  0
LINE
  8
3
  6
HIDDEN
 62
4
 10
280.4694042677
 20
137.4598942825
 11
279.4694042677
 21
137.4598942825
  0
LINE
  8
3
  6
HIDDEN
 62
4
 10
279.4694042677
 20
137.4598942825
 11
278.4694042677
 21
137.4598942825
  0
LINE
  8
3
  6
HIDDEN
 62
4
 10
278.4694042677
 20
137.4598942825
 11
278.4694042677
 21
128.4598942825
  0
LINE
  8
3
  6
HIDDEN
 62
4
 10
278.4694042677
 20
128.4598942825
 11
279.4694042677
 21
128.4598942825
  0
LINE
  8
3
  6
HIDDEN
 62
4
 10
279.4694042677
 20
128.4598942825
 11
280.4694042677
 21
128.4598942825
  0
LINE
  8
3
  6
CONTINUOUS
 62
4
 10
279.4694042677
 20
147.4598942825
 11
279.4694042677
 21
167.4598942825
  0
LINE
  8
3
  6
HIDDEN
 62
4
 10
279.4694042677
 20
101.4598942825
 11
279.4694042677
 21
147.4598942825
  0
LINE
  8
3
  6
CONTINUOUS
 62
4
 10
279.4694042677
 20
167.4598942825
 11
280.4694042677
 21
167.4598942825
  0
LINE
  8
3
  6
CONTINUOUS
 62
4
 10
237.9694042677
 20
147.4598942825
 11
237.9694042677
 21
167.4598942825
  0
LINE
  8
3
  6
HIDDEN
 62
4
 10
237.9694042677
 20
101.4598942825
 11
237.9694042677
 21
147.4598942825
  0
LINE
  8
3
  6
CONTINUOUS
 62
4
 10
237.9694042677
 20
167.4598942825
 11
236.9694042677
 21
167.4598942825
  0
LINE
  8
3
  6
CONTINUOUS
 62
4
 10
281.4694042677
 20
147.4598942825
 11
235.9694042677
 21
147.4598942825
  0
LINE
  8
3
  6
HIDDEN
 62
4
 10
251.2194042677
 20
147.4598942825
 11
251.2194042677
 21
142.4598942825
  0
LINE
  8
3
  6
HIDDEN
 62
4
 10
251.2194042677
 20
142.4598942825
 11
266.2194042677
 21
142.4598942825
  0
LINE
  8
3
  6
HIDDEN
 62
4
 10
266.2194042677
 20
142.4598942825
 11
266.2194042677
 21
147.4598942825
  0
LINE
  8
1
  6
CONTINUOUS
 62
7
 10
239.2194042677
 20
169.0398942825
 11
278.2194042677
 21
169.0398942825
  0
LINE
  8
1
  6
CONTINUOUS
 62
5
 10
243.3094042677
 20
157.8398942825
 11
243.6094042677
 21
157.8398942825
  0
LINE
  8
1
  6
CONTINUOUS
 62
5
 10
243.6094042677
 20
157.8398942825
 11
243.6094042677
 21
148.8398942825
  0
LINE
  8
1
  6
CONTINUOUS
 62
5
 10
243.3094042677
 20
148.8398942825
 11
243.6094042677
 21
148.8398942825
  0
LINE
  8
1
  6
CONTINUOUS
 62
5
 10
240.8094042677
 20
151.3398942825
 11
240.8094042677
 21
155.3398942825
  0
ARC
  8
1
  6
CONTINUOUS
 62
5
 10
243.3094042677
 20
155.3398942825
 40
2.5000000000
 50
90.0000000000
 51
180.0000000000
  0
ARC
  8
1
  6
CONTINUOUS
 62
5
 10
243.3094042677
 20
151.3398942825
 40
2.5000000000
 50
180.0000000000
 51
270.0000000000
  0
LINE
  8
1
  6
CONTINUOUS
 62
5
 10
239.2194042677
 20
158.8398942825
 11
243.6094042677
 21
158.8398942825
  0
LINE
  8
1
  6
CONTINUOUS
 62
5
 10
243.6094042677
 20
158.8398942825
 11
243.6094042677
 21
147.8398942825
  0
LINE
  8
1
  6
CONTINUOUS
 62
5
 10
243.6094042677
 20
147.8398942825
 11
239.2194042677
 21
147.8398942825
  0
LINE
  8
1
  6
CONTINUOUS
 62
5
 10
274.1294042677
 20
157.8398942825
 11
273.8294042677
 21
157.8398942825
  0
LINE
  8
1
  6
CONTINUOUS
 62
5
 10
273.8294042677
 20
157.8398942825
 11
273.8294042677
 21
148.8398942825
  0
LINE
  8
1
  6
CONTINUOUS
 62
5
 10
274.1294042677
 20
148.8398942825
 11
273.8294042677
 21
148.8398942825
  0
LINE
  8
1
  6
CONTINUOUS
 62
5
 10
276.6294042677
 20
151.3398942825
 11
276.6294042677
 21
155.3398942825
  0
ARC
  8
1
  6
CONTINUOUS
 62
5
 10
274.1294042677
 20
155.3398942825
 40
2.5000000000
 50
0.0000000000
 51
90.0000000000
  0
ARC
  8
1
  6
CONTINUOUS
 62
5
 10
274.1294042677
 20
151.3398942825
 40
2.5000000000
 50
270.0000000000
 51
0.0000000000
  0
LINE
  8
1
  6
CONTINUOUS
 62
5
 10
278.2194042677
 20
158.8398942825
 11
273.8294042677
 21
158.8398942825
  0
LINE
  8
1
  6
CONTINUOUS
 62
5
 10
273.8294042677
 20
158.8398942825
 11
273.8294042677
 21
147.8398942825
  0
LINE
  8
1
  6
CONTINUOUS
 62
5
 10
273.8294042677
 20
147.8398942825
 11
278.2194042677
 21
147.8398942825
  0
CIRCLE
  8
1
  6
CONTINUOUS
 62
5
 10
246.1094042677
 20
156.8398942825
 40
1.5000000000
  0
CIRCLE
  8
1
  6
CONTINUOUS
 62
5
 10
246.1094042677
 20
149.8398942825
 40
1.5000000000
  0
CIRCLE
  8
1
  6
CONTINUOUS
 62
5
 10
271.3294042677
 20
156.8398942825
 40
1.5000000000
  0
CIRCLE
  8
1
  6
CONTINUOUS
 62
5
 10
271.3294042677
 20
149.8398942825
 40
1.5000000000
  0
TEXT
  8
1
  6
CONTINUOUS
 62
5
 10
247.609404
 20
157.714894
 40
3.500000
  1
WHITE
 41
0.786164
 50
270.000000
 51
0.000000
 72
   5
 73
   0
 11
247.609404
 21
148.964894
  0
TEXT
  8
1
  6
CONTINUOUS
 62
5
 10
269.829404
 20
148.964894
 40
3.500000
  1
H O T
 41
0.786164
 50
90.000000
 51
0.000000
 72
   5
 73
   0
 11
269.829404
 21
157.714894
  0
TEXT
  8
1
  6
CONTINUOUS
 62
5
 10
252.719404
 20
150.339894
 40
6.000000
  1
LINE
 41
0.796813
 50
0.000000
 51
0.000000
 72
   5
 73
   0
 11
264.719404
 21
150.339894
  0
LINE
  8
1
  6
CONTINUOUS
 62
5
 10
245.0194042687
 20
165.8398942825
 11
245.0194042687
 21
165.5398942825
  0
LINE
  8
1
  6
CONTINUOUS
 62
5
 10
247.5194042687
 20
168.3398942825
 11
251.5194042687
 21
168.3398942825
  0
ARC
  8
1
  6
CONTINUOUS
 62
5
 10
247.5194042687
 20
165.8398942825
 40
2.5000000000
 50
90.0000000000
 51
180.0000000000
  0
LINE
  8
1
  6
CONTINUOUS
 62
5
 10
254.0194042687
 20
165.8398942825
 11
254.0194042687
 21
165.5398942825
  0
LINE
  8
1
  6
CONTINUOUS
 62
5
 10
254.0194042687
 20
165.5398942825
 11
245.0194042687
 21
165.5398942825
  0
ARC
  8
1
  6
CONTINUOUS
 62
5
 10
251.5194042687
 20
165.8398942825
 40
2.5000000000
 50
0.0000000000
 51
90.0000000000
  0
LINE
  8
1
  6
CONTINUOUS
 62
5
 10
244.0194042675
 20
169.0398942825
 11
244.0194042675
 21
164.5398942825
  0
LINE
  8
1
  6
CONTINUOUS
 62
5
 10
244.0194042675
 20
164.5398942825
 11
247.3194042687
 21
164.5398942825
  0
LINE
  8
1
  6
CONTINUOUS
 62
5
 10
247.3194042687
 20
164.5398942825
 11
247.3194042687
 21
165.5398942825
  0
LINE
  8
1
  6
CONTINUOUS
 62
5
 10
247.3194042687
 20
165.5398942825
 11
255.0194042698
 21
165.5398942825
  0
LINE
  8
1
  6
CONTINUOUS
 62
5
 10
255.0194042698
 20
165.5398942825
 11
255.0194042698
 21
169.0398942825
  0
LINE
  8
1
  6
CONTINUOUS
 62
5
 10
247.3194042687
 20
165.5398942825
 11
244.0194042709
 21
165.5398942825
  0
INSERT
  8
1
  6
CONTINUOUS
 62
7
  2
S2
 10
251.1694042692
 20
162.0398942825
  0
LINE
  8
1
  6
CONTINUOUS
 62
7
 10
280.3094042677
 20
147.8398942825
 11
278.2194042677
 21
147.8398942825
  0
LINE
  8
1
  6
CONTINUOUS
 62
7
 10
278.2194042677
 20
147.8398942825
 11
278.2194042677
 21
169.0398942825
  0
LINE
  8
1
  6
CONTINUOUS
 62
7
 10
237.1294042677
 20
147.8398942825
 11
239.2194042677
 21
147.8398942825
  0
LINE
  8
1
  6
CONTINUOUS
 62
7
 10
239.2194042677
 20
147.8398942825
 11
239.2194042677
 21
169.0398942825
  0
LINE
  8
1
  6
CONTINUOUS
 62
7
 10
280.3094042677
 20
147.8398942825
 11
280.3094042677
 21
100.4598942825
  0
LINE
  8
1
  6
CONTINUOUS
 62
7
 10
237.1294042677
 20
100.4598942825
 11
237.1294042677
 21
147.8398942825
  0
TEXT
  8
5
  6
CONTINUOUS
 62
7
 10
341.500000
 20
247.540741
 40
3.500000
  1
MCON-C800
 41
0.924573
 50
0.000000
 51
0.000000
 72
   5
 73
   0
 11
360.463000
 21
247.540741
  0
TEXT
  8
5
  6
CONTINUOUS
 62
7
 10
341.500000
 20
244.040741
 40
3.500000
  1
M0051A800A (PC t=1.0)
 41
0.723957
 50
0.000000
 51
0.000000
 72
   5
 73
   0
 11
376.720500
 21
244.040741
  0
TEXT
  8
5
  6
CONTINUOUS
 62
7
 10
381.500000
 20
248.500000
 40
3.000000
  1
MADOKA
 41
1.028831
 50
0.000000
 51
0.000000
 72
   5
 73
   0
 11
393.383000
 21
248.500000
  0
TEXT
  8
5
  6
CONTINUOUS
 62
7
 10
397.125000
 20
248.250000
 40
3.500000
  1
1
 41
1.000000
 50
0.000000
 51
0.000000
 72
   5
 73
   0
 11
398.875000
 21
248.250000
  0
TEXT
  8
5
  6
CONTINUOUS
 62
7
 10
321.500000
 20
248.600000
 40
2.800000
  1
GF15ILA用ｶﾊﾞｰ
 41
0.805018
 50
0.000000
 51
0.000000
 72
   5
 73
   0
 11
340.366400
 21
248.600000
  0
INSERT
  8
3
  6
CONTINUOUS
 62
5
  2
BALN3
 10
106.3252681392
 20
198.0515469823
  0
INSERT
  8
3
  6
CONTINUOUS
 62
5
  2
BALN4
 10
125.2794223691
 20
210.9687949083
  0
INSERT
  8
3
  6
CONTINUOUS
 62
5
  2
BALN5
 10
163.3371686205
 20
193.3868942825
  0
INSERT
  8
3
  6
CONTINUOUS
 62
5
  2
BALN6
 10
183.3371686205
 20
197.2868942825
  0
INSERT
  8
3
  6
CONTINUOUS
 62
5
  2
BALN7
 10
204.0538270525
 20
183.4190997007
  0
INSERT
  8
3
  6
CONTINUOUS
 62
5
  2
BALN8
 10
259.6762259717
 20
135.6744456198
  0
LINE
  8
5
  6
CONTINUOUS
 62
6
 10
315.5000000000
 20
272.5000000000
 11
315.5000000000
 21
277.5000000000
  0
LINE
  8
5
  6
CONTINUOUS
 62
6
 10
315.5000000000
 20
277.5000000000
 11
320.5000000000
 21
277.5000000000
  0
LINE
  8
5
  6
CONTINUOUS
 62
6
 10
320.5000000000
 20
277.5000000000
 11
340.5000000000
 21
277.5000000000
  0
LINE
  8
5
  6
CONTINUOUS
 62
6
 10
340.5000000000
 20
277.5000000000
 11
380.5000000000
 21
277.5000000000
  0
LINE
  8
5
  6
CONTINUOUS
 62
6
 10
380.5000000000
 20
277.5000000000
 11
395.5000000000
 21
277.5000000000
  0
LINE
  8
5
  6
CONTINUOUS
 62
6
 10
395.5000000000
 20
277.5000000000
 11
400.5000000000
 21
277.5000000000
  0
LINE
  8
5
  6
CONTINUOUS
 62
6
 10
400.5000000000
 20
277.5000000000
 11
400.5000000000
 21
272.5000000000
  0
LINE
  8
5
  6
CONTINUOUS
 62
6
 10
400.5000000000
 20
272.5000000000
 11
395.5000000000
 21
272.5000000000
  0
LINE
  8
5
  6
CONTINUOUS
 62
6
 10
395.5000000000
 20
272.5000000000
 11
380.5000000000
 21
272.5000000000
  0
LINE
  8
5
  6
CONTINUOUS
 62
6
 10
380.5000000000
 20
272.5000000000
 11
340.5000000000
 21
272.5000000000
  0
LINE
  8
5
  6
CONTINUOUS
 62
6
 10
340.5000000000
 20
272.5000000000
 11
320.5000000000
 21
272.5000000000
  0
LINE
  8
5
  6
CONTINUOUS
 62
6
 10
320.5000000000
 20
272.5000000000
 11
315.5000000000
 21
272.5000000000
  0
LINE
  8
5
  6
CONTINUOUS
 62
6
 10
320.5000000000
 20
277.5000000000
 11
320.5000000000
 21
272.5000000000
  0
LINE
  8
5
  6
CONTINUOUS
 62
6
 10
340.5000000000
 20
277.5000000000
 11
340.5000000000
 21
272.5000000000
  0
LINE
  8
5
  6
CONTINUOUS
 62
6
 10
380.5000000000
 20
277.5000000000
 11
380.5000000000
 21
272.5000000000
  0
LINE
  8
5
  6
CONTINUOUS
 62
6
 10
395.5000000000
 20
277.5000000000
 11
395.5000000000
 21
272.5000000000
  0
TEXT
  8
5
  6
CONTINUOUS
 62
7
 10
315.700000
 20
273.850000
 40
2.300000
  1
項番
 41
0.921659
 50
0.000000
 51
0.000000
 72
   5
 73
   0
 11
320.300000
 21
273.850000
  0
TEXT
  8
5
  6
CONTINUOUS
 62
7
 10
325.508000
 20
273.500000
 40
3.000000
  1
品　　名
 41
0.737916
 50
0.000000
 51
0.000000
 72
   5
 73
   0
 11
335.492000
 21
273.500000
  0
TEXT
  8
5
  6
CONTINUOUS
 62
7
 10
345.347000
 20
273.500000
 40
3.000000
  1
定  格 / 型  番 / 材　質
 41
0.686277
 50
0.000000
 51
0.000000
 72
   5
 73
   0
 11
375.653000
 21
273.500000
  0
TEXT
  8
5
  6
CONTINUOUS
 62
7
 10
382.802500
 20
273.500000
 40
3.000000
  1
メーカー
 41
0.768293
 50
0.000000
 51
0.000000
 72
   5
 73
   0
 11
393.197500
 21
273.500000
  0
TEXT
  8
5
  6
CONTINUOUS
 62
7
 10
395.700000
 20
273.850000
 40
2.300000
  1
数量
 41
0.921659
 50
0.000000
 51
0.000000
 72
   5
 73
   0
 11
400.300000
 21
273.850000
  0
LINE
  8
5
  6
CONTINUOUS
 62
6
 10
315.5000000000
 20
272.5000000000
 11
320.5000000000
 21
272.5000000000
  0
LINE
  8
5
  6
CONTINUOUS
 62
6
 10
320.5000000000
 20
272.5000000000
 11
340.5000000000
 21
272.5000000000
  0
LINE
  8
5
  6
CONTINUOUS
 62
6
 10
340.5000000000
 20
272.5000000000
 11
380.5000000000
 21
272.5000000000
  0
LINE
  8
5
  6
CONTINUOUS
 62
6
 10
380.5000000000
 20
272.5000000000
 11
395.5000000000
 21
272.5000000000
  0
LINE
  8
5
  6
CONTINUOUS
 62
6
 10
395.5000000000
 20
272.5000000000
 11
400.5000000000
 21
272.5000000000
  0
LINE
  8
4
  6
CONTINUOUS
 62
3
 10
321.2194042677
 20
188.8868942825
 11
374.2194042677
 21
188.8868942825
  0
LINE
  8
4
  6
CONTINUOUS
 62
3
 10
374.2194042677
 20
188.8868942825
 11
374.2194042677
 21
80.8868942825
  0
LINE
  8
4
  6
CONTINUOUS
 62
3
 10
321.2194042677
 20
80.8868942825
 11
321.2194042677
 21
188.8868942825
  0
LINE
  8
4
  6
CONTINUOUS
 62
3
 10
374.2194042677
 20
80.8868942825
 11
321.2194042677
 21
80.8868942825
  0
CIRCLE
  8
4
  6
CONTINUOUS
 62
3
 10
327.7194042677
 20
193.3868942825
 40
1.5000000000
  0
CIRCLE
  8
4
  6
CONTINUOUS
 62
3
 10
367.7194042677
 20
193.3868942825
 40
1.5000000000
  0
CIRCLE
  8
4
  6
CONTINUOUS
 62
3
 10
327.7194042677
 20
76.3868942825
 40
1.5000000000
  0
CIRCLE
  8
4
  6
CONTINUOUS
 62
3
 10
367.7194042677
 20
76.3868942825
 40
1.5000000000
  0
CIRCLE
  8
4
  6
CONTINUOUS
 62
3
 10
347.7194042677
 20
193.3868942825
 40
2.2500000000
  0
CIRCLE
  8
4
  6
CONTINUOUS
 62
3
 10
347.7194042677
 20
76.3868942825
 40
2.2500000000
  0
DIMENSION
  8
4
  6
CONTINUOUS
 62
5
  2
*D7
 10
327.7194042677
 20
200.0803431065
 11
324.4694042677
 21
202.8303431065
  70
0
 13
321.2194042677
 23
188.8868942825
 14
327.7194042677
 24
191.8868942825
 50
0.000000
  0
DIMENSION
  8
4
  6
CONTINUOUS
 62
5
  2
*D8
 10
347.7194042677
 20
200.0803431065
 11
337.7194042677
 21
202.8303431065
  70
0
 13
327.7194042677
 23
191.8868942825
 14
347.7194042677
 24
191.1368942825
 50
0.000000
  0
DIMENSION
  8
4
  6
CONTINUOUS
 62
5
  2
*D9
 10
367.7194042677
 20
200.0803431065
 11
357.7194042677
 21
202.8303431065
  70
0
 13
347.7194042677
 23
191.1368942825
 14
367.7194042677
 24
191.8868942825
 50
0.000000
  0
DIMENSION
  8
4
  6
CONTINUOUS
 62
5
  2
*D10
 10
374.2194042677
 20
200.0803431065
 11
370.9694042677
 21
202.8303431065
  70
0
 13
367.7194042677
 23
191.8868942825
 14
374.2194042677
 24
188.8868942825
 50
0.000000
  0
DIMENSION
  8
4
  6
CONTINUOUS
 62
5
  2
*D11
 10
374.2194042677
 20
207.0803431065
 11
347.7194042677
 21
209.8303431065
  70
0
 13
321.2194042677
 23
188.8868942825
 14
374.2194042677
 24
188.8868942825
 50
0.000000
  0
DIMENSION
  8
4
  6
CONTINUOUS
 62
5
  2
*D12
 10
326.8685346431
 20
194.6222164599
 11
329.9841615929
 21
194.9468219276
  70
3
 15
328.5702738923
 25
192.1515721051
  0
DIMENSION
  8
4
  6
CONTINUOUS
 62
5
  2
*D13
 10
346.3182064302
 20
195.1473330404
 11
349.8710516384
 21
195.0994694172
  70
3
 15
349.1206021051
 25
191.6264555246
  0
TEXT
  8
4
  6
CONTINUOUS
 62
7
 10
325.047428
 20
52.680982
 40
5.000000
  1
パネルカット図
 41
0.872818
 50
0.000000
 51
0.000000
 72
   5
 73
   0
 11
360.047428
 21
52.680982
  0
TEXT
  8
4
  6
CONTINUOUS
 62
7
 10
325.047428
 20
47.680982
 40
5.000000
  1
推奨板厚 t=1.6以上
 41
0.827967
 50
0.000000
 51
0.000000
 72
   5
 73
   0
 11
370.047428
 21
47.680982
  0
LINE
  8
1
  6
HIDDEN
 62
1
 10
382.2194042677
 20
60.6368942825
 11
382.2194042677
 21
216.1368942825
  0
LINE
  8
1
  6
HIDDEN
 62
1
 10
382.2194042677
 20
216.1368942825
 11
313.2194042677
 21
216.1368942825
  0
LINE
  8
1
  6
HIDDEN
 62
1
 10
313.2194042677
 20
216.1368942825
 11
313.2194042677
 21
60.6368942825
  0
LINE
  8
1
  6
HIDDEN
 62
1
 10
382.2194042677
 20
60.6368942825
 11
313.2194042677
 21
60.6368942825
  0
DIMENSION
  8
1
  6
CONTINUOUS
 62
5
  2
*D14
 10
309.0235379846
 20
80.8868942825
 11
306.5235379846
 21
78.6368942825
  70
0
 13
369.2194042677
 23
76.3868942825
 14
321.2194042677
 24
80.8868942825
 50
90.000000
  0
DIMENSION
  8
1
  6
CONTINUOUS
 62
5
  2
*D15
 10
309.0235379846
 20
188.8868942825
 11
306.2735379846
 21
134.8868942825
  70
0
 13
321.2194042677
 23
80.8868942825
 14
321.2194042677
 24
188.8868942825
 50
90.000000
  0
DIMENSION
  8
1
  6
CONTINUOUS
 62
5
  2
*D16
 10
309.0235379846
 20
193.3868942825
 11
306.5235379846
 21
191.1368942825
  70
0
 13
321.2194042677
 23
188.8868942825
 14
369.2194042677
 24
193.3868942825
 50
90.000000
  0
DIMENSION
  8
1
  6
CONTINUOUS
 62
5
  2
*D17
 10
302.0235379846
 20
193.3868942825
 11
299.2735379846
 21
134.8868942825
  70
0
 13
369.2194042677
 23
76.3868942825
 14
369.2194042677
 24
193.3868942825
 50
90.000000
  0
DIMENSION
  8
1
  6
CONTINUOUS
 62
5
  2
*D18
 10
389.8626383306
 20
80.8868942825
 11
387.1126383306
 21
70.7618942825
  70
0
 13
382.2194042677
 23
60.6368942825
 14
374.2194042677
 24
80.8868942825
 50
90.000000
  0
DIMENSION
  8
1
  6
CONTINUOUS
 62
5
  2
*D19
 10
389.8626383306
 20
188.8868942825
 11
387.1126383306
 21
134.8868942825
  70
0
 13
374.2194042677
 23
80.8868942825
 14
374.2194042677
 24
188.8868942825
 50
90.000000
  0
DIMENSION
  8
1
  6
CONTINUOUS
 62
5
  2
*D20
 10
389.8626383306
 20
216.1368942825
 11
387.1126383306
 21
202.5118942825
  70
0
 13
374.2194042677
 23
188.8868942825
 14
382.2194042677
 24
216.1368942825
 50
90.000000
  0
INSERT
  8
1
  6
CONTINUOUS
 62
5
  2
LTEX1
 10
326.0737455970
 20
60.6368942825
  0
POINT
  8
5
  6
CONTINUOUS
 62
6
 10
9.0000000000
 20
262.0000000000
  0
POINT
  8
5
  6
CONTINUOUS
 62
6
 10
9.0000000000
 20
262.0000000000
  0
POINT
  8
1
  6
CONTINUOUS
 62
6
 10
9.0000000000
 20
262.0000000000
  0
POINT
  8
5
  6
CONTINUOUS
 62
6
 10
9.0000000000
 20
262.0000000000
  0
INSERT
  8
1
  6
CONTINUOUS
 62
7
  2
S3
 10
9.0000000000
 20
262.0000000000
  0
TEXT
  8
1
  6
CONTINUOUS
 62
7
 10
14.500000
 20
260.750000
 40
2.500000
  1
'22/3/21
 41
0.770713
 50
0.000000
 51
0.000000
 72
   5
 73
   0
 11
24.500000
 21
260.750000
  0
TEXT
  8
1
  6
CONTINUOUS
 62
7
 10
26.397854
 20
260.612114
 40
2.500000
  1
PB追加に伴う変更
 41
0.854701
 50
0.000000
 51
0.000000
 72
   5
 73
   0
 11
46.397854
 21
260.612114
  0
TEXT
  8
1
  6
CONTINUOUS
 62
7
 10
90.750000
 20
260.750000
 40
2.500000
  1
Yamada
 41
0.779221
 50
0.000000
 51
0.000000
 72
   5
 73
   0
 11
98.250000
 21
260.750000
  0
TEXT
  8
3
  6
CONTINUOUS
 62
7
 10
114.510675
 20
270.858290
 40
5.000000
  1
型番仕様
 41
0.886918
 50
0.000000
 51
0.000000
 72
   5
 73
   0
 11
134.510675
 21
270.858290
  0
TEXT
  8
3
  6
CONTINUOUS
 62
7
 10
114.510675
 20
263.858290
 40
5.000000
  1
MCON-001-051 %%uPB
 41
0.759109
 50
0.000000
 51
0.000000
 72
   5
 73
   0
 11
152.010675
 21
263.858290
  0
TEXT
  8
1
  6
CONTINUOUS
 62
7
 10
154.052164
 20
250.791367
 40
3.500000
  1
①ﾍﾞｰｽ,②ｶﾊﾞｰ材質
 41
0.806452
 50
0.000000
 51
0.000000
 72
   5
 73
   0
 11
183.802164
 21
250.791367
  0
TEXT
  8
1
  6
CONTINUOUS
 62
7
 10
154.052164
 20
247.291367
 40
3.500000
  1
無印:ｱﾙﾐﾀﾞｲｷｬｽﾄ
 41
0.786164
 50
0.000000
 51
0.000000
 72
   5
 73
   0
 11
180.302164
 21
247.291367
  0
TEXT
  8
1
  6
CONTINUOUS
 62
7
 10
154.052164
 20
243.791367
 40
3.500000
  1
PB:PBT(UL:V-0)
 41
0.760043
 50
0.000000
 51
0.000000
 72
   5
 73
   0
 11
178.552164
 21
243.791367
  0
POINT
  8
5
  6
CONTINUOUS
 62
6
 10
156.7185417190
 20
257.0258233343
  0
POINT
  8
5
  6
CONTINUOUS
 62
6
 10
156.7185417190
 20
257.0258233343
  0
POINT
  8
1
  6
CONTINUOUS
 62
6
 10
156.7185417190
 20
257.0258233343
  0
POINT
  8
5
  6
CONTINUOUS
 62
6
 10
156.7185417190
 20
257.0258233343
  0
INSERT
  8
1
  6
CONTINUOUS
 62
7
  2
S4
 10
156.7185417190
 20
257.0258233343
  0
LINE
  8
3
  6
CONTINUOUS
 62
7
 10
149.2987193233
 20
252.0798633229
 11
149.2987193236
 21
263.6821011048
  0
LINE
  8
3
  6
CONTINUOUS
 62
7
 10
149.2987193233
 20
252.0798633229
 11
153.0062071034
 21
252.0798633229
  0
INSERT
  8
3
  6
CONTINUOUS
 62
5
  2
LTEX2
 10
132.2724486543
 20
82.7949292581
  0
INSERT
  8
3
  6
CONTINUOUS
 62
5
  2
LTEX3
 10
85.9407258647
 20
13.3783063462
  0
INSERT
  8
3
  6
CONTINUOUS
 62
5
  2
LTEX4
 10
36.9407258647
 20
14.8132752953
  0
POINT
  8
5
  6
CONTINUOUS
 62
6
 10
134.9630154338
 20
34.5440983452
  0
POINT
  8
5
  6
CONTINUOUS
 62
6
 10
134.9630154338
 20
34.5440983452
  0
POINT
  8
1
  6
CONTINUOUS
 62
6
 10
134.9630154338
 20
34.5440983452
  0
POINT
  8
5
  6
CONTINUOUS
 62
6
 10
134.9630154338
 20
34.5440983452
  0
INSERT
  8
1
  6
CONTINUOUS
 62
7
  2
S5
 10
134.9630154338
 20
34.5440983452
  0
POINT
  8
5
  6
CONTINUOUS
 62
6
 10
225.3982676976
 20
267.6607447232
  0
POINT
  8
5
  6
CONTINUOUS
 62
6
 10
225.3982676976
 20
267.6607447232
  0
POINT
  8
1
  6
CONTINUOUS
 62
6
 10
225.3982676976
 20
267.6607447232
  0
POINT
  8
5
  6
CONTINUOUS
 62
6
 10
225.3982676976
 20
267.6607447232
  0
INSERT
  8
1
  6
CONTINUOUS
 62
7
  2
S6
 10
225.3982676976
 20
267.6607447232
  0
ENDSEC
  0
EOF
