  0
SECTION
  2
HEADER
  9
$ACADVER
  1
AC1009
  9
$DWGCODEPAGE
  3
dos932
  9
$INSBASE
 10
203.5000000000
 20
142.0000000000
  9
$EXTMIN
 10
-52.4409323796
 20
-52.5981441781
  9
$EXTMAX
 10
651.9866974404
 20
334.7753685425
  9
$LIMMIN
 10
-52.4409323796
 20
-52.5981441781
  9
$LIMMAX
 10
651.9866974404
 20
334.7753685425
  9
$VIEWCTR
 10
0.0000000000
 20
0.0000000000
  9
$VIEWSIZE
 40
0.0000000000
  9
$SNAPMODE
 70
     0
  9
$SNAPUNIT
 10
20.0
 20
20.0
  9
$SNAPBASE
 10
0.000000
 20
0.000000
  9
$SNAPANG
 50
0.0
  9
$SNAPSTYLE
 70
     0
  9
$SNAPISOPAIR
 70
     0
  9
$GRIDMODE
 70
     0
  9
$GRIDUNIT
 10
10.000000
 20
10.000000
  9
$ORTHOMODE
 70
     0
  9
$REGENMODE
 70
     0
  9
$FILLMODE
 70
     1
  9
$QTEXTMODE
 70
     0
  9
$DRAGMODE
 70
     1
  9
$LTSCALE
 40
1.0
  9
$OSMODE
 70
     0
  9
$ATTMODE
 70
     1
  9
$TEXTSIZE
 40
4.000000
  9
$TRACEWID
 40
0.05
  9
$TEXTSTYLE
  7
STANDARD
  9
$CLAYER
  8
1
  9
$CELTYPE
  6
CONTINUOUS
  9
$CECOLOR
  62
7
  9
$DIMSCALE
 40
1.0000000000
  9
$DIMASZ
 40
2.0000000000
  9
$DIMEXO
 40
0.5000000000
  9
$DIMDLI
 40
7.000000
  9
$DIMRND
 40
0.0
  9
$DIMDLE
 40
0.0
  9
$DIMEXE
 40
1.0000000000
  9
$DIMTP
 40
0.0
  9
$DIMTM
 40
0.0
  9
$DIMTXT
 40
3.500000
  9
$DIMCEN
 40
0.09
  9
$DIMTSZ
 40
0.0
  9
$DIMTOL
 70
     0
  9
$DIMLIM
 70
     0
  9
$DIMTIH
 70
     0
  9
$DIMTOH
 70
     0
  9
$DIMSE1
 70
     0
  9
$DIMSE2
 70
     0
  9
$DIMTAD
 70
     1
  9
$DIMZIN
 70
     0
  9
$DIMBLK
  1

  9
$DIMASO
 70
     1
  9
$DIMSHO
 70
     0
  9
$DIMPOST
  1

  9
$DIMAPOST
  1

  9
$DIMALT
 70
     0
  9
$DIMALTD
 70
     3
  9
$DIMCLRD
 70
     5
  9
$DIMCLRE
 70
     5
  9
$DIMCLRT
 70
     7
  9
$DIMALTF
 40
25.4
  9
$DIMLFAC
 40
1.0
  9
$DIMTOFL
 70
     0
  9
$DIMTVP
 40
0.0
  9
$DIMTIX
 70
     0
  9
$DIMSOXD
 70
     0
  9
$DIMSAH
 70
     0
  9
$LUNITS
 70
     2
  9
$LUPREC
 70
     4
  9
$AXISMODE
 70
     0
  9
$AXISUNIT
 10
0.0
 20
0.0
  9
$SKETCHINC
 40
0.1
  9
$FILLETRAD
 40
0.0
  9
$AUNITS
 70
     0
  9
$AUPREC
 70
     0
  9
$MENU
  1
ACAD
  9
$ELEVATION
 40
0.0
  9
$THICKNESS
 40
0.0
  9
$VIEWDIR
 10
0.0
 20
0.0
 30
1.0
  9
$LIMCHECK
 70
     0
  9
$BLIPMODE
 70
     1
  9
$CHAMFERA
 40
0.0
  9
$CHAMFERB
 40
0.0
  9
$FASTZOOM
 70
     1
  9
$SKPOLY
 70
     0
  9
$TDCREATE
 40
2460018.0000000051
  9
$TDUPDATE
 40
2460019.0000000051
  9
$TDINDWG
 40
0.0000000000
  9
$TDUSRTIMER
 40
0.0000000000
  9
$USRTIMER
 70
     1
  9
$ANGBASE
 50
0.0
  9
$ANGDIR
 70
     0
  9
$PDMODE
 70
     65
  9
$PDSIZE
 40
0.2
  9
$PLINEWID
 40
0.0
  9
$COORDS
 70
     2
  9
$USERI1
 70
     0
  9
$USERI2
 70
     0
  9
$USERI3
 70
     0
  9
$USERI4
 70
     0
  9
$USERI5
 70
     0
  9
$USERR1
 40
0.0
  9
$USERR2
 40
0.0
  9
$USERR3
 40
0.0
  9
$USERR4
 40
0.0
  9
$USERR5
 40
0.0
  0
ENDSEC
  0
SECTION
  2
TABLES
  0
TABLE
  2
LTYPE
 70
     9
  0
LTYPE
  2
CONTINUOUS
 70
    64
  3
Solid line
 72
    65
 73
     0
 40
0.0
  0
LTYPE
  2
DASHED
 70
    64
  3
__ __ __ __ __ __ __ __ __ __ __ __ __ __ __
 72
    65
 73
     2
 40
3.0
 49
2.0
 49
-1.0
  0
LTYPE
  2
HIDDEN
 70
    64
  3
_ _ _ _ _ _ _ _ _ _ _ _ _ _ _ _ _ _ _ _ _ _ _
 72
    65
 73
     2
 40
1.5
 49
1.0
 49
-0.5
  0
LTYPE
  2
CENTER
 70
    64
  3
____ _ ____ _ ____ _ ____ _ ____ _ ____ _ ____
 72
    65
 73
     4
 40
24.0
 49
20.0
 49
-1.0
 49
2.0
 49
-1.0
  0
LTYPE
  2
PHANTOM
 70
    64
  3
_____ _ _ _____ _ _ _____ _ _ _____ _ _ ____
 72
    65
 73
     6
 40
27.0
 49
20.0
 49
-1.0
 49
2.0
 49
-1.0
 49
2.0
 49
-1.0
  0
LTYPE
  2
DOT
 70
    64
  3
...............................................
 72
    65
 73
     2
 40
1.5
 49
0.5
 49
-1.0
  0
LTYPE
  2
DASHDOT
 70
    64
  3
__ . __ . __ . __ . __ . __ . __ . __ . __ . __
 72
    65
 73
     4
 40
8.5
 49
6.0
 49
-1.0
 49
0.5
 49
-1.0
  0
LTYPE
  2
DIVIDE
 70
    64
  3
__ . . __ . . __ . . __ . . __ . . __ . . __
 72
    65
 73
     6
 40
10.0
 49
6.0
 49
-1.0
 49
0.5
 49
-1.0
 49
0.5
 49
-1.0
  0
LTYPE
  2
BORDER
 70
    64
  3
__ __ . __ __ . __ __ . __ __ . __ __ . __ __
 72
    65
 73
     6
 40
15.5
 49
6.0
 49
-1.0
 49
6.0
 49
-1.0
 49
0.5
 49
-1.0
  0
ENDTAB
  0
TABLE
  2
LAYER
 70
  7
  0
LAYER
  2
0
 70
    64
 62
     7
  6
CONTINUOUS
  0
LAYER
  2
1
 70
    64
 62
     7
  6
CONTINUOUS
  0
LAYER
  2
2
 70
    64
 62
     7
  6
CONTINUOUS
  0
LAYER
  2
3
 70
    64
 62
     7
  6
CONTINUOUS
  0
LAYER
  2
4
 70
    64
 62
     7
  6
CONTINUOUS
  0
LAYER
  2
5
 70
    64
 62
     7
  6
CONTINUOUS
  0
LAYER
  2
DEFPOINTS
 70
     0
 62
    -7
  6
CONTINUOUS
  0
ENDTAB
  0
TABLE
  2
STYLE
 70
     1
  0
STYLE
  2
STANDARD
 70
    64
 40
0.0
 41
1.0
 71
     0
 42
4.000000
  3
TXT
  4
EXTFONT
 50
0.0
  0
ENDTAB
  0
TABLE
  2
VIEW
 70
     0
  0
ENDTAB
  0
ENDSEC
  0
SECTION
  2
BLOCKS
  0
BLOCK
  8
0
  2
CI
 70
   0
 10
0.0
 20
0.0
  0
CIRCLE
  8
0
  62
0
 10
0.0
 20
0.0
 40
0.1666666666
  0
ENDBLK
  8
0
  0
BLOCK
  8
5
  2
S0
 70
     0
 10
0.0000000000
 20
0.0000000000
  3
S0
  0
POINT
  8
5
  6
CONTINUOUS
 62
6
 10
-6.5000000000
 20
-6.5000000000
  0
LINE
  8
5
  6
CONTINUOUS
 62
6
 10
4.5000000000
 20
4.5000000000
 11
402.5000000000
 21
4.5000000000
  0
LINE
  8
5
  6
CONTINUOUS
 62
6
 10
4.5000000000
 20
4.5000000000
 11
4.5000000000
 21
279.5000000000
  0
LINE
  8
5
  6
CONTINUOUS
 62
6
 10
44.5000000000
 20
284.0000000000
 11
44.5000000000
 21
279.5000000000
  0
LINE
  8
5
  6
CONTINUOUS
 62
6
 10
44.5000000000
 20
4.5000000000
 11
44.5000000000
 21
0.0000000000
  0
LINE
  8
5
  6
CONTINUOUS
 62
6
 10
84.5000000000
 20
284.0000000000
 11
84.5000000000
 21
279.5000000000
  0
LINE
  8
5
  6
CONTINUOUS
 62
6
 10
124.5000000000
 20
284.0000000000
 11
124.5000000000
 21
279.5000000000
  0
LINE
  8
5
  6
CONTINUOUS
 62
6
 10
164.5000000000
 20
284.0000000000
 11
164.5000000000
 21
279.5000000000
  0
LINE
  8
5
  6
CONTINUOUS
 62
6
 10
204.5000000000
 20
284.0000000000
 11
204.5000000000
 21
279.5000000000
  0
LINE
  8
5
  6
CONTINUOUS
 62
6
 10
244.5000000000
 20
284.0000000000
 11
244.5000000000
 21
279.5000000000
  0
LINE
  8
5
  6
CONTINUOUS
 62
6
 10
84.5000000000
 20
4.5000000000
 11
84.5000000000
 21
0.0000000000
  0
LINE
  8
5
  6
CONTINUOUS
 62
6
 10
124.5000000000
 20
4.5000000000
 11
124.5000000000
 21
0.0000000000
  0
LINE
  8
5
  6
CONTINUOUS
 62
6
 10
164.5000000000
 20
4.5000000000
 11
164.5000000000
 21
0.0000000000
  0
LINE
  8
5
  6
CONTINUOUS
 62
6
 10
204.5000000000
 20
4.5000000000
 11
204.5000000000
 21
0.0000000000
  0
LINE
  8
5
  6
CONTINUOUS
 62
6
 10
244.5000000000
 20
4.5000000000
 11
244.5000000000
 21
0.0000000000
  0
LINE
  8
5
  6
CONTINUOUS
 62
6
 10
0.0000000000
 20
239.5000000000
 11
4.5000000000
 21
239.5000000000
  0
LINE
  8
5
  6
CONTINUOUS
 62
6
 10
402.5000000000
 20
239.5000000000
 11
407.0000000000
 21
239.5000000000
  0
LINE
  8
5
  6
CONTINUOUS
 62
6
 10
0.0000000000
 20
199.5000000000
 11
4.5000000000
 21
199.5000000000
  0
LINE
  8
5
  6
CONTINUOUS
 62
6
 10
0.0000000000
 20
159.5000000000
 11
4.5000000000
 21
159.5000000000
  0
LINE
  8
5
  6
CONTINUOUS
 62
6
 10
0.0000000000
 20
119.5000000000
 11
4.5000000000
 21
119.5000000000
  0
LINE
  8
5
  6
CONTINUOUS
 62
6
 10
402.5000000000
 20
199.5000000000
 11
407.0000000000
 21
199.5000000000
  0
LINE
  8
5
  6
CONTINUOUS
 62
6
 10
402.5000000000
 20
159.5000000000
 11
407.0000000000
 21
159.5000000000
  0
LINE
  8
5
  6
CONTINUOUS
 62
6
 10
402.5000000000
 20
119.5000000000
 11
407.0000000000
 21
119.5000000000
  0
TEXT
  8
5
  6
CONTINUOUS
 62
6
 10
23.500000
 20
279.500000
 40
4.000000
  1
1
 41
1.000000
 50
0.000000
 51
0.000000
 72
   5
 73
   0
 11
25.500000
 21
279.500000
  0
TEXT
  8
5
  6
CONTINUOUS
 62
6
 10
23.500000
 20
0.500000
 40
4.000000
  1
1
 41
1.000000
 50
0.000000
 51
0.000000
 72
   5
 73
   0
 11
25.500000
 21
0.500000
  0
TEXT
  8
5
  6
CONTINUOUS
 62
6
 10
63.500000
 20
279.500000
 40
4.000000
  1
2
 41
1.000000
 50
0.000000
 51
0.000000
 72
   5
 73
   0
 11
65.500000
 21
279.500000
  0
TEXT
  8
5
  6
CONTINUOUS
 62
6
 10
103.500000
 20
279.500000
 40
4.000000
  1
3
 41
1.000000
 50
0.000000
 51
0.000000
 72
   5
 73
   0
 11
105.500000
 21
279.500000
  0
TEXT
  8
5
  6
CONTINUOUS
 62
6
 10
143.500000
 20
279.500000
 40
4.000000
  1
4
 41
1.000000
 50
0.000000
 51
0.000000
 72
   5
 73
   0
 11
145.500000
 21
279.500000
  0
TEXT
  8
5
  6
CONTINUOUS
 62
6
 10
183.500000
 20
279.500000
 40
4.000000
  1
5
 41
1.000000
 50
0.000000
 51
0.000000
 72
   5
 73
   0
 11
185.500000
 21
279.500000
  0
TEXT
  8
5
  6
CONTINUOUS
 62
6
 10
223.500000
 20
279.500000
 40
4.000000
  1
6
 41
1.000000
 50
0.000000
 51
0.000000
 72
   5
 73
   0
 11
225.500000
 21
279.500000
  0
TEXT
  8
5
  6
CONTINUOUS
 62
6
 10
263.500000
 20
279.500000
 40
4.000000
  1
7
 41
1.000000
 50
0.000000
 51
0.000000
 72
   5
 73
   0
 11
265.500000
 21
279.500000
  0
TEXT
  8
5
  6
CONTINUOUS
 62
6
 10
63.500000
 20
0.500000
 40
4.000000
  1
2
 41
1.000000
 50
0.000000
 51
0.000000
 72
   5
 73
   0
 11
65.500000
 21
0.500000
  0
TEXT
  8
5
  6
CONTINUOUS
 62
6
 10
103.500000
 20
0.500000
 40
4.000000
  1
3
 41
1.000000
 50
0.000000
 51
0.000000
 72
   5
 73
   0
 11
105.500000
 21
0.500000
  0
TEXT
  8
5
  6
CONTINUOUS
 62
6
 10
143.500000
 20
0.500000
 40
4.000000
  1
4
 41
1.000000
 50
0.000000
 51
0.000000
 72
   5
 73
   0
 11
145.500000
 21
0.500000
  0
TEXT
  8
5
  6
CONTINUOUS
 62
6
 10
183.500000
 20
0.500000
 40
4.000000
  1
5
 41
1.000000
 50
0.000000
 51
0.000000
 72
   5
 73
   0
 11
185.500000
 21
0.500000
  0
TEXT
  8
5
  6
CONTINUOUS
 62
6
 10
223.500000
 20
0.500000
 40
4.000000
  1
6
 41
1.000000
 50
0.000000
 51
0.000000
 72
   5
 73
   0
 11
225.500000
 21
0.500000
  0
TEXT
  8
5
  6
CONTINUOUS
 62
6
 10
263.500000
 20
0.500000
 40
4.000000
  1
7
 41
1.000000
 50
0.000000
 51
0.000000
 72
   5
 73
   0
 11
265.500000
 21
0.500000
  0
TEXT
  8
5
  6
CONTINUOUS
 62
6
 10
1.626773
 20
257.454143
 40
4.000000
  1
A
 41
1.266000
 50
0.000000
 51
0.000000
 72
   5
 73
   0
 11
4.158773
 21
257.454143
  0
TEXT
  8
5
  6
CONTINUOUS
 62
6
 10
402.786513
 20
257.492354
 40
4.000000
  1
A
 41
1.266000
 50
0.000000
 51
0.000000
 72
   5
 73
   0
 11
405.318513
 21
257.492354
  0
TEXT
  8
5
  6
CONTINUOUS
 62
6
 10
1.610773
 20
217.454143
 40
4.000000
  1
B
 41
1.274000
 50
0.000000
 51
0.000000
 72
   5
 73
   0
 11
4.158773
 21
217.454143
  0
TEXT
  8
5
  6
CONTINUOUS
 62
6
 10
1.502773
 20
177.454143
 40
4.000000
  1
C
 41
1.328000
 50
0.000000
 51
0.000000
 72
   5
 73
   0
 11
4.158773
 21
177.454143
  0
TEXT
  8
5
  6
CONTINUOUS
 62
6
 10
1.566773
 20
137.454143
 40
4.000000
  1
D
 41
1.296000
 50
0.000000
 51
0.000000
 72
   5
 73
   0
 11
4.158773
 21
137.454143
  0
TEXT
  8
5
  6
CONTINUOUS
 62
6
 10
1.894773
 20
97.454143
 40
4.000000
  1
E
 41
1.132000
 50
0.000000
 51
0.000000
 72
   5
 73
   0
 11
4.158773
 21
97.454143
  0
TEXT
  8
5
  6
CONTINUOUS
 62
6
 10
402.786513
 20
217.492354
 40
4.000000
  1
B
 41
1.274000
 50
0.000000
 51
0.000000
 72
   5
 73
   0
 11
405.334513
 21
217.492354
  0
TEXT
  8
5
  6
CONTINUOUS
 62
6
 10
402.786513
 20
177.492354
 40
4.000000
  1
C
 41
1.328000
 50
0.000000
 51
0.000000
 72
   5
 73
   0
 11
405.442513
 21
177.492354
  0
TEXT
  8
5
  6
CONTINUOUS
 62
6
 10
402.786513
 20
137.492354
 40
4.000000
  1
D
 41
1.296000
 50
0.000000
 51
0.000000
 72
   5
 73
   0
 11
405.378513
 21
137.492354
  0
TEXT
  8
5
  6
CONTINUOUS
 62
6
 10
402.786513
 20
97.492354
 40
4.000000
  1
E
 41
1.132000
 50
0.000000
 51
0.000000
 72
   5
 73
   0
 11
405.050513
 21
97.492354
  0
LINE
  8
5
  6
CONTINUOUS
 62
6
 10
347.5000000000
 20
29.5000000000
 11
347.5000000000
 21
4.5000000000
  0
LINE
  8
5
  6
CONTINUOUS
 62
6
 10
347.5000000000
 20
14.5000000000
 11
402.5000000000
 21
14.5000000000
  0
LINE
  8
5
  6
CONTINUOUS
 62
6
 10
347.5000000000
 20
7.5000000000
 11
281.5000000000
 21
7.5000000000
  0
LINE
  8
5
  6
CONTINUOUS
 62
6
 10
303.5000000000
 20
4.5000000000
 11
303.5000000000
 21
21.0000000000
  0
LINE
  8
5
  6
CONTINUOUS
 62
6
 10
336.5000000000
 20
17.0000000000
 11
336.5000000000
 21
4.5000000000
  0
LINE
  8
5
  6
CONTINUOUS
 62
6
 10
325.5000000000
 20
4.5000000000
 11
325.4999999999
 21
21.0000000000
  0
LINE
  8
5
  6
CONTINUOUS
 62
6
 10
314.5000000000
 20
17.0000000000
 11
314.5000000000
 21
4.5000000000
  0
TEXT
  8
5
  6
CONTINUOUS
 62
6
 10
294.250000
 20
4.750000
 40
2.500000
  1
Design
 41
0.779221
 50
0.000000
 51
0.000000
 72
   5
 73
   0
 11
301.750000
 21
4.750000
  0
TEXT
  8
5
  6
CONTINUOUS
 62
6
 10
305.875000
 20
4.750000
 40
2.500000
  1
Draft
 41
0.786164
 50
0.000000
 51
0.000000
 72
   5
 73
   0
 11
312.125000
 21
4.750000
  0
TEXT
  8
5
  6
CONTINUOUS
 62
6
 10
316.875000
 20
4.750000
 40
2.500000
  1
Check
 41
0.786164
 50
0.000000
 51
0.000000
 72
   5
 73
   0
 11
323.125000
 21
4.750000
  0
LINE
  8
5
  6
CONTINUOUS
 62
6
 10
281.5000000000
 20
29.5000000000
 11
402.5000000000
 21
29.5000000000
  0
LINE
  8
5
  6
CONTINUOUS
 62
6
 10
281.5000000000
 20
17.0000000000
 11
347.5000000000
 21
17.0000000000
  0
LINE
  8
5
  6
CONTINUOUS
 62
6
 10
392.5000000000
 20
14.5000000000
 11
392.5000000000
 21
4.5000000000
  0
TEXT
  8
5
  6
CONTINUOUS
 62
6
 10
395.520000
 20
5.000000
 40
2.000000
  1
SIZE
 41
0.788845
 50
0.000000
 51
0.000000
 72
   5
 73
   0
 11
399.480000
 21
5.000000
  0
LINE
  8
5
  6
CONTINUOUS
 62
6
 10
392.5000000000
 20
7.5000000000
 11
402.5000000000
 21
7.5000000000
  0
TEXT
  8
5
  6
CONTINUOUS
 62
6
 10
394.005000
 20
8.500000
 40
5.000000
  1
Ａ３
 41
0.644240
 50
0.000000
 51
0.000000
 72
   5
 73
   0
 11
400.995000
 21
8.500000
  0
TEXT
  8
5
  6
CONTINUOUS
 62
6
 10
338.875000
 20
4.750000
 40
2.500000
  1
Scale
 41
0.786164
 50
0.000000
 51
0.000000
 72
   5
 73
   0
 11
345.125000
 21
4.750000
  0
TEXT
  8
5
  6
CONTINUOUS
 62
6
 10
338.250000
 20
9.750000
 40
5.000000
  1
1/1
 41
0.815217
 50
0.000000
 51
0.000000
 72
   5
 73
   0
 11
345.750000
 21
9.750000
  0
TEXT
  8
5
  6
CONTINUOUS
 62
6
 10
326.625000
 20
4.750000
 40
2.500000
  1
Confirm
 41
0.774336
 50
0.000000
 51
0.000000
 72
   5
 73
   0
 11
335.375000
 21
4.750000
  0
TEXT
  8
5
  6
CONTINUOUS
 62
6
 10
284.500000
 20
4.750000
 40
2.500000
  1
Date
 41
0.796813
 50
0.000000
 51
0.000000
 72
   5
 73
   0
 11
289.500000
 21
4.750000
  0
TEXT
  8
5
  6
CONTINUOUS
 62
6
 10
283.250000
 20
12.462500
 40
3.000000
  1
2008/
 41
0.786164
 50
0.000000
 51
0.000000
 72
   5
 73
   0
 11
290.750000
 21
12.462500
  0
TEXT
  8
5
  6
CONTINUOUS
 62
6
 10
283.250000
 20
9.037500
 40
3.000000
  1
04/10
 41
0.786164
 50
0.000000
 51
0.000000
 72
   5
 73
   0
 11
290.750000
 21
9.037500
  0
LINE
  8
5
  6
CONTINUOUS
 62
6
 10
292.5000000000
 20
17.0000000000
 11
292.5000000000
 21
4.5000000000
  0
LINE
  8
5
  6
CONTINUOUS
 62
6
 10
281.5000000000
 20
4.5000000000
 11
281.5000000000
 21
29.5000000000
  0
TEXT
  8
5
  6
CONTINUOUS
 62
6
 10
281.755293
 20
18.213190
 40
2.000000
  1
Material
 41
0.638921
 50
0.000000
 51
0.000000
 72
   5
 73
   0
 11
288.387293
 21
18.213190
  0
LINE
  8
5
  6
CONTINUOUS
 62
6
 10
288.5000000000
 20
21.0000000000
 11
288.5000000000
 21
17.0000000000
  0
TEXT
  8
5
  6
CONTINUOUS
 62
6
 10
303.605000
 20
18.000000
 40
2.000000
  1
Process
 41
0.751106
 50
0.000000
 51
0.000000
 72
   5
 73
   0
 11
310.395000
 21
18.000000
  0
LINE
  8
5
  6
CONTINUOUS
 62
6
 10
310.5000000000
 20
21.0000000000
 11
310.5000000000
 21
17.0000000000
  0
TEXT
  8
5
  6
CONTINUOUS
 62
6
 10
325.773000
 20
18.000000
 40
2.000000
  1
Amount
 41
0.838182
 50
0.000000
 51
0.000000
 72
   5
 73
   0
 11
332.227000
 21
18.000000
  0
LINE
  8
5
  6
CONTINUOUS
 62
6
 10
332.4999999999
 20
21.0000000000
 11
332.4999999999
 21
17.0000000000
  0
LINE
  8
5
  6
CONTINUOUS
 62
6
 10
347.5000000000
 20
21.0000000000
 11
281.5000000000
 21
21.0000000000
  0
POINT
  8
5
  6
CONTINUOUS
 62
6
 10
289.5000000000
 20
19.0000000000
  0
POINT
  8
5
  6
CONTINUOUS
 62
6
 10
311.5000000000
 20
19.0000000000
  0
POINT
  8
5
  6
CONTINUOUS
 62
6
 10
339.9999999999
 20
19.0000000000
  0
POINT
  8
5
  6
CONTINUOUS
 62
6
 10
298.0000000000
 20
12.2500000000
  0
POINT
  8
5
  6
CONTINUOUS
 62
6
 10
309.0000000000
 20
12.2500000000
  0
POINT
  8
5
  6
CONTINUOUS
 62
6
 10
320.0000000000
 20
12.2500000000
  0
POINT
  8
5
  6
CONTINUOUS
 62
6
 10
331.0000000000
 20
12.2500000000
  0
POINT
  8
5
  6
CONTINUOUS
 62
6
 10
0.0000000000
 20
0.0000000000
  0
TEXT
  8
5
  6
CONTINUOUS
 62
7
 10
301.099806
 20
20.780083
 40
4.000000
  1
MADOKA SYSTEM co,.ltd
 41
0.778201
 50
0.000000
 51
0.000000
 72
   5
 73
   0
 11
344.367806
 21
20.780083
  0
LINE
  8
5
  6
CONTINUOUS
 62
6
 10
284.5000000000
 20
284.0000000000
 11
284.5000000000
 21
279.5000000000
  0
LINE
  8
5
  6
CONTINUOUS
 62
6
 10
284.5000000000
 20
4.5000000000
 11
284.5000000000
 21
0.0000000000
  0
TEXT
  8
5
  6
CONTINUOUS
 62
6
 10
303.500000
 20
279.500000
 40
4.000000
  1
8
 41
1.000000
 50
0.000000
 51
0.000000
 72
   5
 73
   0
 11
305.500000
 21
279.500000
  0
TEXT
  8
5
  6
CONTINUOUS
 62
6
 10
303.500000
 20
0.500000
 40
4.000000
  1
8
 41
1.000000
 50
0.000000
 51
0.000000
 72
   5
 73
   0
 11
305.500000
 21
0.500000
  0
LINE
  8
5
  6
CONTINUOUS
 62
6
 10
324.5000000000
 20
284.0000000000
 11
324.5000000000
 21
279.5000000000
  0
LINE
  8
5
  6
CONTINUOUS
 62
6
 10
324.5000000000
 20
4.5000000000
 11
324.5000000000
 21
0.0000000000
  0
TEXT
  8
5
  6
CONTINUOUS
 62
6
 10
343.500000
 20
279.500000
 40
4.000000
  1
9
 41
1.000000
 50
0.000000
 51
0.000000
 72
   5
 73
   0
 11
345.500000
 21
279.500000
  0
TEXT
  8
5
  6
CONTINUOUS
 62
6
 10
343.500000
 20
0.500000
 40
4.000000
  1
9
 41
1.000000
 50
0.000000
 51
0.000000
 72
   5
 73
   0
 11
345.500000
 21
0.500000
  0
LINE
  8
5
  6
CONTINUOUS
 62
6
 10
364.5000000000
 20
284.0000000000
 11
364.5000000000
 21
279.5000000000
  0
LINE
  8
5
  6
CONTINUOUS
 62
6
 10
364.5000000000
 20
4.5000000000
 11
364.5000000000
 21
0.0000000000
  0
TEXT
  8
5
  6
CONTINUOUS
 62
6
 10
382.500000
 20
279.500000
 40
4.000000
  1
10
 41
0.854701
 50
0.000000
 51
0.000000
 72
   5
 73
   0
 11
386.500000
 21
279.500000
  0
TEXT
  8
5
  6
CONTINUOUS
 62
6
 10
382.500000
 20
0.500000
 40
4.000000
  1
10
 41
0.854701
 50
0.000000
 51
0.000000
 72
   5
 73
   0
 11
386.500000
 21
0.500000
  0
LINE
  8
5
  6
CONTINUOUS
 62
6
 10
0.0000000000
 20
79.5000000000
 11
4.5000000000
 21
79.5000000000
  0
LINE
  8
5
  6
CONTINUOUS
 62
6
 10
402.5000000000
 20
79.5000000000
 11
407.0000000000
 21
79.5000000000
  0
LINE
  8
5
  6
CONTINUOUS
 62
6
 10
0.0000000000
 20
39.5000000000
 11
4.5000000000
 21
39.5000000000
  0
LINE
  8
5
  6
CONTINUOUS
 62
6
 10
402.5000000000
 20
39.5000000000
 11
407.0000000000
 21
39.5000000000
  0
TEXT
  8
5
  6
CONTINUOUS
 62
6
 10
1.954773
 20
57.454143
 40
4.000000
  1
F
 41
1.102000
 50
0.000000
 51
0.000000
 72
   5
 73
   0
 11
4.158773
 21
57.454143
  0
TEXT
  8
5
  6
CONTINUOUS
 62
6
 10
402.786513
 20
57.492354
 40
4.000000
  1
F
 41
1.102000
 50
0.000000
 51
0.000000
 72
   5
 73
   0
 11
404.990513
 21
57.492354
  0
TEXT
  8
5
  6
CONTINUOUS
 62
6
 10
1.438773
 20
17.454143
 40
4.000000
  1
G
 41
1.360000
 50
0.000000
 51
0.000000
 72
   5
 73
   0
 11
4.158773
 21
17.454143
  0
TEXT
  8
5
  6
CONTINUOUS
 62
6
 10
402.786513
 20
17.492354
 40
4.000000
  1
G
 41
1.360000
 50
0.000000
 51
0.000000
 72
   5
 73
   0
 11
405.506513
 21
17.492354
  0
LINE
  8
5
  6
CONTINUOUS
 62
6
 10
4.5000000000
 20
279.5000000000
 11
402.5000000000
 21
279.5000000000
  0
LINE
  8
5
  6
CONTINUOUS
 62
6
 10
402.5000000000
 20
279.5000000000
 11
402.5000000000
 21
4.5000000000
  0
POINT
  8
5
  6
CONTINUOUS
 62
6
 10
353.5000000000
 20
20.5000000000
  0
POINT
  8
5
  6
CONTINUOUS
 62
6
 10
353.5000000000
 20
8.0000000000
  0
LINE
  8
5
  6
CONTINUOUS
 62
6
 10
347.5000000000
 20
26.5000000000
 11
402.5000000000
 21
26.5000000000
  0
LINE
  8
5
  6
CONTINUOUS
 62
6
 10
347.5000000000
 20
11.5000000000
 11
392.5000000000
 21
11.5000000000
  0
TEXT
  8
5
  6
CONTINUOUS
 62
7
 10
362.928500
 20
26.250000
 40
3.500000
  1
Document Name
 41
0.807728
 50
0.000000
 51
0.000000
 72
   5
 73
   0
 11
387.071500
 21
26.250000
  0
TEXT
  8
5
  6
CONTINUOUS
 62
7
 10
359.678500
 20
11.250000
 40
3.500000
  1
Document No.
 41
0.749428
 50
0.000000
 51
0.000000
 72
   5
 73
   0
 11
380.321500
 21
11.250000
  0
ENDBLK
  8
0
  0
BLOCK
  8
1
  2
*D0
 70
     1
 10
0.0000000000
 20
0.0000000000
  3
*D0
  0
LINE
  8
1
  6
BYBLOCK
 62
5
 10
127.9661466639
 20
94.3244525436
 11
127.9661466639
 21
99.7193009011
  0
LINE
  8
1
  6
BYBLOCK
 62
5
 10
111.4661466639
 20
94.3244525436
 11
111.4661466639
 21
99.7193009011
  0
LINE
  8
1
  6
BYBLOCK
 62
5
 10
111.4661466639
 20
98.7193009011
 11
127.9661466639
 21
98.7193009011
  0
SOLID
  8
1
  6
CONTINUOUS
 62
5
 10
126.0342950114
 20
98.2016628109
 11
126.0342950114
 21
99.2369389913
 12
127.9661466639
 22
98.7193009011
 13
127.9661466639
 23
98.7193009011
  0
SOLID
  8
1
  6
CONTINUOUS
 62
5
 10
113.3979983165
 20
99.2369389913
 11
113.3979983165
 21
98.2016628109
 12
111.4661466639
 22
98.7193009011
 13
111.4661466639
 23
98.7193009011
  0
TEXT
  8
1
  6
CONTINUOUS
 62
7
 10
116.216147
 20
99.719301
 40
3.500000
  1
16.5
 41
0.796813
 50
0.000000
 51
0.000000
 72
   5
 73
   0
 11
123.216147
 21
99.719301
  0
POINT
  8
DEFPOINTS
  6
BYBLOCK
 62
5
 10
127.9661466639
 20
93.8244525436
  0
POINT
  8
DEFPOINTS
  6
BYBLOCK
 62
5
 10
111.4661466639
 20
93.8244525436
  0
POINT
  8
DEFPOINTS
  6
BYBLOCK
 62
5
 10
111.4661466639
 20
98.7193009011
  0
ENDBLK
  8
0
  0
BLOCK
  8
1
  2
*D1
 70
     1
 10
0.0000000000
 20
0.0000000000
  3
*D1
  0
LINE
  8
1
  6
BYBLOCK
 62
5
 10
27.2645106558
 20
27.5484212565
 11
19.9779016700
 21
27.5484212565
  0
LINE
  8
1
  6
BYBLOCK
 62
5
 10
28.2645106558
 20
36.5484212565
 11
19.9779016700
 21
36.5484212565
  0
LINE
  8
1
  6
BYBLOCK
 62
5
 10
20.9779016700
 20
36.5484212565
 11
20.9779016700
 21
27.5484212565
  0
SOLID
  8
1
  6
CONTINUOUS
 62
5
 10
20.4602635798
 20
29.4802729091
 11
21.4955397602
 21
29.4802729091
 12
20.9779016700
 22
27.5484212565
 13
20.9779016700
 23
27.5484212565
  0
SOLID
  8
1
  6
CONTINUOUS
 62
5
 10
21.4955397602
 20
34.6165696039
 11
20.4602635798
 21
34.6165696039
 12
20.9779016700
 22
36.5484212565
 13
20.9779016700
 23
36.5484212565
  0
TEXT
  8
1
  6
CONTINUOUS
 62
7
 10
19.977902
 20
31.173421
 40
3.500000
  1
9
 41
1.000000
 50
90.000000
 51
0.000000
 72
   5
 73
   0
 11
19.977902
 21
32.923421
  0
POINT
  8
DEFPOINTS
  6
BYBLOCK
 62
5
 10
27.7645106558
 20
27.5484212565
  0
POINT
  8
DEFPOINTS
  6
BYBLOCK
 62
5
 10
28.7645106558
 20
36.5484212565
  0
POINT
  8
DEFPOINTS
  6
BYBLOCK
 62
5
 10
20.9779016700
 20
36.5484212565
  0
ENDBLK
  8
0
  0
BLOCK
  8
1
  2
*D2
 70
     1
 10
0.0000000000
 20
0.0000000000
  3
*D2
  0
LINE
  8
1
  6
BYBLOCK
 62
5
 10
29.2645106558
 20
37.0484212565
 11
19.7383253733
 21
37.0484212565
  0
LINE
  8
1
  6
BYBLOCK
 62
5
 10
35.7645106558
 20
51.5484212565
 11
19.7383253733
 21
51.5484212565
  0
LINE
  8
1
  6
BYBLOCK
 62
5
 10
20.7383253733
 20
51.5484212565
 11
20.7383253733
 21
37.0484212565
  0
SOLID
  8
1
  6
CONTINUOUS
 62
5
 10
20.2206872831
 20
38.9802729091
 11
21.2559634635
 21
38.9802729091
 12
20.7383253733
 22
37.0484212565
 13
20.7383253733
 23
37.0484212565
  0
SOLID
  8
1
  6
CONTINUOUS
 62
5
 10
21.2559634635
 20
49.6165696039
 11
20.2206872831
 21
49.6165696039
 12
20.7383253733
 22
51.5484212565
 13
20.7383253733
 23
51.5484212565
  0
TEXT
  8
1
  6
CONTINUOUS
 62
7
 10
19.738325
 20
40.798421
 40
3.500000
  1
14.5
 41
0.796813
 50
90.000000
 51
0.000000
 72
   5
 73
   0
 11
19.738325
 21
47.798421
  0
POINT
  8
DEFPOINTS
  6
BYBLOCK
 62
5
 10
29.7645106558
 20
37.0484212565
  0
POINT
  8
DEFPOINTS
  6
BYBLOCK
 62
5
 10
36.2645106558
 20
51.5484212565
  0
POINT
  8
DEFPOINTS
  6
BYBLOCK
 62
5
 10
20.7383253733
 20
51.5484212565
  0
ENDBLK
  8
0
  0
BLOCK
  8
1
  2
*D3
 70
     1
 10
0.0000000000
 20
0.0000000000
  3
*D3
  0
LINE
  8
1
  6
BYBLOCK
 62
5
 10
27.2645106558
 20
27.5484212565
 11
12.2316014101
 21
27.5484212565
  0
LINE
  8
1
  6
BYBLOCK
 62
5
 10
35.7645106558
 20
51.5484212565
 11
12.2316014101
 21
51.5484212565
  0
LINE
  8
1
  6
BYBLOCK
 62
5
 10
13.2316014101
 20
51.5484212565
 11
13.2316014101
 21
27.5484212565
  0
SOLID
  8
1
  6
CONTINUOUS
 62
5
 10
12.7139633199
 20
29.4802729091
 11
13.7492395003
 21
29.4802729091
 12
13.2316014101
 22
27.5484212565
 13
13.2316014101
 23
27.5484212565
  0
SOLID
  8
1
  6
CONTINUOUS
 62
5
 10
13.7492395003
 20
49.6165696039
 11
12.7139633199
 21
49.6165696039
 12
13.2316014101
 22
51.5484212565
 13
13.2316014101
 23
51.5484212565
  0
TEXT
  8
1
  6
CONTINUOUS
 62
7
 10
12.231601
 20
37.798421
 40
3.500000
  1
24
 41
0.854701
 50
90.000000
 51
0.000000
 72
   5
 73
   0
 11
12.231601
 21
41.298421
  0
POINT
  8
DEFPOINTS
  6
BYBLOCK
 62
5
 10
27.7645106558
 20
27.5484212565
  0
POINT
  8
DEFPOINTS
  6
BYBLOCK
 62
5
 10
36.2645106558
 20
51.5484212565
  0
POINT
  8
DEFPOINTS
  6
BYBLOCK
 62
5
 10
13.2316014101
 20
51.5484212565
  0
ENDBLK
  8
0
  0
BLOCK
  8
1
  2
*D4
 70
     1
 10
0.0000000000
 20
0.0000000000
  3
*D4
  0
LINE
  8
1
  6
BYBLOCK
 62
5
 10
27.2645106558
 20
220.1025214537
 11
16.2916228022
 21
220.1025214537
  0
LINE
  8
1
  6
BYBLOCK
 62
5
 10
27.2645106558
 20
64.6025214537
 11
16.2916228022
 21
64.6025214537
  0
LINE
  8
1
  6
BYBLOCK
 62
5
 10
17.2916228022
 20
64.6025214537
 11
17.2916228022
 21
220.1025214537
  0
SOLID
  8
1
  6
CONTINUOUS
 62
5
 10
17.8092608924
 20
218.1706698011
 11
16.7739847120
 21
218.1706698011
 12
17.2916228022
 22
220.1025214537
 13
17.2916228022
 23
220.1025214537
  0
SOLID
  8
1
  6
CONTINUOUS
 62
5
 10
16.7739847120
 20
66.5343731063
 11
17.8092608924
 21
66.5343731063
 12
17.2916228022
 22
64.6025214537
 13
17.2916228022
 23
64.6025214537
  0
TEXT
  8
1
  6
CONTINUOUS
 62
7
 10
16.291623
 20
136.102521
 40
5.000000
  1
155.5
 41
0.786164
 50
90.000000
 51
0.000000
 72
   5
 73
   0
 11
16.291623
 21
148.602521
  0
POINT
  8
DEFPOINTS
  6
BYBLOCK
 62
5
 10
27.7645106558
 20
220.1025214537
  0
POINT
  8
DEFPOINTS
  6
BYBLOCK
 62
5
 10
27.7645106558
 20
64.6025214537
  0
POINT
  8
DEFPOINTS
  6
BYBLOCK
 62
5
 10
17.2916228022
 20
64.6025214537
  0
ENDBLK
  8
0
  0
BLOCK
  8
1
  2
*D5
 70
     1
 10
0.0000000000
 20
0.0000000000
  3
*D5
  0
LINE
  8
1
  6
BYBLOCK
 62
5
 10
27.7645106558
 20
220.6025214537
 11
27.7645106558
 21
225.0648547044
  0
LINE
  8
1
  6
BYBLOCK
 62
5
 10
96.7645106558
 20
220.6025214537
 11
96.7645106558
 21
225.0648547044
  0
LINE
  8
1
  6
BYBLOCK
 62
5
 10
96.7645106558
 20
224.0648547044
 11
27.7645106558
 21
224.0648547044
  0
SOLID
  8
1
  6
CONTINUOUS
 62
5
 10
29.6963623084
 20
224.5824927946
 11
29.6963623084
 21
223.5472166142
 12
27.7645106558
 22
224.0648547044
 13
27.7645106558
 23
224.0648547044
  0
SOLID
  8
1
  6
CONTINUOUS
 62
5
 10
94.8326590033
 20
223.5472166142
 11
94.8326590033
 21
224.5824927946
 12
96.7645106558
 22
224.0648547044
 13
96.7645106558
 23
224.0648547044
  0
TEXT
  8
1
  6
CONTINUOUS
 62
7
 10
59.764511
 20
225.064855
 40
5.000000
  1
69
 41
0.854701
 50
0.000000
 51
0.000000
 72
   5
 73
   0
 11
64.764511
 21
225.064855
  0
POINT
  8
DEFPOINTS
  6
BYBLOCK
 62
5
 10
27.7645106558
 20
220.1025214537
  0
POINT
  8
DEFPOINTS
  6
BYBLOCK
 62
5
 10
96.7645106558
 20
220.1025214537
  0
POINT
  8
DEFPOINTS
  6
BYBLOCK
 62
5
 10
96.7645106558
 20
224.0648547044
  0
ENDBLK
  8
0
  0
BLOCK
  8
5
  2
S1
 70
     0
 10
304.5178631899
 20
252.5000000000
  3
S1
  0
LINE
  8
5
  6
CONTINUOUS
 62
6
 10
217.5178631899
 20
272.5000000000
 11
217.5178631899
 21
277.5000000000
  0
LINE
  8
5
  6
CONTINUOUS
 62
6
 10
217.5178631899
 20
277.5000000000
 11
222.5178631899
 21
277.5000000000
  0
LINE
  8
5
  6
CONTINUOUS
 62
6
 10
222.5178631899
 20
277.5000000000
 11
242.5178631899
 21
277.5000000000
  0
LINE
  8
5
  6
CONTINUOUS
 62
6
 10
242.5178631899
 20
277.5000000000
 11
282.5178631899
 21
277.5000000000
  0
LINE
  8
5
  6
CONTINUOUS
 62
6
 10
282.5178631899
 20
277.5000000000
 11
297.5178631899
 21
277.5000000000
  0
LINE
  8
5
  6
CONTINUOUS
 62
6
 10
297.5178631899
 20
277.5000000000
 11
302.5178631899
 21
277.5000000000
  0
LINE
  8
5
  6
CONTINUOUS
 62
6
 10
302.5178631899
 20
277.5000000000
 11
302.5178631899
 21
272.5000000000
  0
LINE
  8
5
  6
CONTINUOUS
 62
6
 10
302.5178631899
 20
272.5000000000
 11
297.5178631899
 21
272.5000000000
  0
LINE
  8
5
  6
CONTINUOUS
 62
6
 10
297.5178631899
 20
272.5000000000
 11
282.5178631899
 21
272.5000000000
  0
LINE
  8
5
  6
CONTINUOUS
 62
6
 10
282.5178631899
 20
272.5000000000
 11
242.5178631899
 21
272.5000000000
  0
LINE
  8
5
  6
CONTINUOUS
 62
6
 10
242.5178631899
 20
272.5000000000
 11
222.5178631899
 21
272.5000000000
  0
LINE
  8
5
  6
CONTINUOUS
 62
6
 10
222.5178631899
 20
272.5000000000
 11
217.5178631899
 21
272.5000000000
  0
LINE
  8
5
  6
CONTINUOUS
 62
6
 10
222.5178631899
 20
277.5000000000
 11
222.5178631899
 21
272.5000000000
  0
LINE
  8
5
  6
CONTINUOUS
 62
6
 10
242.5178631899
 20
277.5000000000
 11
242.5178631899
 21
272.5000000000
  0
LINE
  8
5
  6
CONTINUOUS
 62
6
 10
282.5178631899
 20
277.5000000000
 11
282.5178631899
 21
272.5000000000
  0
LINE
  8
5
  6
CONTINUOUS
 62
6
 10
297.5178631899
 20
277.5000000000
 11
297.5178631899
 21
272.5000000000
  0
TEXT
  8
5
  6
CONTINUOUS
 62
7
 10
217.717863
 20
273.850000
 40
2.300000
  1
項番
 41
0.921659
 50
0.000000
 51
0.000000
 72
   5
 73
   0
 11
222.317863
 21
273.850000
  0
TEXT
  8
5
  6
CONTINUOUS
 62
7
 10
227.525863
 20
273.500000
 40
3.000000
  1
品　　名
 41
0.737916
 50
0.000000
 51
0.000000
 72
   5
 73
   0
 11
237.509863
 21
273.500000
  0
TEXT
  8
5
  6
CONTINUOUS
 62
7
 10
247.364863
 20
273.500000
 40
3.000000
  1
定  格 / 型  番 / 材　質
 41
0.686277
 50
0.000000
 51
0.000000
 72
   5
 73
   0
 11
277.670863
 21
273.500000
  0
TEXT
  8
5
  6
CONTINUOUS
 62
7
 10
284.820363
 20
273.500000
 40
3.000000
  1
メーカー
 41
0.768293
 50
0.000000
 51
0.000000
 72
   5
 73
   0
 11
295.215363
 21
273.500000
  0
TEXT
  8
5
  6
CONTINUOUS
 62
7
 10
297.717863
 20
273.850000
 40
2.300000
  1
数量
 41
0.921659
 50
0.000000
 51
0.000000
 72
   5
 73
   0
 11
302.317863
 21
273.850000
  0
LINE
  8
5
  6
CONTINUOUS
 62
6
 10
217.5178631899
 20
267.5000000000
 11
217.5178631899
 21
272.5000000000
  0
LINE
  8
5
  6
CONTINUOUS
 62
6
 10
217.5178631899
 20
272.5000000000
 11
222.5178631899
 21
272.5000000000
  0
LINE
  8
5
  6
CONTINUOUS
 62
6
 10
222.5178631899
 20
272.5000000000
 11
242.5178631899
 21
272.5000000000
  0
LINE
  8
5
  6
CONTINUOUS
 62
6
 10
242.5178631899
 20
272.5000000000
 11
282.5178631899
 21
272.5000000000
  0
LINE
  8
5
  6
CONTINUOUS
 62
6
 10
282.5178631899
 20
272.5000000000
 11
297.5178631899
 21
272.5000000000
  0
LINE
  8
5
  6
CONTINUOUS
 62
6
 10
297.5178631899
 20
272.5000000000
 11
302.5178631899
 21
272.5000000000
  0
LINE
  8
5
  6
CONTINUOUS
 62
6
 10
302.5178631899
 20
272.5000000000
 11
302.5178631899
 21
267.5000000000
  0
LINE
  8
5
  6
CONTINUOUS
 62
6
 10
302.5178631899
 20
267.5000000000
 11
297.5178631899
 21
267.5000000000
  0
LINE
  8
5
  6
CONTINUOUS
 62
6
 10
297.5178631899
 20
267.5000000000
 11
282.5178631899
 21
267.5000000000
  0
LINE
  8
5
  6
CONTINUOUS
 62
6
 10
242.5178631899
 20
267.5000000000
 11
222.5178631899
 21
267.5000000000
  0
LINE
  8
5
  6
CONTINUOUS
 62
6
 10
222.5178631899
 20
267.5000000000
 11
217.5178631899
 21
267.5000000000
  0
LINE
  8
5
  6
CONTINUOUS
 62
6
 10
222.5178631899
 20
272.5000000000
 11
222.5178631899
 21
267.5000000000
  0
LINE
  8
5
  6
CONTINUOUS
 62
6
 10
242.5178631899
 20
272.5000000000
 11
242.5178631899
 21
267.5000000000
  0
LINE
  8
5
  6
CONTINUOUS
 62
6
 10
282.5178631899
 20
272.5000000000
 11
282.5178631899
 21
267.5000000000
  0
LINE
  8
5
  6
CONTINUOUS
 62
6
 10
297.5178631899
 20
272.5000000000
 11
297.5178631899
 21
267.5000000000
  0
TEXT
  8
5
  6
CONTINUOUS
 62
7
 10
219.142863
 20
268.250000
 40
3.500000
  1
1
 41
1.000000
 50
0.000000
 51
0.000000
 72
   5
 73
   0
 11
220.892863
 21
268.250000
  0
TEXT
  8
5
  6
CONTINUOUS
 62
7
 10
223.517863
 20
268.500000
 40
3.000000
  1
ベース
 41
0.841018
 50
0.000000
 51
0.000000
 72
   5
 73
   0
 11
231.944863
 21
268.500000
  0
TEXT
  8
5
  6
CONTINUOUS
 62
7
 10
299.142863
 20
268.250000
 40
3.500000
  1
1
 41
1.000000
 50
0.000000
 51
0.000000
 72
   5
 73
   0
 11
300.892863
 21
268.250000
  0
LINE
  8
5
  6
CONTINUOUS
 62
6
 10
302.5178631899
 20
262.5000000000
 11
297.5178631899
 21
262.5000000000
  0
LINE
  8
5
  6
CONTINUOUS
 62
6
 10
302.5178631899
 20
257.5000000000
 11
297.5178631899
 21
257.5000000000
  0
LINE
  8
5
  6
CONTINUOUS
 62
6
 10
302.5178631899
 20
252.5000000000
 11
297.5178631899
 21
252.5000000000
  0
LINE
  8
5
  6
CONTINUOUS
 62
6
 10
302.5178631899
 20
247.5000000000
 11
297.5178631899
 21
247.5000000000
  0
LINE
  8
5
  6
CONTINUOUS
 62
6
 10
302.5178631899
 20
242.5000000000
 11
297.5178631899
 21
242.5000000000
  0
LINE
  8
5
  6
CONTINUOUS
 62
6
 10
389.5178631899
 20
267.5000000000
 11
384.5178631899
 21
267.5000000000
  0
LINE
  8
5
  6
CONTINUOUS
 62
6
 10
389.5178631899
 20
262.5000000000
 11
384.5178631899
 21
262.5000000000
  0
LINE
  8
5
  6
CONTINUOUS
 62
6
 10
389.5178631899
 20
257.5000000000
 11
384.5178631899
 21
257.5000000000
  0
LINE
  8
5
  6
CONTINUOUS
 62
6
 10
297.5178631899
 20
262.5000000000
 11
282.5178631899
 21
262.5000000000
  0
LINE
  8
5
  6
CONTINUOUS
 62
6
 10
297.5178631899
 20
257.5000000000
 11
282.5178631899
 21
257.5000000000
  0
LINE
  8
5
  6
CONTINUOUS
 62
6
 10
297.5178631899
 20
252.5000000000
 11
282.5178631899
 21
252.5000000000
  0
LINE
  8
5
  6
CONTINUOUS
 62
6
 10
297.5178631899
 20
247.5000000000
 11
282.5178631899
 21
247.5000000000
  0
LINE
  8
5
  6
CONTINUOUS
 62
6
 10
297.5178631899
 20
242.5000000000
 11
282.5178631899
 21
242.5000000000
  0
LINE
  8
5
  6
CONTINUOUS
 62
6
 10
384.5178631899
 20
267.5000000000
 11
369.5178631899
 21
267.5000000000
  0
LINE
  8
5
  6
CONTINUOUS
 62
6
 10
384.5178631899
 20
262.5000000000
 11
369.5178631899
 21
262.5000000000
  0
LINE
  8
5
  6
CONTINUOUS
 62
6
 10
384.5178631899
 20
257.5000000000
 11
369.5178631899
 21
257.5000000000
  0
LINE
  8
5
  6
CONTINUOUS
 62
6
 10
282.5178631899
 20
262.5000000000
 11
242.5178631899
 21
262.5000000000
  0
LINE
  8
5
  6
CONTINUOUS
 62
6
 10
282.5178631899
 20
257.5000000000
 11
242.5178631899
 21
257.5000000000
  0
LINE
  8
5
  6
CONTINUOUS
 62
6
 10
282.5178631899
 20
252.5000000000
 11
242.5178631899
 21
252.5000000000
  0
LINE
  8
5
  6
CONTINUOUS
 62
6
 10
282.5178631899
 20
247.5000000000
 11
242.5178631899
 21
247.5000000000
  0
LINE
  8
5
  6
CONTINUOUS
 62
6
 10
282.5178631899
 20
242.5000000000
 11
242.5178631899
 21
242.5000000000
  0
LINE
  8
5
  6
CONTINUOUS
 62
6
 10
369.5178631899
 20
267.5000000000
 11
329.5178631899
 21
267.5000000000
  0
LINE
  8
5
  6
CONTINUOUS
 62
6
 10
369.5178631899
 20
262.5000000000
 11
329.5178631899
 21
262.5000000000
  0
LINE
  8
5
  6
CONTINUOUS
 62
6
 10
242.5178631899
 20
262.5000000000
 11
222.5178631899
 21
262.5000000000
  0
LINE
  8
5
  6
CONTINUOUS
 62
6
 10
242.5178631899
 20
257.5000000000
 11
222.5178631899
 21
257.5000000000
  0
LINE
  8
5
  6
CONTINUOUS
 62
6
 10
242.5178631899
 20
252.5000000000
 11
222.5178631899
 21
252.5000000000
  0
LINE
  8
5
  6
CONTINUOUS
 62
6
 10
242.5178631899
 20
247.5000000000
 11
222.5178631899
 21
247.5000000000
  0
LINE
  8
5
  6
CONTINUOUS
 62
6
 10
242.5178631899
 20
242.5000000000
 11
222.5178631899
 21
242.5000000000
  0
LINE
  8
5
  6
CONTINUOUS
 62
6
 10
329.5178631899
 20
267.5000000000
 11
309.5178631899
 21
267.5000000000
  0
LINE
  8
5
  6
CONTINUOUS
 62
6
 10
329.5178631899
 20
262.5000000000
 11
309.5178631899
 21
262.5000000000
  0
LINE
  8
5
  6
CONTINUOUS
 62
6
 10
329.5178631899
 20
257.5000000000
 11
309.5178631899
 21
257.5000000000
  0
LINE
  8
5
  6
CONTINUOUS
 62
6
 10
222.5178631899
 20
262.5000000000
 11
217.5178631899
 21
262.5000000000
  0
LINE
  8
5
  6
CONTINUOUS
 62
6
 10
222.5178631899
 20
257.5000000000
 11
217.5178631899
 21
257.5000000000
  0
LINE
  8
5
  6
CONTINUOUS
 62
6
 10
222.5178631899
 20
252.5000000000
 11
217.5178631899
 21
252.5000000000
  0
LINE
  8
5
  6
CONTINUOUS
 62
6
 10
222.5178631899
 20
247.5000000000
 11
217.5178631899
 21
247.5000000000
  0
LINE
  8
5
  6
CONTINUOUS
 62
6
 10
222.5178631899
 20
242.5000000000
 11
217.5178631899
 21
242.5000000000
  0
LINE
  8
5
  6
CONTINUOUS
 62
6
 10
309.5178631899
 20
267.5000000000
 11
304.5178631899
 21
267.5000000000
  0
LINE
  8
5
  6
CONTINUOUS
 62
6
 10
309.5178631899
 20
262.5000000000
 11
304.5178631899
 21
262.5000000000
  0
LINE
  8
5
  6
CONTINUOUS
 62
6
 10
309.5178631899
 20
257.5000000000
 11
304.5178631899
 21
257.5000000000
  0
TEXT
  8
5
  6
CONTINUOUS
 62
7
 10
219.142863
 20
263.250000
 40
3.500000
  1
2
 41
1.000000
 50
0.000000
 51
0.000000
 72
   5
 73
   0
 11
220.892863
 21
263.250000
  0
TEXT
  8
5
  6
CONTINUOUS
 62
7
 10
219.142863
 20
258.250000
 40
3.500000
  1
3
 41
1.000000
 50
0.000000
 51
0.000000
 72
   5
 73
   0
 11
220.892863
 21
258.250000
  0
TEXT
  8
5
  6
CONTINUOUS
 62
7
 10
219.142863
 20
253.250000
 40
3.500000
  1
4
 41
1.000000
 50
0.000000
 51
0.000000
 72
   5
 73
   0
 11
220.892863
 21
253.250000
  0
TEXT
  8
5
  6
CONTINUOUS
 62
7
 10
219.142863
 20
248.250000
 40
3.500000
  1
5
 41
1.000000
 50
0.000000
 51
0.000000
 72
   5
 73
   0
 11
220.892863
 21
248.250000
  0
TEXT
  8
5
  6
CONTINUOUS
 62
7
 10
219.142863
 20
243.250000
 40
3.500000
  1
6
 41
1.000000
 50
0.000000
 51
0.000000
 72
   5
 73
   0
 11
220.892863
 21
243.250000
  0
TEXT
  8
5
  6
CONTINUOUS
 62
7
 10
306.142863
 20
268.250000
 40
3.500000
  1
7
 41
1.000000
 50
0.000000
 51
0.000000
 72
   5
 73
   0
 11
307.892863
 21
268.250000
  0
TEXT
  8
5
  6
CONTINUOUS
 62
7
 10
306.142863
 20
263.250000
 40
3.500000
  1
8
 41
1.000000
 50
0.000000
 51
0.000000
 72
   5
 73
   0
 11
307.892863
 21
263.250000
  0
TEXT
  8
5
  6
CONTINUOUS
 62
7
 10
305.267863
 20
258.250000
 40
3.500000
  1
9A
 41
0.854701
 50
0.000000
 51
0.000000
 72
   5
 73
   0
 11
308.767863
 21
258.250000
  0
TEXT
  8
5
  6
CONTINUOUS
 62
7
 10
223.517863
 20
263.500000
 40
3.000000
  1
カバー
 41
0.833832
 50
0.000000
 51
0.000000
 72
   5
 73
   0
 11
231.872863
 21
263.500000
  0
TEXT
  8
5
  6
CONTINUOUS
 62
7
 10
223.517863
 20
258.500000
 40
3.000000
  1
ロック
 41
0.719162
 50
0.000000
 51
0.000000
 72
   5
 73
   0
 11
230.723863
 21
258.500000
  0
TEXT
  8
5
  6
CONTINUOUS
 62
7
 10
223.517863
 20
253.500000
 40
3.000000
  1
添付品ﾋﾞｽ
 41
0.822804
 50
0.000000
 51
0.000000
 72
   5
 73
   0
 11
236.723863
 21
253.500000
  0
TEXT
  8
5
  6
CONTINUOUS
 62
7
 10
223.517863
 20
243.500000
 40
3.000000
  1
添付品ﾋﾞｽ
 41
0.822804
 50
0.000000
 51
0.000000
 72
   5
 73
   0
 11
236.723863
 21
243.500000
  0
TEXT
  8
5
  6
CONTINUOUS
 62
7
 10
310.517863
 20
268.500000
 40
3.000000
  1
添付品ﾋﾞｽ
 41
0.822804
 50
0.000000
 51
0.000000
 72
   5
 73
   0
 11
323.723863
 21
268.500000
  0
TEXT
  8
5
  6
CONTINUOUS
 62
7
 10
310.517863
 20
258.500000
 40
3.000000
  1
ACｱｳﾄﾚｯﾄ
 41
0.770713
 50
0.000000
 51
0.000000
 72
   5
 73
   0
 11
322.517863
 21
258.500000
  0
TEXT
  8
5
  6
CONTINUOUS
 62
7
 10
310.517863
 20
243.250000
 40
3.500000
  1
↑固定ﾋﾞｽ
 41
0.822804
 50
0.000000
 51
0.000000
 72
   5
 73
   0
 11
325.924863
 21
243.250000
  0
TEXT
  8
5
  6
CONTINUOUS
 62
7
 10
243.517863
 20
258.500000
 40
3.000000
  1
M4×20 脱落防止ビス
 41
0.819085
 50
0.000000
 51
0.000000
 72
   5
 73
   0
 11
271.456863
 21
258.500000
  0
TEXT
  8
5
  6
CONTINUOUS
 62
7
 10
243.517863
 20
253.500000
 40
3.000000
  1
M3×8小ワｾﾑｽ(ﾍﾞｰｽ固定用)
 41
0.831095
 50
0.000000
 51
0.000000
 72
   5
 73
   0
 11
280.642863
 21
253.500000
  0
TEXT
  8
5
  6
CONTINUOUS
 62
7
 10
243.517863
 20
243.500000
 40
3.000000
  1
M5×10ｱﾌﾞｾｯﾄ
 41
0.813247
 50
0.000000
 51
0.000000
 72
   5
 73
   0
 11
262.303863
 21
243.500000
  0
TEXT
  8
5
  6
CONTINUOUS
 62
7
 10
330.517863
 20
268.500000
 40
3.000000
  1
M5 内歯菊座金
 41
0.851365
 50
0.000000
 51
0.000000
 72
   5
 73
   0
 11
350.158863
 21
268.500000
  0
TEXT
  8
5
  6
CONTINUOUS
 62
7
 10
330.517863
 20
258.250000
 40
3.500000
  1
741 02  (BS-Type)
 41
0.757576
 50
0.000000
 51
0.000000
 72
   5
 73
   0
 11
360.267863
 21
258.250000
  0
TEXT
  8
5
  6
CONTINUOUS
 62
7
 10
370.517863
 20
258.500000
 40
3.000000
  1
Legrand
 41
0.734513
 50
0.000000
 51
0.000000
 72
   5
 73
   0
 11
380.477863
 21
258.500000
  0
TEXT
  8
5
  6
CONTINUOUS
 62
7
 10
299.142863
 20
263.250000
 40
3.500000
  1
1
 41
1.000000
 50
0.000000
 51
0.000000
 72
   5
 73
   0
 11
300.892863
 21
263.250000
  0
TEXT
  8
5
  6
CONTINUOUS
 62
7
 10
299.142863
 20
258.250000
 40
3.500000
  1
1
 41
1.000000
 50
0.000000
 51
0.000000
 72
   5
 73
   0
 11
300.892863
 21
258.250000
  0
TEXT
  8
5
  6
CONTINUOUS
 62
7
 10
299.142863
 20
253.250000
 40
3.500000
  1
4
 41
1.000000
 50
0.000000
 51
0.000000
 72
   5
 73
   0
 11
300.892863
 21
253.250000
  0
TEXT
  8
5
  6
CONTINUOUS
 62
7
 10
299.142863
 20
243.250000
 40
3.500000
  1
1
 41
1.000000
 50
0.000000
 51
0.000000
 72
   5
 73
   0
 11
300.892863
 21
243.250000
  0
TEXT
  8
5
  6
CONTINUOUS
 62
7
 10
386.142863
 20
268.250000
 40
3.500000
  1
1
 41
1.000000
 50
0.000000
 51
0.000000
 72
   5
 73
   0
 11
387.892863
 21
268.250000
  0
LINE
  8
5
  6
CONTINUOUS
 62
6
 10
217.5178631899
 20
262.5000000000
 11
217.5178631899
 21
267.5000000000
  0
LINE
  8
5
  6
CONTINUOUS
 62
6
 10
217.5178631899
 20
257.5000000000
 11
217.5178631899
 21
262.5000000000
  0
LINE
  8
5
  6
CONTINUOUS
 62
6
 10
217.5178631899
 20
252.5000000000
 11
217.5178631899
 21
257.5000000000
  0
LINE
  8
5
  6
CONTINUOUS
 62
6
 10
217.5178631899
 20
247.5000000000
 11
217.5178631899
 21
252.5000000000
  0
LINE
  8
5
  6
CONTINUOUS
 62
6
 10
217.5178631899
 20
242.5000000000
 11
217.5178631899
 21
247.5000000000
  0
LINE
  8
5
  6
CONTINUOUS
 62
6
 10
304.5178631899
 20
267.5000000000
 11
304.5178631899
 21
272.5000000000
  0
LINE
  8
5
  6
CONTINUOUS
 62
6
 10
304.5178631899
 20
262.5000000000
 11
304.5178631899
 21
267.5000000000
  0
LINE
  8
5
  6
CONTINUOUS
 62
6
 10
304.5178631899
 20
257.5000000000
 11
304.5178631899
 21
262.5000000000
  0
LINE
  8
5
  6
CONTINUOUS
 62
6
 10
222.5178631899
 20
267.5000000000
 11
222.5178631899
 21
262.5000000000
  0
LINE
  8
5
  6
CONTINUOUS
 62
6
 10
222.5178631899
 20
262.5000000000
 11
222.5178631899
 21
257.5000000000
  0
LINE
  8
5
  6
CONTINUOUS
 62
6
 10
222.5178631899
 20
257.5000000000
 11
222.5178631899
 21
252.5000000000
  0
LINE
  8
5
  6
CONTINUOUS
 62
6
 10
222.5178631899
 20
252.5000000000
 11
222.5178631899
 21
247.5000000000
  0
LINE
  8
5
  6
CONTINUOUS
 62
6
 10
222.5178631899
 20
247.5000000000
 11
222.5178631899
 21
242.5000000000
  0
LINE
  8
5
  6
CONTINUOUS
 62
6
 10
309.5178631899
 20
272.5000000000
 11
309.5178631899
 21
267.5000000000
  0
LINE
  8
5
  6
CONTINUOUS
 62
6
 10
309.5178631899
 20
267.5000000000
 11
309.5178631899
 21
262.5000000000
  0
LINE
  8
5
  6
CONTINUOUS
 62
6
 10
309.5178631899
 20
262.5000000000
 11
309.5178631899
 21
257.5000000000
  0
LINE
  8
5
  6
CONTINUOUS
 62
6
 10
242.5178631899
 20
267.5000000000
 11
242.5178631899
 21
262.5000000000
  0
LINE
  8
5
  6
CONTINUOUS
 62
6
 10
242.5178631899
 20
262.5000000000
 11
242.5178631899
 21
257.5000000000
  0
LINE
  8
5
  6
CONTINUOUS
 62
6
 10
242.5178631899
 20
257.5000000000
 11
242.5178631899
 21
252.5000000000
  0
LINE
  8
5
  6
CONTINUOUS
 62
6
 10
242.5178631899
 20
252.5000000000
 11
242.5178631899
 21
247.5000000000
  0
LINE
  8
5
  6
CONTINUOUS
 62
6
 10
242.5178631899
 20
247.5000000000
 11
242.5178631899
 21
242.5000000000
  0
LINE
  8
5
  6
CONTINUOUS
 62
6
 10
329.5178631899
 20
272.5000000000
 11
329.5178631899
 21
267.5000000000
  0
LINE
  8
5
  6
CONTINUOUS
 62
6
 10
329.5178631899
 20
267.5000000000
 11
329.5178631899
 21
262.5000000000
  0
LINE
  8
5
  6
CONTINUOUS
 62
6
 10
329.5178631899
 20
262.5000000000
 11
329.5178631899
 21
257.5000000000
  0
LINE
  8
5
  6
CONTINUOUS
 62
6
 10
282.5178631899
 20
267.5000000000
 11
282.5178631899
 21
262.5000000000
  0
LINE
  8
5
  6
CONTINUOUS
 62
6
 10
282.5178631899
 20
262.5000000000
 11
282.5178631899
 21
257.5000000000
  0
LINE
  8
5
  6
CONTINUOUS
 62
6
 10
282.5178631899
 20
252.5000000000
 11
282.5178631899
 21
247.5000000000
  0
LINE
  8
5
  6
CONTINUOUS
 62
6
 10
282.5178631899
 20
247.5000000000
 11
282.5178631899
 21
242.5000000000
  0
LINE
  8
5
  6
CONTINUOUS
 62
6
 10
369.5178631899
 20
272.5000000000
 11
369.5178631899
 21
267.5000000000
  0
LINE
  8
5
  6
CONTINUOUS
 62
6
 10
369.5178631899
 20
267.5000000000
 11
369.5178631899
 21
262.5000000000
  0
LINE
  8
5
  6
CONTINUOUS
 62
6
 10
369.5178631899
 20
262.5000000000
 11
369.5178631899
 21
257.5000000000
  0
LINE
  8
5
  6
CONTINUOUS
 62
6
 10
297.5178631899
 20
267.5000000000
 11
297.5178631899
 21
262.5000000000
  0
LINE
  8
5
  6
CONTINUOUS
 62
6
 10
297.5178631899
 20
262.5000000000
 11
297.5178631899
 21
257.5000000000
  0
LINE
  8
5
  6
CONTINUOUS
 62
6
 10
297.5178631899
 20
257.5000000000
 11
297.5178631899
 21
252.5000000000
  0
LINE
  8
5
  6
CONTINUOUS
 62
6
 10
297.5178631899
 20
252.5000000000
 11
297.5178631899
 21
247.5000000000
  0
LINE
  8
5
  6
CONTINUOUS
 62
6
 10
297.5178631899
 20
247.5000000000
 11
297.5178631899
 21
242.5000000000
  0
LINE
  8
5
  6
CONTINUOUS
 62
6
 10
384.5178631899
 20
272.5000000000
 11
384.5178631899
 21
267.5000000000
  0
LINE
  8
5
  6
CONTINUOUS
 62
6
 10
384.5178631899
 20
267.5000000000
 11
384.5178631899
 21
262.5000000000
  0
LINE
  8
5
  6
CONTINUOUS
 62
6
 10
384.5178631899
 20
262.5000000000
 11
384.5178631899
 21
257.5000000000
  0
LINE
  8
5
  6
CONTINUOUS
 62
6
 10
302.5178631899
 20
267.5000000000
 11
302.5178631899
 21
262.5000000000
  0
LINE
  8
5
  6
CONTINUOUS
 62
6
 10
302.5178631899
 20
262.5000000000
 11
302.5178631899
 21
257.5000000000
  0
LINE
  8
5
  6
CONTINUOUS
 62
6
 10
302.5178631899
 20
257.5000000000
 11
302.5178631899
 21
252.5000000000
  0
LINE
  8
5
  6
CONTINUOUS
 62
6
 10
302.5178631899
 20
252.5000000000
 11
302.5178631899
 21
247.5000000000
  0
LINE
  8
5
  6
CONTINUOUS
 62
6
 10
302.5178631899
 20
247.5000000000
 11
302.5178631899
 21
242.5000000000
  0
LINE
  8
5
  6
CONTINUOUS
 62
6
 10
389.5178631899
 20
272.5000000000
 11
389.5178631899
 21
267.5000000000
  0
LINE
  8
5
  6
CONTINUOUS
 62
6
 10
389.5178631899
 20
267.5000000000
 11
389.5178631899
 21
262.5000000000
  0
LINE
  8
5
  6
CONTINUOUS
 62
6
 10
389.5178631899
 20
262.5000000000
 11
389.5178631899
 21
257.5000000000
  0
LINE
  8
5
  6
CONTINUOUS
 62
6
 10
389.5178631899
 20
252.5000000000
 11
384.5178631899
 21
252.5000000000
  0
LINE
  8
5
  6
CONTINUOUS
 62
6
 10
384.5178631899
 20
252.5000000000
 11
369.5178631899
 21
252.5000000000
  0
LINE
  8
5
  6
CONTINUOUS
 62
6
 10
369.5178631899
 20
252.5000000000
 11
329.5178631899
 21
252.5000000000
  0
LINE
  8
5
  6
CONTINUOUS
 62
6
 10
329.5178631899
 20
252.5000000000
 11
309.5178631899
 21
252.5000000000
  0
LINE
  8
5
  6
CONTINUOUS
 62
6
 10
309.5178631899
 20
252.5000000000
 11
304.5178631899
 21
252.5000000000
  0
LINE
  8
5
  6
CONTINUOUS
 62
6
 10
304.5178631899
 20
252.5000000000
 11
304.5178631899
 21
257.5000000000
  0
LINE
  8
5
  6
CONTINUOUS
 62
6
 10
309.5178631899
 20
257.5000000000
 11
309.5178631899
 21
252.5000000000
  0
LINE
  8
5
  6
CONTINUOUS
 62
6
 10
329.5178631899
 20
257.5000000000
 11
329.5178631899
 21
252.5000000000
  0
LINE
  8
5
  6
CONTINUOUS
 62
6
 10
369.5178631899
 20
257.5000000000
 11
369.5178631899
 21
252.5000000000
  0
LINE
  8
5
  6
CONTINUOUS
 62
6
 10
384.5178631899
 20
257.5000000000
 11
384.5178631899
 21
252.5000000000
  0
LINE
  8
5
  6
CONTINUOUS
 62
6
 10
389.5178631899
 20
257.5000000000
 11
389.5178631899
 21
252.5000000000
  0
ENDBLK
  8
0
  0
BLOCK
  8
1
  2
BALN0
 70
     0
 10
65.1092980532
 20
67.0636039311
  3
BALN0
  0
SOLID
  8
1
  6
CONTINUOUS
 62
5
 10
67.0995994495
 20
66.8668798809
 11
66.7345875985
 21
65.8980852079
 12
65.1092980532
 22
67.0636039311
 13
65.1092980532
 23
67.0636039311
  0
LINE
  8
1
  6
BYBLOCK
 62
5
 10
65.1092980532
 20
67.0636039311
 11
88.4832927053
 21
58.2570061116
  0
CIRCLE
  8
1
  6
BYBLOCK
 62
5
 10
91.2906440902
 20
57.1992829901
 40
3.0000000000
  0
TEXT
  8
1
  6
CONTINUOUS
 62
7
 10
90.415644
 20
55.449283
 40
3.500000
  1
3
 41
1.000000
 50
0.000000
 51
0.000000
 72
   5
 73
   0
 11
92.165644
 21
55.449283
  0
ENDBLK
  8
0
  0
BLOCK
  8
1
  2
*D6
 70
     1
 10
0.0000000000
 20
0.0000000000
  3
*D6
  0
LINE
  8
1
  6
BYBLOCK
 62
5
 10
142.4822443727
 20
88.0542751045
 11
141.4983420815
 21
85.7560287554
  0
LINE
  8
1
  6
BYBLOCK
 62
5
 10
144.4500489552
 20
92.6507678028
 11
145.4339512464
 21
94.9490141519
  0
SOLID
  8
1
  6
CONTINUOUS
 62
5
 10
142.1978070062
 20
86.0746045803
 11
141.2460791254
 21
86.4820488227
 12
142.4822443727
 22
88.0542751045
 13
142.4822443727
 23
88.0542751045
  0
SOLID
  8
1
  6
CONTINUOUS
 62
5
 10
144.7344863217
 20
94.6304383270
 11
145.6862142025
 21
94.2229940847
 12
144.4500489552
 22
92.6507678028
 13
144.4500489552
 23
92.6507678028
  0
TEXT
  8
1
  6
CONTINUOUS
 62
7
 10
145.999175
 20
98.810194
 40
3.500000
  1
2-M5
 41
0.796813
 50
66.823748
 51
0.000000
 72
   5
 73
   0
 11
148.754102
 21
105.245284
  0
POINT
  8
DEFPOINTS
  6
BYBLOCK
 62
5
 10
142.4822443727
 20
88.0542751045
  0
POINT
  8
DEFPOINTS
  6
BYBLOCK
 62
5
 10
144.4500489552
 20
92.6507678028
  0
LINE
  8
1
  6
BYBLOCK
 62
5
 10
142.4822443727
 20
88.0542751045
 11
149.6734002150
 21
104.8517231924
  0
ENDBLK
  8
0
  0
BLOCK
  8
1
  2
LTEX0
 70
     0
 10
143.4661466639
 20
87.8525214537
  3
LTEX0
  0
SOLID
  8
1
  6
CONTINUOUS
 62
5
 10
143.7537211918
 20
85.8733042117
 11
142.7255848896
 21
85.9946817786
 12
143.4661466639
 22
87.8525214537
 13
143.4661466639
 23
87.8525214537
  0
TEXT
  8
1
  6
CONTINUOUS
 62
7
 10
140.428137
 20
63.118874
 40
5.000000
  1
⑥⑦
 41
0.921659
 50
0.000000
 51
0.000000
 72
   5
 73
   0
 11
150.428137
 21
63.118874
  0
LINE
  8
1
  6
BYBLOCK
 62
5
 10
143.4661466639
 20
87.8525214537
 11
140.4281374818
 21
62.1188739042
  0
LINE
  8
1
  6
BYBLOCK
 62
5
 10
140.4281374818
 20
62.1188739042
 11
150.4281374818
 21
62.1188739042
  0
ENDBLK
  8
0
  0
BLOCK
  8
1
  2
S2
 70
     0
 10
393.0020125722
 20
250.3911338517
  3
S2
  0
LINE
  8
1
  6
CONTINUOUS
 62
6
 10
395.5020125722
 20
248.3911338517
 11
390.5020125722
 21
248.3911338516
  0
TEXT
  8
1
  6
CONTINUOUS
 62
6
 10
391.950963
 20
248.012807
 40
3.300000
  1
B
 41
1.274000
 50
0.000000
 51
0.000000
 72
   5
 73
   0
 11
394.053063
 21
248.012807
  0
LINE
  8
1
  6
CONTINUOUS
 62
6
 10
393.0020125722
 20
252.3911338517
 11
390.5020125722
 21
248.3911338516
  0
LINE
  8
1
  6
CONTINUOUS
 62
6
 10
393.0020125722
 20
252.3911338517
 11
395.5020125722
 21
248.3911338517
  0
POINT
  8
1
  6
CONTINUOUS
 62
6
 10
393.0020125722
 20
250.3911338517
  0
ENDBLK
  8
0
  0
BLOCK
  8
1
  2
S3
 70
     0
 10
9.0000000001
 20
257.0000000000
  3
S3
  0
LINE
  8
1
  6
CONTINUOUS
 62
7
 10
11.5000000001
 20
255.0000000000
 11
6.5000000001
 21
255.0000000000
  0
TEXT
  8
1
  6
CONTINUOUS
 62
7
 10
7.948950
 20
254.621673
 40
3.300000
  1
B
 41
1.274000
 50
0.000000
 51
0.000000
 72
   5
 73
   0
 11
10.051050
 21
254.621673
  0
LINE
  8
1
  6
CONTINUOUS
 62
7
 10
9.0000000001
 20
259.0000000000
 11
6.5000000001
 21
255.0000000000
  0
LINE
  8
1
  6
CONTINUOUS
 62
7
 10
9.0000000001
 20
259.0000000000
 11
11.5000000001
 21
255.0000000000
  0
POINT
  8
1
  6
CONTINUOUS
 62
7
 10
9.0000000001
 20
257.0000000000
  0
ENDBLK
  8
0
  0
BLOCK
  8
1
  2
S4
 70
     0
 10
393.0020125722
 20
265.3911338517
  3
S4
  0
LINE
  8
1
  6
CONTINUOUS
 62
6
 10
395.5020125722
 20
263.3911338517
 11
390.5020125722
 21
263.3911338516
  0
TEXT
  8
1
  6
CONTINUOUS
 62
6
 10
391.906413
 20
263.012807
 40
3.300000
  1
C
 41
1.328000
 50
0.000000
 51
0.000000
 72
   5
 73
   0
 11
394.097613
 21
263.012807
  0
LINE
  8
1
  6
CONTINUOUS
 62
6
 10
393.0020125722
 20
267.3911338517
 11
390.5020125722
 21
263.3911338516
  0
LINE
  8
1
  6
CONTINUOUS
 62
6
 10
393.0020125722
 20
267.3911338517
 11
395.5020125722
 21
263.3911338517
  0
POINT
  8
1
  6
CONTINUOUS
 62
6
 10
393.0020125722
 20
265.3911338517
  0
ENDBLK
  8
0
  0
BLOCK
  8
1
  2
BALN1
 70
     0
 10
112.1348058892
 20
202.0171741535
  3
BALN1
  0
SOLID
  8
1
  6
CONTINUOUS
 62
5
 10
111.1236061903
 20
203.7427103510
 11
112.1218493605
 21
204.0171321851
 12
112.1348058892
 22
202.0171741535
 13
112.1348058892
 23
202.0171741535
  0
LINE
  8
1
  6
BYBLOCK
 62
5
 10
112.1348058892
 20
202.0171741535
 11
106.5837466317
 21
222.2098348769
  0
CIRCLE
  8
1
  6
BYBLOCK
 62
5
 10
105.7885332211
 20
225.1025214537
 40
3.0000000000
  0
TEXT
  8
1
  6
CONTINUOUS
 62
7
 10
104.913533
 20
223.352521
 40
3.500000
  1
2
 41
1.000000
 50
0.000000
 51
0.000000
 72
   5
 73
   0
 11
106.663533
 21
223.352521
  0
ENDBLK
  8
0
  0
BLOCK
  8
1
  2
BALN2
 70
     0
 10
131.0889601190
 20
214.9344220794
  3
BALN2
  0
SOLID
  8
1
  6
CONTINUOUS
 62
5
 10
130.8059559987
 20
216.9142980018
 11
131.8338093227
 21
216.7905469847
 12
131.0889601190
 22
214.9344220794
 13
131.0889601190
 23
214.9344220794
  0
LINE
  8
1
  6
BYBLOCK
 62
5
 10
131.0889601190
 20
214.9344220794
 11
131.9545714135
 21
222.1240312400
  0
CIRCLE
  8
1
  6
BYBLOCK
 62
5
 10
132.3131743238
 20
225.1025214537
 40
3.0000000000
  0
TEXT
  8
1
  6
CONTINUOUS
 62
7
 10
131.438174
 20
223.352521
 40
3.500000
  1
1
 41
1.000000
 50
0.000000
 51
0.000000
 72
   5
 73
   0
 11
133.188174
 21
223.352521
  0
ENDBLK
  8
0
  0
BLOCK
  8
1
  2
BALN3
 70
     0
 10
173.9105182328
 20
197.3525214537
  3
BALN3
  0
SOLID
  8
1
  6
CONTINUOUS
 62
5
 10
173.6940432349
 20
199.3407715826
 11
174.7171704498
 21
199.1826340734
 12
173.9105182328
 22
197.3525214537
 13
173.9105182328
 23
197.3525214537
  0
LINE
  8
1
  6
BYBLOCK
 62
5
 10
173.9105182328
 20
197.3525214537
 11
177.7413913905
 21
222.1377264523
  0
CIRCLE
  8
1
  6
BYBLOCK
 62
5
 10
178.1996387033
 20
225.1025214537
 40
3.0000000000
  0
TEXT
  8
1
  6
CONTINUOUS
 62
7
 10
177.324639
 20
223.352521
 40
3.500000
  1
4
 41
1.000000
 50
0.000000
 51
0.000000
 72
   5
 73
   0
 11
179.074639
 21
223.352521
  0
ENDBLK
  8
0
  0
BLOCK
  8
1
  2
BALN4
 70
     0
 10
194.9817324968
 20
201.1025214537
  3
BALN4
  0
SOLID
  8
1
  6
CONTINUOUS
 62
5
 10
194.8748844739
 20
203.0996652893
 11
195.8877713124
 21
202.8855227618
 12
194.9817324968
 22
201.1025214537
 13
194.9817324968
 23
201.1025214537
  0
LINE
  8
1
  6
BYBLOCK
 62
5
 10
194.9817324968
 20
201.1025214537
 11
199.4352275269
 21
222.1674007844
  0
CIRCLE
  8
1
  6
BYBLOCK
 62
5
 10
200.0557649204
 20
225.1025214537
 40
3.0000000000
  0
TEXT
  8
1
  6
CONTINUOUS
 62
7
 10
199.180765
 20
223.352521
 40
3.500000
  1
5
 41
1.000000
 50
0.000000
 51
0.000000
 72
   5
 73
   0
 11
200.930765
 21
223.352521
  0
ENDBLK
  8
0
  0
BLOCK
  8
1
  2
BALN5
 70
     0
 10
208.7458902071
 20
187.3847268719
  3
BALN5
  0
SOLID
  8
1
  6
CONTINUOUS
 62
5
 10
208.7530430834
 20
189.3847140809
 11
209.7520783842
 21
189.1131901640
 12
208.7458902071
 22
187.3847268719
 13
208.7458902071
 23
187.3847268719
  0
LINE
  8
1
  6
BYBLOCK
 62
5
 10
208.7458902071
 20
187.3847268719
 11
218.2102469363
 21
222.2075394584
  0
CIRCLE
  8
1
  6
BYBLOCK
 62
5
 10
218.9970628278
 20
225.1025214537
 40
3.0000000000
  0
TEXT
  8
1
  6
CONTINUOUS
 62
7
 10
218.122063
 20
223.352521
 40
3.500000
  1
8
 41
1.000000
 50
0.000000
 51
0.000000
 72
   5
 73
   0
 11
219.872063
 21
223.352521
  0
ENDBLK
  8
0
  0
BLOCK
  8
4
  2
*D7
 70
     1
 10
0.0000000000
 20
0.0000000000
  3
*D7
  0
LINE
  8
4
  6
BYBLOCK
 62
5
 10
323.4699106964
 20
193.3525214537
 11
323.4699106964
 21
205.0459702776
  0
LINE
  8
4
  6
BYBLOCK
 62
5
 10
329.9699106964
 20
196.3525214537
 11
329.9699106964
 21
205.0459702776
  0
LINE
  8
4
  6
BYBLOCK
 62
5
 10
329.9699106964
 20
204.0459702776
 11
323.4699106964
 21
204.0459702776
  0
SOLID
  8
4
  6
CONTINUOUS
 62
5
 10
325.4017623490
 20
204.5636083678
 11
325.4017623490
 21
203.5283321874
 12
323.4699106964
 22
204.0459702776
 13
323.4699106964
 23
204.0459702776
  0
SOLID
  8
4
  6
CONTINUOUS
 62
5
 10
328.0380590438
 20
203.5283321874
 11
328.0380590438
 21
204.5636083678
 12
329.9699106964
 22
204.0459702776
 13
329.9699106964
 23
204.0459702776
  0
TEXT
  8
4
  6
CONTINUOUS
 62
7
 10
324.094911
 20
205.045970
 40
3.500000
  1
6.5
 41
0.815217
 50
0.000000
 51
0.000000
 72
   5
 73
   0
 11
329.344911
 21
205.045970
  0
POINT
  8
DEFPOINTS
  6
BYBLOCK
 62
5
 10
323.4699106964
 20
192.8525214537
  0
POINT
  8
DEFPOINTS
  6
BYBLOCK
 62
5
 10
329.9699106964
 20
195.8525214537
  0
POINT
  8
DEFPOINTS
  6
BYBLOCK
 62
5
 10
329.9699106964
 20
204.0459702776
  0
ENDBLK
  8
0
  0
BLOCK
  8
4
  2
*D8
 70
     1
 10
0.0000000000
 20
0.0000000000
  3
*D8
  0
LINE
  8
4
  6
BYBLOCK
 62
5
 10
349.9699106964
 20
195.6025214537
 11
349.9699106964
 21
205.0459702776
  0
LINE
  8
4
  6
BYBLOCK
 62
5
 10
349.9699106964
 20
204.0459702776
 11
329.9699106964
 21
204.0459702776
  0
SOLID
  8
4
  6
CONTINUOUS
 62
5
 10
331.9017623490
 20
204.5636083678
 11
331.9017623490
 21
203.5283321874
 12
329.9699106964
 22
204.0459702776
 13
329.9699106964
 23
204.0459702776
  0
SOLID
  8
4
  6
CONTINUOUS
 62
5
 10
348.0380590438
 20
203.5283321874
 11
348.0380590438
 21
204.5636083678
 12
349.9699106964
 22
204.0459702776
 13
349.9699106964
 23
204.0459702776
  0
TEXT
  8
4
  6
CONTINUOUS
 62
7
 10
338.219911
 20
205.045970
 40
3.500000
  1
20
 41
0.854701
 50
0.000000
 51
0.000000
 72
   5
 73
   0
 11
341.719911
 21
205.045970
  0
POINT
  8
DEFPOINTS
  6
BYBLOCK
 62
5
 10
329.9699106964
 20
195.8525214537
  0
POINT
  8
DEFPOINTS
  6
BYBLOCK
 62
5
 10
349.9699106964
 20
195.1025214537
  0
POINT
  8
DEFPOINTS
  6
BYBLOCK
 62
5
 10
349.9699106964
 20
204.0459702776
  0
ENDBLK
  8
0
  0
BLOCK
  8
4
  2
*D9
 70
     1
 10
0.0000000000
 20
0.0000000000
  3
*D9
  0
LINE
  8
4
  6
BYBLOCK
 62
5
 10
369.9699106964
 20
196.3525214537
 11
369.9699106964
 21
205.0459702776
  0
LINE
  8
4
  6
BYBLOCK
 62
5
 10
369.9699106964
 20
204.0459702776
 11
349.9699106964
 21
204.0459702776
  0
SOLID
  8
4
  6
CONTINUOUS
 62
5
 10
351.9017623490
 20
204.5636083678
 11
351.9017623490
 21
203.5283321874
 12
349.9699106964
 22
204.0459702776
 13
349.9699106964
 23
204.0459702776
  0
SOLID
  8
4
  6
CONTINUOUS
 62
5
 10
368.0380590438
 20
203.5283321874
 11
368.0380590438
 21
204.5636083678
 12
369.9699106964
 22
204.0459702776
 13
369.9699106964
 23
204.0459702776
  0
TEXT
  8
4
  6
CONTINUOUS
 62
7
 10
358.219911
 20
205.045970
 40
3.500000
  1
20
 41
0.854701
 50
0.000000
 51
0.000000
 72
   5
 73
   0
 11
361.719911
 21
205.045970
  0
POINT
  8
DEFPOINTS
  6
BYBLOCK
 62
5
 10
349.9699106964
 20
195.1025214537
  0
POINT
  8
DEFPOINTS
  6
BYBLOCK
 62
5
 10
369.9699106964
 20
195.8525214537
  0
POINT
  8
DEFPOINTS
  6
BYBLOCK
 62
5
 10
369.9699106964
 20
204.0459702776
  0
ENDBLK
  8
0
  0
BLOCK
  8
4
  2
*D10
 70
     1
 10
0.0000000000
 20
0.0000000000
  3
*D10
  0
LINE
  8
4
  6
BYBLOCK
 62
5
 10
376.4699106964
 20
193.3525214537
 11
376.4699106964
 21
205.0459702776
  0
LINE
  8
4
  6
BYBLOCK
 62
5
 10
376.4699106964
 20
204.0459702776
 11
369.9699106964
 21
204.0459702776
  0
SOLID
  8
4
  6
CONTINUOUS
 62
5
 10
371.9017623490
 20
204.5636083678
 11
371.9017623490
 21
203.5283321874
 12
369.9699106964
 22
204.0459702776
 13
369.9699106964
 23
204.0459702776
  0
SOLID
  8
4
  6
CONTINUOUS
 62
5
 10
374.5380590438
 20
203.5283321874
 11
374.5380590438
 21
204.5636083678
 12
376.4699106964
 22
204.0459702776
 13
376.4699106964
 23
204.0459702776
  0
TEXT
  8
4
  6
CONTINUOUS
 62
7
 10
370.594911
 20
205.045970
 40
3.500000
  1
6.5
 41
0.815217
 50
0.000000
 51
0.000000
 72
   5
 73
   0
 11
375.844911
 21
205.045970
  0
POINT
  8
DEFPOINTS
  6
BYBLOCK
 62
5
 10
369.9699106964
 20
195.8525214537
  0
POINT
  8
DEFPOINTS
  6
BYBLOCK
 62
5
 10
376.4699106964
 20
192.8525214537
  0
POINT
  8
DEFPOINTS
  6
BYBLOCK
 62
5
 10
376.4699106964
 20
204.0459702776
  0
ENDBLK
  8
0
  0
BLOCK
  8
4
  2
*D11
 70
     1
 10
0.0000000000
 20
0.0000000000
  3
*D11
  0
LINE
  8
4
  6
BYBLOCK
 62
5
 10
323.4699106964
 20
205.0459702776
 11
323.4699106964
 21
212.0459702776
  0
LINE
  8
4
  6
BYBLOCK
 62
5
 10
376.4699106964
 20
193.3525214537
 11
376.4699106964
 21
212.0459702776
  0
LINE
  8
4
  6
BYBLOCK
 62
5
 10
376.4699106964
 20
211.0459702776
 11
323.4699106964
 21
211.0459702776
  0
SOLID
  8
4
  6
CONTINUOUS
 62
5
 10
325.4017623490
 20
211.5636083678
 11
325.4017623490
 21
210.5283321874
 12
323.4699106964
 22
211.0459702776
 13
323.4699106964
 23
211.0459702776
  0
SOLID
  8
4
  6
CONTINUOUS
 62
5
 10
374.5380590438
 20
210.5283321874
 11
374.5380590438
 21
211.5636083678
 12
376.4699106964
 22
211.0459702776
 13
376.4699106964
 23
211.0459702776
  0
TEXT
  8
4
  6
CONTINUOUS
 62
7
 10
348.219911
 20
212.045970
 40
3.500000
  1
53
 41
0.854701
 50
0.000000
 51
0.000000
 72
   5
 73
   0
 11
351.719911
 21
212.045970
  0
POINT
  8
DEFPOINTS
  6
BYBLOCK
 62
5
 10
323.4699106964
 20
192.8525214537
  0
POINT
  8
DEFPOINTS
  6
BYBLOCK
 62
5
 10
376.4699106964
 20
192.8525214537
  0
POINT
  8
DEFPOINTS
  6
BYBLOCK
 62
5
 10
376.4699106964
 20
211.0459702776
  0
ENDBLK
  8
0
  0
BLOCK
  8
4
  2
*D12
 70
     1
 10
0.0000000000
 20
0.0000000000
  3
*D12
  0
LINE
  8
4
  6
BYBLOCK
 62
5
 10
329.1190410718
 20
198.5878436311
 11
327.7009250308
 21
200.6467139267
  0
LINE
  8
4
  6
BYBLOCK
 62
5
 10
330.8207803210
 20
196.1171992763
 11
332.2388963619
 21
194.0583289806
  0
SOLID
  8
4
  6
CONTINUOUS
 62
5
 10
327.5969052697
 20
199.8851880727
 11
328.4495050200
 21
200.4724447760
 12
329.1190410718
 22
198.5878436311
 13
329.1190410718
 23
198.5878436311
  0
SOLID
  8
4
  6
CONTINUOUS
 62
5
 10
332.3429161230
 20
194.8198548347
 11
331.4903163728
 21
194.2325981314
 12
330.8207803210
 22
196.1171992763
 13
330.8207803210
 23
196.1171992763
  0
TEXT
  8
4
  6
CONTINUOUS
 62
7
 10
336.850075
 20
189.126561
 40
3.500000
  1
4-M3
 41
0.796813
 50
304.558432
 51
0.000000
 72
   5
 73
   0
 11
340.820800
 21
183.361724
  0
POINT
  8
DEFPOINTS
  6
BYBLOCK
 62
5
 10
329.1190410718
 20
198.5878436311
  0
POINT
  8
DEFPOINTS
  6
BYBLOCK
 62
5
 10
330.8207803210
 20
196.1171992763
  0
LINE
  8
4
  6
BYBLOCK
 62
5
 10
329.1190410718
 20
198.5878436311
 11
339.9972519619
 21
182.7944779091
  0
ENDBLK
  8
0
  0
BLOCK
  8
4
  2
*D13
 70
     1
 10
0.0000000000
 20
0.0000000000
  3
*D13
  0
LINE
  8
4
  6
BYBLOCK
 62
5
 10
348.5687128589
 20
199.1129602116
 11
347.0118263729
 21
201.0690032759
  0
LINE
  8
4
  6
BYBLOCK
 62
5
 10
351.3711085338
 20
195.5920826958
 11
352.9279950199
 21
193.6360396314
  0
SOLID
  8
4
  6
CONTINUOUS
 62
5
 10
346.9606344081
 20
200.3021127232
 11
347.7706523250
 21
200.9468357211
 12
348.5687128589
 22
199.1129602116
 13
348.5687128589
 23
199.1129602116
  0
SOLID
  8
4
  6
CONTINUOUS
 62
5
 10
352.9791869847
 20
194.4029301842
 11
352.1691690677
 21
193.7582071863
 12
351.3711085338
 22
195.5920826958
 13
351.3711085338
 23
195.5920826958
  0
TEXT
  8
4
  6
CONTINUOUS
 62
7
 10
357.995558
 20
188.875017
 40
3.500000
  1
2-φ4.5
 41
0.804598
 50
308.517570
 51
0.000000
 72
   5
 73
   0
 11
365.624302
 21
179.290406
  0
POINT
  8
DEFPOINTS
  6
BYBLOCK
 62
5
 10
348.5687128589
 20
199.1129602116
  0
POINT
  8
DEFPOINTS
  6
BYBLOCK
 62
5
 10
351.3711085338
 20
195.5920826958
  0
LINE
  8
4
  6
BYBLOCK
 62
5
 10
348.5687128589
 20
199.1129602116
 11
364.8418847829
 21
178.6676513455
  0
ENDBLK
  8
0
  0
BLOCK
  8
1
  2
*D14
 70
     1
 10
0.0000000000
 20
0.0000000000
  3
*D14
  0
LINE
  8
1
  6
BYBLOCK
 62
5
 10
370.9699106964
 20
80.3525214537
 11
310.2740444133
 21
80.3525214537
  0
LINE
  8
1
  6
BYBLOCK
 62
5
 10
322.9699106964
 20
84.8525214537
 11
310.2740444133
 21
84.8525214537
  0
LINE
  8
1
  6
BYBLOCK
 62
5
 10
311.2740444133
 20
87.3525214537
 11
311.2740444133
 21
77.8525214537
  0
SOLID
  8
1
  6
CONTINUOUS
 62
5
 10
311.7916825035
 20
78.4206698011
 11
310.7564063231
 21
78.4206698011
 12
311.2740444133
 22
80.3525214537
 13
311.2740444133
 23
80.3525214537
  0
SOLID
  8
1
  6
CONTINUOUS
 62
5
 10
310.7564063231
 20
86.7843731063
 11
311.7916825035
 21
86.7843731063
 12
311.2740444133
 22
84.8525214537
 13
311.2740444133
 23
84.8525214537
  0
TEXT
  8
1
  6
CONTINUOUS
 62
7
 10
310.274044
 20
80.352521
 40
3.000000
  1
4.5
 41
0.815217
 50
90.000000
 51
0.000000
 72
   5
 73
   0
 11
310.274044
 21
84.852521
  0
POINT
  8
DEFPOINTS
  6
BYBLOCK
 62
5
 10
371.4699106964
 20
80.3525214537
  0
POINT
  8
DEFPOINTS
  6
BYBLOCK
 62
5
 10
323.4699106964
 20
84.8525214537
  0
POINT
  8
DEFPOINTS
  6
BYBLOCK
 62
5
 10
311.2740444133
 20
84.8525214537
  0
ENDBLK
  8
0
  0
BLOCK
  8
1
  2
*D15
 70
     1
 10
0.0000000000
 20
0.0000000000
  3
*D15
  0
LINE
  8
1
  6
BYBLOCK
 62
5
 10
322.9699106964
 20
192.8525214537
 11
310.2740444133
 21
192.8525214537
  0
LINE
  8
1
  6
BYBLOCK
 62
5
 10
311.2740444133
 20
192.8525214537
 11
311.2740444133
 21
84.8525214537
  0
SOLID
  8
1
  6
CONTINUOUS
 62
5
 10
310.7564063231
 20
86.7843731063
 11
311.7916825035
 21
86.7843731063
 12
311.2740444133
 22
84.8525214537
 13
311.2740444133
 23
84.8525214537
  0
SOLID
  8
1
  6
CONTINUOUS
 62
5
 10
311.7916825035
 20
190.9206698011
 11
310.7564063231
 21
190.9206698011
 12
311.2740444133
 22
192.8525214537
 13
311.2740444133
 23
192.8525214537
  0
TEXT
  8
1
  6
CONTINUOUS
 62
7
 10
310.274044
 20
136.227521
 40
3.500000
  1
108
 41
0.815217
 50
90.000000
 51
0.000000
 72
   5
 73
   0
 11
310.274044
 21
141.477521
  0
POINT
  8
DEFPOINTS
  6
BYBLOCK
 62
5
 10
323.4699106964
 20
84.8525214537
  0
POINT
  8
DEFPOINTS
  6
BYBLOCK
 62
5
 10
323.4699106964
 20
192.8525214537
  0
POINT
  8
DEFPOINTS
  6
BYBLOCK
 62
5
 10
311.2740444133
 20
192.8525214537
  0
ENDBLK
  8
0
  0
BLOCK
  8
1
  2
*D16
 70
     1
 10
0.0000000000
 20
0.0000000000
  3
*D16
  0
LINE
  8
1
  6
BYBLOCK
 62
5
 10
370.9699106964
 20
197.3525214537
 11
310.2740444133
 21
197.3525214537
  0
LINE
  8
1
  6
BYBLOCK
 62
5
 10
311.2740444133
 20
199.8525214537
 11
311.2740444133
 21
190.3525214537
  0
SOLID
  8
1
  6
CONTINUOUS
 62
5
 10
311.7916825035
 20
190.9206698011
 11
310.7564063231
 21
190.9206698011
 12
311.2740444133
 22
192.8525214537
 13
311.2740444133
 23
192.8525214537
  0
SOLID
  8
1
  6
CONTINUOUS
 62
5
 10
310.7564063231
 20
199.2843731063
 11
311.7916825035
 21
199.2843731063
 12
311.2740444133
 22
197.3525214537
 13
311.2740444133
 23
197.3525214537
  0
TEXT
  8
1
  6
CONTINUOUS
 62
7
 10
309.274044
 20
192.852521
 40
3.000000
  1
4.5
 41
0.815217
 50
90.000000
 51
0.000000
 72
   5
 73
   0
 11
309.274044
 21
197.352521
  0
POINT
  8
DEFPOINTS
  6
BYBLOCK
 62
5
 10
323.4699106964
 20
192.8525214537
  0
POINT
  8
DEFPOINTS
  6
BYBLOCK
 62
5
 10
371.4699106964
 20
197.3525214537
  0
POINT
  8
DEFPOINTS
  6
BYBLOCK
 62
5
 10
311.2740444133
 20
197.3525214537
  0
ENDBLK
  8
0
  0
BLOCK
  8
1
  2
*D17
 70
     1
 10
0.0000000000
 20
0.0000000000
  3
*D17
  0
LINE
  8
1
  6
BYBLOCK
 62
5
 10
310.2740444133
 20
80.3525214537
 11
303.2740444133
 21
80.3525214537
  0
LINE
  8
1
  6
BYBLOCK
 62
5
 10
370.9699106964
 20
197.3525214537
 11
303.2740444133
 21
197.3525214537
  0
LINE
  8
1
  6
BYBLOCK
 62
5
 10
304.2740444133
 20
197.3525214537
 11
304.2740444133
 21
80.3525214537
  0
SOLID
  8
1
  6
CONTINUOUS
 62
5
 10
303.7564063231
 20
82.2843731063
 11
304.7916825035
 21
82.2843731063
 12
304.2740444133
 22
80.3525214537
 13
304.2740444133
 23
80.3525214537
  0
SOLID
  8
1
  6
CONTINUOUS
 62
5
 10
304.7916825035
 20
195.4206698011
 11
303.7564063231
 21
195.4206698011
 12
304.2740444133
 22
197.3525214537
 13
304.2740444133
 23
197.3525214537
  0
TEXT
  8
1
  6
CONTINUOUS
 62
7
 10
303.274044
 20
136.227521
 40
3.500000
  1
117
 41
0.815217
 50
90.000000
 51
0.000000
 72
   5
 73
   0
 11
303.274044
 21
141.477521
  0
POINT
  8
DEFPOINTS
  6
BYBLOCK
 62
5
 10
371.4699106964
 20
80.3525214537
  0
POINT
  8
DEFPOINTS
  6
BYBLOCK
 62
5
 10
371.4699106964
 20
197.3525214537
  0
POINT
  8
DEFPOINTS
  6
BYBLOCK
 62
5
 10
304.2740444133
 20
197.3525214537
  0
ENDBLK
  8
0
  0
BLOCK
  8
1
  2
*D18
 70
     1
 10
0.0000000000
 20
0.0000000000
  3
*D18
  0
LINE
  8
1
  6
BYBLOCK
 62
5
 10
384.9699106964
 20
64.6025214537
 11
393.1131447593
 21
64.6025214537
  0
LINE
  8
1
  6
BYBLOCK
 62
5
 10
376.9699106964
 20
84.8525214537
 11
393.1131447593
 21
84.8525214537
  0
LINE
  8
1
  6
BYBLOCK
 62
5
 10
392.1131447593
 20
84.8525214537
 11
392.1131447593
 21
64.6025214537
  0
SOLID
  8
1
  6
CONTINUOUS
 62
5
 10
391.5955066691
 20
66.5343731063
 11
392.6307828495
 21
66.5343731063
 12
392.1131447593
 22
64.6025214537
 13
392.1131447593
 23
64.6025214537
  0
SOLID
  8
1
  6
CONTINUOUS
 62
5
 10
392.6307828495
 20
82.9206698011
 11
391.5955066691
 21
82.9206698011
 12
392.1131447593
 22
84.8525214537
 13
392.1131447593
 23
84.8525214537
  0
TEXT
  8
1
  6
CONTINUOUS
 62
7
 10
391.113145
 20
70.352521
 40
3.500000
  1
20.25
 41
0.786164
 50
90.000000
 51
0.000000
 72
   5
 73
   0
 11
391.113145
 21
79.102521
  0
POINT
  8
DEFPOINTS
  6
BYBLOCK
 62
5
 10
384.4699106964
 20
64.6025214537
  0
POINT
  8
DEFPOINTS
  6
BYBLOCK
 62
5
 10
376.4699106964
 20
84.8525214537
  0
POINT
  8
DEFPOINTS
  6
BYBLOCK
 62
5
 10
392.1131447593
 20
84.8525214537
  0
ENDBLK
  8
0
  0
BLOCK
  8
1
  2
*D19
 70
     1
 10
0.0000000000
 20
0.0000000000
  3
*D19
  0
LINE
  8
1
  6
BYBLOCK
 62
5
 10
376.9699106964
 20
192.8525214537
 11
393.1131447593
 21
192.8525214537
  0
LINE
  8
1
  6
BYBLOCK
 62
5
 10
392.1131447593
 20
192.8525214537
 11
392.1131447593
 21
84.8525214537
  0
SOLID
  8
1
  6
CONTINUOUS
 62
5
 10
391.5955066691
 20
86.7843731063
 11
392.6307828495
 21
86.7843731063
 12
392.1131447593
 22
84.8525214537
 13
392.1131447593
 23
84.8525214537
  0
SOLID
  8
1
  6
CONTINUOUS
 62
5
 10
392.6307828495
 20
190.9206698011
 11
391.5955066691
 21
190.9206698011
 12
392.1131447593
 22
192.8525214537
 13
392.1131447593
 23
192.8525214537
  0
TEXT
  8
1
  6
CONTINUOUS
 62
7
 10
391.113145
 20
136.227521
 40
3.500000
  1
108
 41
0.815217
 50
90.000000
 51
0.000000
 72
   5
 73
   0
 11
391.113145
 21
141.477521
  0
POINT
  8
DEFPOINTS
  6
BYBLOCK
 62
5
 10
376.4699106964
 20
84.8525214537
  0
POINT
  8
DEFPOINTS
  6
BYBLOCK
 62
5
 10
376.4699106964
 20
192.8525214537
  0
POINT
  8
DEFPOINTS
  6
BYBLOCK
 62
5
 10
392.1131447593
 20
192.8525214537
  0
ENDBLK
  8
0
  0
BLOCK
  8
1
  2
*D20
 70
     1
 10
0.0000000000
 20
0.0000000000
  3
*D20
  0
LINE
  8
1
  6
BYBLOCK
 62
5
 10
384.9699106964
 20
220.1025214537
 11
393.1131447593
 21
220.1025214537
  0
LINE
  8
1
  6
BYBLOCK
 62
5
 10
392.1131447593
 20
220.1025214537
 11
392.1131447593
 21
192.8525214537
  0
SOLID
  8
1
  6
CONTINUOUS
 62
5
 10
391.5955066691
 20
194.7843731063
 11
392.6307828495
 21
194.7843731063
 12
392.1131447593
 22
192.8525214537
 13
392.1131447593
 23
192.8525214537
  0
SOLID
  8
1
  6
CONTINUOUS
 62
5
 10
392.6307828495
 20
218.1706698011
 11
391.5955066691
 21
218.1706698011
 12
392.1131447593
 22
220.1025214537
 13
392.1131447593
 23
220.1025214537
  0
TEXT
  8
1
  6
CONTINUOUS
 62
7
 10
391.113145
 20
202.102521
 40
3.500000
  1
27.25
 41
0.786164
 50
90.000000
 51
0.000000
 72
   5
 73
   0
 11
391.113145
 21
210.852521
  0
POINT
  8
DEFPOINTS
  6
BYBLOCK
 62
5
 10
376.4699106964
 20
192.8525214537
  0
POINT
  8
DEFPOINTS
  6
BYBLOCK
 62
5
 10
384.4699106964
 20
220.1025214537
  0
POINT
  8
DEFPOINTS
  6
BYBLOCK
 62
5
 10
392.1131447593
 20
220.1025214537
  0
ENDBLK
  8
0
  0
BLOCK
  8
1
  2
LTEX1
 70
     0
 10
328.3242520258
 20
64.6025214537
  3
LTEX1
  0
SOLID
  8
1
  6
CONTINUOUS
 62
5
 10
329.1464956336
 20
66.4256822939
 11
329.9479162984
 21
65.7703032526
 12
328.3242520258
 22
64.6025214537
 13
328.3242520258
 23
64.6025214537
  0
TEXT
  8
1
  6
CONTINUOUS
 62
7
 10
332.819754
 20
71.099780
 40
2.500000
  1
製品外形
 41
0.886918
 50
0.000000
 51
0.000000
 72
   5
 73
   0
 11
342.819754
 21
71.099780
  0
LINE
  8
1
  6
BYBLOCK
 62
5
 10
328.3242520258
 20
64.6025214537
 11
332.8197537559
 21
70.0997799220
  0
LINE
  8
1
  6
BYBLOCK
 62
5
 10
332.8197537559
 20
70.0997799220
 11
342.8197537559
 21
70.0997799220
  0
ENDBLK
  8
0
  0
BLOCK
  8
1
  2
BALN6
 70
     0
 10
273.9664827132
 20
152.5861924475
  3
BALN6
  0
SOLID
  8
1
  6
CONTINUOUS
 62
5
 10
273.6110642176
 20
154.5543585211
 11
274.6427643038
 21
154.4683835139
 12
273.9664827132
 22
152.5861924475
 13
273.9664827132
 23
152.5861924475
  0
LINE
  8
1
  6
BYBLOCK
 62
5
 10
273.9664827132
 20
152.5861924475
 11
275.9587509371
 21
176.4934111340
  0
CIRCLE
  8
1
  6
BYBLOCK
 62
5
 10
276.2078873766
 20
179.4830484088
 40
3.0000000000
  0
TEXT
  8
1
  6
CONTINUOUS
 62
7
 10
274.457887
 20
177.733048
 40
3.500000
  1
9O
 41
0.854701
 50
0.000000
 51
0.000000
 72
   5
 73
   0
 11
277.957887
 21
177.733048
  0
ENDBLK
  8
0
  0
BLOCK
  8
1
  2
S5
 70
     0
 10
393.0020125722
 20
255.3911338517
  3
S5
  0
LINE
  8
1
  6
CONTINUOUS
 62
6
 10
395.5020125722
 20
253.3911338517
 11
390.5020125722
 21
253.3911338516
  0
TEXT
  8
1
  6
CONTINUOUS
 62
6
 10
392.092863
 20
253.012807
 40
3.300000
  1
F
 41
1.102000
 50
0.000000
 51
0.000000
 72
   5
 73
   0
 11
393.911163
 21
253.012807
  0
LINE
  8
1
  6
CONTINUOUS
 62
6
 10
393.0020125722
 20
257.3911338517
 11
390.5020125722
 21
253.3911338516
  0
LINE
  8
1
  6
CONTINUOUS
 62
6
 10
393.0020125722
 20
257.3911338517
 11
395.5020125722
 21
253.3911338517
  0
POINT
  8
1
  6
CONTINUOUS
 62
6
 10
393.0020125722
 20
255.3911338517
  0
ENDBLK
  8
0
  0
BLOCK
  8
1
  2
S6
 70
     0
 10
108.7860907866
 20
244.3354031146
  3
S6
  0
LINE
  8
1
  6
CONTINUOUS
 62
6
 10
111.2860907866
 20
242.3354031146
 11
106.2860907866
 21
242.3354031146
  0
TEXT
  8
1
  6
CONTINUOUS
 62
6
 10
107.664091
 20
241.957076
 40
3.300000
  1
G
 41
1.360000
 50
0.000000
 51
0.000000
 72
   5
 73
   0
 11
109.908091
 21
241.957076
  0
LINE
  8
1
  6
CONTINUOUS
 62
6
 10
108.7860907866
 20
246.3354031146
 11
106.2860907866
 21
242.3354031146
  0
LINE
  8
1
  6
CONTINUOUS
 62
6
 10
108.7860907866
 20
246.3354031146
 11
111.2860907866
 21
242.3354031146
  0
POINT
  8
1
  6
CONTINUOUS
 62
6
 10
108.7860907866
 20
244.3354031146
  0
ENDBLK
  8
0
  0
BLOCK
  8
1
  2
S7
 70
     0
 10
183.4105174579
 20
186.3525214536
  3
S7
  0
CIRCLE
  8
1
  6
HIDDEN
 62
5
 10
183.4105174579
 20
186.3525214536
 40
4.5000000000
  0
LINE
  8
1
  6
HIDDEN
 62
5
 10
186.7855174581
 20
186.3525214536
 11
180.0355174581
 21
186.3525214536
  0
LINE
  8
1
  6
HIDDEN
 62
5
 10
185.6605174581
 20
184.6650214536
 11
181.1605174581
 21
184.6650214536
  0
LINE
  8
1
  6
HIDDEN
 62
5
 10
184.5355174581
 20
182.9775214536
 11
182.2855174581
 21
182.9775214536
  0
LINE
  8
1
  6
HIDDEN
 62
5
 10
183.4105174579
 20
186.3525214536
 11
183.4105174581
 21
189.7275214536
  0
ENDBLK
  8
0
  0
BLOCK
  8
1
  2
S8
 70
     0
 10
233.9316052311
 20
177.0992534633
  3
S8
  0
LINE
  8
1
  6
CONTINUOUS
 62
6
 10
236.4316052311
 20
175.0992534633
 11
231.4316052311
 21
175.0992534632
  0
TEXT
  8
1
  6
CONTINUOUS
 62
6
 10
232.809605
 20
174.720926
 40
3.300000
  1
G
 41
1.360000
 50
0.000000
 51
0.000000
 72
   5
 73
   0
 11
235.053605
 21
174.720926
  0
LINE
  8
1
  6
CONTINUOUS
 62
6
 10
233.9316052311
 20
179.0992534633
 11
231.4316052311
 21
175.0992534632
  0
LINE
  8
1
  6
CONTINUOUS
 62
6
 10
233.9316052311
 20
179.0992534633
 11
236.4316052311
 21
175.0992534633
  0
POINT
  8
1
  6
CONTINUOUS
 62
6
 10
233.9316052311
 20
177.0992534633
  0
ENDBLK
  8
0
  0
BLOCK
  8
1
  2
LTEX2
 70
     0
 10
197.9105182328
 20
186.3525214536
  3
LTEX2
  0
SOLID
  8
1
  6
CONTINUOUS
 62
5
 10
199.9029220982
 20
186.1783754317
 11
199.5489175839
 21
185.2055046419
 12
197.9105182328
 22
186.3525214536
 13
197.9105182328
 23
186.3525214536
  0
TEXT
  8
1
  6
CONTINUOUS
 62
7
 10
234.064335
 20
174.197009
 40
3.500000
  1
  M4ｱｰｽﾎﾞｽ
 41
0.765697
 50
0.000000
 51
0.000000
 72
   5
 73
   0
 11
251.564335
 21
174.197009
  0
LINE
  8
1
  6
BYBLOCK
 62
5
 10
197.9105182328
 20
186.3525214536
 11
234.0643346497
 21
173.1970085563
  0
LINE
  8
1
  6
BYBLOCK
 62
5
 10
234.0643346497
 20
173.1970085563
 11
251.5643346497
 21
173.1970085563
  0
ENDBLK
  8
0
  0
BLOCK
  8
3
  2
LTEX3
 70
     0
 10
134.5962334454
 20
86.7605564293
  3
LTEX3
  0
SOLID
  8
3
  6
CONTINUOUS
 62
5
 10
135.0708243304
 20
84.8176813710
 11
134.0358036791
 21
84.8406818299
 12
134.5962334454
 22
86.7605564293
 13
134.5962334454
 23
86.7605564293
  0
TEXT
  8
3
  6
CONTINUOUS
 62
7
 10
133.340636
 20
31.258654
 40
3.500000
  1
 PBT品はｱｰｽ部(2箇所) 
 41
0.804598
 50
0.000000
 51
0.000000
 72
   5
 73
   0
 11
170.090636
 21
31.258654
  0
TEXT
  8
3
  6
CONTINUOUS
 62
7
 10
133.340636
 20
26.258654
 40
3.500000
  1
%%uは無いです%%u
 41
0.880282
 50
0.000000
 51
0.000000
 72
   5
 73
   0
 11
150.840636
 21
26.258654
  0
LINE
  8
3
  6
BYBLOCK
 62
5
 10
134.5962334454
 20
86.7605564293
 11
133.3406356149
 21
30.2586540591
  0
LINE
  8
3
  6
BYBLOCK
 62
5
 10
133.3406356149
 20
30.2586540591
 11
170.0906356149
 21
30.2586540591
  0
ENDBLK
  8
0
  0
BLOCK
  8
1
  2
S9
 70
     0
 10
137.2868002249
 20
38.5097255163
  3
S9
  0
LINE
  8
1
  6
CONTINUOUS
 62
6
 10
139.7868002249
 20
36.5097255163
 11
134.7868002249
 21
36.5097255163
  0
TEXT
  8
1
  6
CONTINUOUS
 62
6
 10
136.164800
 20
36.131398
 40
3.300000
  1
G
 41
1.360000
 50
0.000000
 51
0.000000
 72
   5
 73
   0
 11
138.408800
 21
36.131398
  0
LINE
  8
1
  6
CONTINUOUS
 62
6
 10
137.2868002249
 20
40.5097255163
 11
134.7868002249
 21
36.5097255163
  0
LINE
  8
1
  6
CONTINUOUS
 62
6
 10
137.2868002249
 20
40.5097255163
 11
139.7868002249
 21
36.5097255163
  0
POINT
  8
1
  6
CONTINUOUS
 62
6
 10
137.2868002249
 20
38.5097255163
  0
ENDBLK
  8
0
  0
BLOCK
  8
3
  2
LTEX4
 70
     0
 10
88.2645106558
 20
17.3439335173
  3
LTEX4
  0
SOLID
  8
3
  6
CONTINUOUS
 62
5
 10
89.9790701192
 20
18.3736353414
 11
90.2642136195
 21
17.3784017236
 12
88.2645106558
 22
17.3439335173
 13
88.2645106558
 23
17.3439335173
  0
TEXT
  8
3
  6
CONTINUOUS
 62
7
 10
133.340636
 20
31.258654
 40
3.500000
  1
 
 41
1.000000
 50
0.000000
 51
0.000000
 72
   5
 73
   0
 11
135.090636
 21
31.258654
  0
LINE
  8
3
  6
BYBLOCK
 62
5
 10
88.2645106558
 20
17.3439335173
 11
133.3406356149
 21
30.2586540591
  0
LINE
  8
3
  6
BYBLOCK
 62
5
 10
133.3406356149
 20
30.2586540591
 11
135.0906356149
 21
30.2586540591
  0
ENDBLK
  8
0
  0
BLOCK
  8
3
  2
LTEX5
 70
     0
 10
39.2645106558
 20
18.7789024664
  3
LTEX5
  0
SOLID
  8
3
  6
CONTINUOUS
 62
5
 10
41.1194376375
 20
19.5267299150
 11
41.2448382684
 21
18.4990765437
 12
39.2645106558
 22
18.7789024664
 13
39.2645106558
 23
18.7789024664
  0
TEXT
  8
3
  6
CONTINUOUS
 62
7
 10
133.340636
 20
31.258654
 40
3.500000
  1
 
 41
1.000000
 50
0.000000
 51
0.000000
 72
   5
 73
   0
 11
135.090636
 21
31.258654
  0
LINE
  8
3
  6
BYBLOCK
 62
5
 10
39.2645106558
 20
18.7789024664
 11
133.3406356149
 21
30.2586540591
  0
LINE
  8
3
  6
BYBLOCK
 62
5
 10
133.3406356149
 20
30.2586540591
 11
135.0906356149
 21
30.2586540591
  0
ENDBLK
  8
0
  0
BLOCK
  8
1
  2
S10
 70
     0
 10
213.9256723455
 20
267.4081570662
  3
S10
  0
LINE
  8
1
  6
CONTINUOUS
 62
6
 10
216.4256723455
 20
265.4081570662
 11
211.4256723455
 21
265.4081570661
  0
TEXT
  8
1
  6
CONTINUOUS
 62
6
 10
212.803672
 20
265.029830
 40
3.300000
  1
G
 41
1.360000
 50
0.000000
 51
0.000000
 72
   5
 73
   0
 11
215.047672
 21
265.029830
  0
LINE
  8
1
  6
CONTINUOUS
 62
6
 10
213.9256723455
 20
269.4081570662
 11
211.4256723455
 21
265.4081570661
  0
LINE
  8
1
  6
CONTINUOUS
 62
6
 10
213.9256723455
 20
269.4081570662
 11
216.4256723455
 21
265.4081570662
  0
POINT
  8
1
  6
CONTINUOUS
 62
6
 10
213.9256723455
 20
267.4081570662
  0
ENDBLK
  8
0
  0
BLOCK
  8
1
  2
BALN7
 70
     0
 10
176.5315913021
 20
167.4735945239
  3
BALN7
  0
SOLID
  8
1
  6
CONTINUOUS
 62
5
 10
175.1446624712
 20
168.9145762788
 11
176.0509665788
 21
169.4149857455
 12
176.5315913021
 22
167.4735945239
 13
176.5315913021
 23
167.4735945239
  0
LINE
  8
1
  6
BYBLOCK
 62
5
 10
176.5315913021
 20
167.4735945239
 11
174.3620320579
 21
171.4029375629
  0
CIRCLE
  8
1
  6
BYBLOCK
 62
5
 10
172.9119567752
 20
174.0292051948
 40
3.0000000000
  0
TEXT
  8
1
  6
CONTINUOUS
 62
7
 10
171.161957
 20
172.279205
 40
3.500000
  1
10
 41
0.854701
 50
0.000000
 51
0.000000
 72
   5
 73
   0
 11
174.661957
 21
172.279205
  0
ENDBLK
  8
0
  0
BLOCK
  8
1
  2
BALN8
 70
     0
 10
193.9105182328
 20
170.2650214537
  3
BALN8
  0
SOLID
  8
1
  6
CONTINUOUS
 62
5
 10
192.4518344413
 20
171.6333202502
 11
193.3314104115
 21
172.1793448672
 12
193.9105182328
 22
170.2650214537
 13
193.9105182328
 23
170.2650214537
  0
LINE
  8
1
  6
BYBLOCK
 62
5
 10
193.9105182328
 20
170.2650214537
 11
191.8098011901
 21
173.6490085002
  0
CIRCLE
  8
1
  6
BYBLOCK
 62
5
 10
190.2275433521
 20
176.1978239376
 40
3.0000000000
  0
TEXT
  8
1
  6
CONTINUOUS
 62
7
 10
188.477543
 20
174.447824
 40
3.500000
  1
11
 41
0.854701
 50
0.000000
 51
0.000000
 72
   5
 73
   0
 11
191.977543
 21
174.447824
  0
ENDBLK
  8
0
  0
BLOCK
  8
1
  2
BALN9
 70
     0
 10
208.0561454095
 20
152.5861924475
  3
BALN9
  0
SOLID
  8
1
  6
CONTINUOUS
 62
5
 10
207.1902355581
 20
154.3890235903
 11
208.2076610522
 21
154.5804449416
 12
208.0561454095
 22
152.5861924475
 13
208.0561454095
 23
152.5861924475
  0
LINE
  8
1
  6
BYBLOCK
 62
5
 10
208.0561454095
 20
152.5861924475
 11
204.1609493077
 21
173.2895872928
  0
CIRCLE
  8
1
  6
BYBLOCK
 62
5
 10
203.6062528268
 20
176.2378599759
 40
3.0000000000
  0
TEXT
  8
1
  6
CONTINUOUS
 62
7
 10
201.856253
 20
174.487860
 40
3.500000
  1
9A
 41
0.854701
 50
0.000000
 51
0.000000
 72
   5
 73
   0
 11
205.356253
 21
174.487860
  0
ENDBLK
  8
0
  0
BLOCK
  8
1
  2
S11
 70
     0
 10
397.9911248503
 20
265.3911338517
  3
S11
  0
LINE
  8
1
  6
CONTINUOUS
 62
6
 10
400.4911248503
 20
263.3911338517
 11
395.4911248503
 21
263.3911338516
  0
TEXT
  8
1
  6
CONTINUOUS
 62
6
 10
396.869125
 20
263.012807
 40
3.300000
  1
G
 41
1.360000
 50
0.000000
 51
0.000000
 72
   5
 73
   0
 11
399.113125
 21
263.012807
  0
LINE
  8
1
  6
CONTINUOUS
 62
6
 10
397.9911248503
 20
267.3911338517
 11
395.4911248503
 21
263.3911338516
  0
LINE
  8
1
  6
CONTINUOUS
 62
6
 10
397.9911248503
 20
267.3911338517
 11
400.4911248503
 21
263.3911338517
  0
POINT
  8
1
  6
CONTINUOUS
 62
6
 10
397.9911248503
 20
265.3911338517
  0
ENDBLK
  8
0
  0
ENDSEC
  0
SECTION
  2
ENTITIES
  0
LINE
  8
1
  6
CONTINUOUS
 62
7
 10
95.7645106558
 20
65.6025214537
 11
95.7645106558
 21
209.4775214537
  0
LINE
  8
1
  6
CONTINUOUS
 62
7
 10
28.7645106558
 20
209.4775214537
 11
28.7645106558
 21
65.6025214537
  0
LINE
  8
1
  6
CONTINUOUS
 62
7
 10
96.7645106558
 20
64.6025214537
 11
96.7645106558
 21
220.1025214537
  0
LINE
  8
1
  6
CONTINUOUS
 62
7
 10
27.7645106558
 20
220.1025214537
 11
27.7645106558
 21
64.6025214537
  0
LINE
  8
1
  6
DASHDOT
 62
1
 10
101.7645106558
 20
213.1025214537
 11
22.7645106558
 21
213.1025214537
  0
LINE
  8
1
  6
CONTINUOUS
 62
7
 10
96.7645106558
 20
64.6025214537
 11
76.7270138153
 21
64.6025214537
  0
LINE
  8
1
  6
CONTINUOUS
 62
7
 10
47.8020074964
 20
64.6025214537
 11
27.7645106558
 21
64.6025214537
  0
LINE
  8
1
  6
CONTINUOUS
 62
7
 10
28.7645106558
 20
65.6025214537
 11
45.5659395189
 21
65.6025214537
  0
LINE
  8
1
  6
CONTINUOUS
 62
7
 10
78.9630817928
 20
65.6025214537
 11
95.7645106558
 21
65.6025214537
  0
LINE
  8
1
  6
CONTINUOUS
 62
7
 10
124.4661466639
 20
207.1025214537
 11
124.4661466639
 21
65.6025214537
  0
CIRCLE
  8
1
  6
CONTINUOUS
 62
7
 10
121.4661466639
 20
213.1025214537
 40
2.0000000000
  0
ARC
  8
1
  6
CONTINUOUS
 62
7
 10
121.4661466639
 20
213.1025214537
 40
6.0000000000
 50
90.0000000000
 51
270.0000000000
  0
LINE
  8
1
  6
CONTINUOUS
 62
7
 10
124.4661466639
 20
207.1025214537
 11
121.4661466639
 21
207.1025214537
  0
LINE
  8
1
  6
CONTINUOUS
 62
7
 10
124.4661466639
 20
219.1025214537
 11
121.4661466639
 21
219.1025214537
  0
LINE
  8
1
  6
CONTINUOUS
 62
7
 10
133.4661466639
 20
220.1025214537
 11
133.4661466639
 21
64.6025214537
  0
LINE
  8
1
  6
CONTINUOUS
 62
7
 10
28.7645106558
 20
207.1025214537
 11
28.7645106558
 21
219.1025214537
  0
LINE
  8
1
  6
CONTINUOUS
 62
7
 10
28.7645106558
 20
219.1025214537
 11
33.7645106558
 21
219.1025214537
  0
LINE
  8
1
  6
CONTINUOUS
 62
7
 10
33.7645106558
 20
219.1025214537
 11
33.7645106558
 21
207.1025214537
  0
LINE
  8
1
  6
CONTINUOUS
 62
7
 10
33.7645106558
 20
207.1025214537
 11
28.7645106558
 21
207.1025214537
  0
LINE
  8
1
  6
CONTINUOUS
 62
7
 10
95.7645106558
 20
219.1025214537
 11
90.7645106558
 21
219.1025214537
  0
LINE
  8
1
  6
CONTINUOUS
 62
7
 10
90.7645106558
 20
219.1025214537
 11
90.7645106558
 21
207.1025214537
  0
LINE
  8
1
  6
CONTINUOUS
 62
7
 10
90.7645106558
 20
207.1025214537
 11
95.7645106558
 21
207.1025214537
  0
LINE
  8
1
  6
CONTINUOUS
 62
7
 10
95.7645106558
 20
207.1025214537
 11
95.7645106558
 21
219.1025214537
  0
LINE
  8
1
  6
CONTINUOUS
 62
7
 10
90.7645106558
 20
207.1025214537
 11
90.7645106558
 21
206.1025214537
  0
LINE
  8
1
  6
CONTINUOUS
 62
7
 10
33.7645106558
 20
206.1025214537
 11
33.7645106558
 21
207.1025214537
  0
LINE
  8
1
  6
CONTINUOUS
 62
7
 10
96.7645106558
 20
220.1025214537
 11
27.7645106558
 21
220.1025214537
  0
LINE
  8
1
  6
CONTINUOUS
 62
7
 10
96.7645106558
 20
27.5484212565
 11
27.7645106558
 21
27.5484212565
  0
LINE
  8
1
  6
CONTINUOUS
 62
7
 10
28.7645106558
 20
36.5484212565
 11
95.7645106558
 21
36.5484212565
  0
LINE
  8
1
  6
CONTINUOUS
 62
7
 10
133.4661466639
 20
64.6025214537
 11
124.4661466639
 21
65.6025214537
  0
LINE
  8
1
  6
CONTINUOUS
 62
7
 10
133.4661466639
 20
220.1025214537
 11
124.4661466639
 21
219.1025214537
  0
LINE
  8
1
  6
CONTINUOUS
 62
7
 10
28.7645106558
 20
36.5484212565
 11
27.7645106558
 21
27.5484212565
  0
LINE
  8
1
  6
CONTINUOUS
 62
7
 10
95.7645106558
 20
36.5484212565
 11
96.7645106558
 21
27.5484212565
  0
LINE
  8
1
  6
HIDDEN
 62
7
 10
124.4661466639
 20
206.1025214537
 11
127.9661466639
 21
206.1025214537
  0
LINE
  8
1
  6
HIDDEN
 62
7
 10
127.9661466639
 20
206.1025214537
 11
127.9661466639
 21
219.4914103426
  0
LINE
  8
1
  6
HIDDEN
 62
7
 10
34.7645106558
 20
33.5484212565
 11
34.7645106558
 21
36.5484212565
  0
LINE
  8
1
  6
HIDDEN
 62
7
 10
89.7645106558
 20
33.5484212565
 11
34.7645106558
 21
33.5484212565
  0
LINE
  8
1
  6
HIDDEN
 62
7
 10
89.7645106558
 20
33.5484212565
 11
89.7645106558
 21
36.5484212565
  0
LINE
  8
1
  6
HIDDEN
 62
7
 10
85.5145106558
 20
33.5484212565
 11
85.5145106558
 21
29.5484212565
  0
LINE
  8
1
  6
HIDDEN
 62
7
 10
85.5145106558
 20
29.5484212565
 11
84.0145106559
 21
29.5484212565
  0
LINE
  8
1
  6
HIDDEN
 62
7
 10
80.5145106559
 20
29.5484212565
 11
79.0145106558
 21
29.5484212565
  0
LINE
  8
1
  6
HIDDEN
 62
7
 10
79.0145106558
 20
29.5484212565
 11
79.0145106558
 21
33.5484212565
  0
LINE
  8
1
  6
HIDDEN
 62
7
 10
80.5145106559
 20
29.5484212565
 11
80.5145106556
 21
27.5484212565
  0
LINE
  8
1
  6
HIDDEN
 62
7
 10
84.0145106559
 20
29.5484212565
 11
84.0145106558
 21
27.5484212565
  0
LINE
  8
1
  6
HIDDEN
 62
7
 10
39.0145106558
 20
33.5484212565
 11
39.0145106558
 21
29.5484212565
  0
LINE
  8
1
  6
HIDDEN
 62
7
 10
39.0145106558
 20
29.5484212565
 11
40.5145106558
 21
29.5484212565
  0
LINE
  8
1
  6
HIDDEN
 62
7
 10
44.0145106558
 20
29.5484212565
 11
45.5145106558
 21
29.5484212565
  0
LINE
  8
1
  6
HIDDEN
 62
7
 10
45.5145106558
 20
29.5484212565
 11
45.5145106558
 21
33.5484212565
  0
LINE
  8
1
  6
HIDDEN
 62
7
 10
44.0145106558
 20
29.5484212565
 11
44.0145106561
 21
27.5484212565
  0
LINE
  8
1
  6
HIDDEN
 62
7
 10
40.5145106558
 20
29.5484212565
 11
40.5145106559
 21
27.5484212565
  0
LINE
  8
1
  6
HIDDEN
 62
7
 10
60.2645106558
 20
33.5484212565
 11
60.2645106558
 21
27.5484212565
  0
LINE
  8
1
  6
HIDDEN
 62
7
 10
64.2645106558
 20
33.5484212565
 11
64.2645106558
 21
27.5484212565
  0
LINE
  8
1
  6
HIDDEN
 62
7
 10
63.9145106558
 20
33.5484212565
 11
63.9145106558
 21
27.5484212565
  0
LINE
  8
1
  6
HIDDEN
 62
7
 10
60.6145106558
 20
33.5484212565
 11
60.6145106558
 21
27.5484212565
  0
LINE
  8
1
  6
HIDDEN
 62
7
 10
124.4661466639
 20
201.1025214537
 11
127.9661466639
 21
201.1025214537
  0
LINE
  8
1
  6
HIDDEN
 62
7
 10
127.9661466639
 20
200.4775214537
 11
127.9661466639
 21
76.6025214537
  0
LINE
  8
1
  6
HIDDEN
 62
7
 10
127.9661466639
 20
76.6025214537
 11
124.4661466639
 21
76.6025214537
  0
LINE
  8
1
  6
HIDDEN
 62
7
 10
127.9661466639
 20
85.3525214537
 11
133.4661466639
 21
85.3525214537
  0
LINE
  8
1
  6
HIDDEN
 62
7
 10
127.9661466639
 20
192.3525214537
 11
133.4661466639
 21
192.3525214537
  0
LINE
  8
1
  6
HIDDEN
 62
7
 10
127.9661466639
 20
83.6025214537
 11
131.9661466639
 21
83.6025214537
  0
LINE
  8
1
  6
HIDDEN
 62
7
 10
131.9661466639
 20
83.6025214537
 11
131.9661466639
 21
82.1025214537
  0
LINE
  8
1
  6
HIDDEN
 62
7
 10
131.9661466639
 20
78.6025214537
 11
131.9661466639
 21
77.1025214537
  0
LINE
  8
1
  6
HIDDEN
 62
7
 10
131.9661466639
 20
77.1025214537
 11
127.9661466639
 21
77.1025214537
  0
LINE
  8
1
  6
HIDDEN
 62
7
 10
131.9661466639
 20
78.6025214537
 11
133.4661466639
 21
78.6025214535
  0
LINE
  8
1
  6
HIDDEN
 62
7
 10
131.9661466639
 20
82.1025214537
 11
133.4661466639
 21
82.1025214648
  0
LINE
  8
1
  6
HIDDEN
 62
7
 10
127.9661466639
 20
194.1025214537
 11
131.9661466639
 21
194.1025214537
  0
LINE
  8
1
  6
HIDDEN
 62
7
 10
131.9661466639
 20
194.1025214537
 11
131.9661466639
 21
195.6025214537
  0
LINE
  8
1
  6
HIDDEN
 62
7
 10
131.9661466639
 20
199.1025214537
 11
131.9661466639
 21
200.6025214537
  0
LINE
  8
1
  6
HIDDEN
 62
7
 10
131.9661466639
 20
200.6025214537
 11
127.9661466639
 21
200.6025214537
  0
LINE
  8
1
  6
HIDDEN
 62
7
 10
131.9661466639
 20
199.1025214537
 11
133.4661466639
 21
199.1025214539
  0
LINE
  8
1
  6
HIDDEN
 62
7
 10
131.9661466639
 20
195.6025214537
 11
133.4661466639
 21
195.6025214425
  0
ARC
  8
2
  6
HIDDEN
 62
5
 10
121.4661466639
 20
213.1025214537
 40
6.0000000000
 50
294.6243183522
 51
164.1092389898
  0
LINE
  8
2
  6
HIDDEN
 62
5
 10
123.9661466639
 20
207.6481653964
 11
123.9661466639
 21
207.1025214537
  0
LINE
  8
2
  6
CONTINUOUS
 62
5
 10
123.9661466639
 20
207.1025214537
 11
123.9661466639
 21
65.6025214537
  0
LINE
  8
2
  6
CONTINUOUS
 62
5
 10
115.8202125868
 20
65.6025214537
 11
123.9661466639
 21
65.6025214537
  0
LINE
  8
2
  6
CONTINUOUS
 62
5
 10
109.4661466639
 20
61.6025214537
 11
109.4661466639
 21
192.4775214537
  0
LINE
  8
2
  6
CONTINUOUS
 62
5
 10
123.9661466639
 20
206.1025214537
 11
113.2892089437
 21
206.1025214537
  0
CIRCLE
  8
2
  6
CONTINUOUS
 62
5
 10
121.4661466639
 20
213.1025214537
 40
2.0000000000
  0
LINE
  8
2
  6
CONTINUOUS
 62
5
 10
29.7645106558
 20
206.1025214537
 11
33.9645106558
 21
206.1025214537
  0
LINE
  8
2
  6
CONTINUOUS
 62
5
 10
33.9645106558
 20
206.1025214537
 11
33.9645106558
 21
219.1025214537
  0
LINE
  8
2
  6
CONTINUOUS
 62
5
 10
33.9645106558
 20
219.1025214537
 11
90.5645106558
 21
219.1025214537
  0
LINE
  8
2
  6
CONTINUOUS
 62
5
 10
90.5645106558
 20
219.1025214537
 11
90.5645106558
 21
206.1025214537
  0
LINE
  8
2
  6
CONTINUOUS
 62
5
 10
90.5645106558
 20
206.1025214537
 11
94.7645106558
 21
206.1025214537
  0
LINE
  8
2
  6
CONTINUOUS
 62
5
 10
94.7645106558
 20
206.1025214537
 11
94.7645106558
 21
65.6025214537
  0
LINE
  8
2
  6
CONTINUOUS
 62
5
 10
78.9630817928
 20
65.6025214537
 11
94.7645106558
 21
65.6025214537
  0
LINE
  8
2
  6
CONTINUOUS
 62
5
 10
45.5659395189
 20
65.6025214537
 11
29.7645106558
 21
65.6025214537
  0
LINE
  8
2
  6
CONTINUOUS
 62
5
 10
29.7645106558
 20
65.6025214537
 11
29.7645106558
 21
206.1025214537
  0
LINE
  8
2
  6
CONTINUOUS
 62
5
 10
49.3906030156
 20
62.0590341874
 11
48.1384182961
 21
64.1460087200
  0
LINE
  8
2
  6
CONTINUOUS
 62
5
 10
72.5659395189
 20
60.6025214537
 11
51.9630817928
 21
60.6025214537
  0
ARC
  8
2
  6
CONTINUOUS
 62
5
 10
45.5659395189
 20
62.6025214537
 40
3.0000000000
 50
30.9637565321
 51
90.0000000000
  0
ARC
  8
2
  6
CONTINUOUS
 62
5
 10
51.9630817928
 20
63.6025214537
 40
3.0000000000
 50
210.9637565321
 51
270.0000000000
  0
LINE
  8
2
  6
CONTINUOUS
 62
5
 10
75.1384182961
 20
62.0590341874
 11
76.3906030156
 21
64.1460087200
  0
ARC
  8
2
  6
CONTINUOUS
 62
5
 10
78.9630817928
 20
62.6025214537
 40
3.0000000000
 50
90.0000000000
 51
149.0362434679
  0
ARC
  8
2
  6
CONTINUOUS
 62
5
 10
72.5659395189
 20
63.6025214537
 40
3.0000000000
 50
270.0000000000
 51
329.0362434679
  0
LINE
  8
2
  6
HIDDEN
 62
5
 10
109.4661466639
 20
70.7525214537
 11
111.4661466639
 21
70.7525214537
  0
LINE
  8
2
  6
HIDDEN
 62
5
 10
111.4661466639
 20
71.1025214537
 11
109.4661466639
 21
71.1025214537
  0
LINE
  8
2
  6
HIDDEN
 62
5
 10
111.4661466639
 20
71.3525214537
 11
123.9661466639
 21
71.3525214537
  0
LINE
  8
2
  6
HIDDEN
 62
5
 10
109.4661466639
 20
67.4525214537
 11
111.4661466639
 21
67.4525214537
  0
LINE
  8
2
  6
HIDDEN
 62
5
 10
111.4661466639
 20
67.1025214537
 11
109.4661466639
 21
67.1025214537
  0
LINE
  8
2
  6
HIDDEN
 62
5
 10
111.4661466639
 20
66.8525214537
 11
123.9661466639
 21
66.8525214537
  0
LINE
  8
2
  6
HIDDEN
 62
5
 10
111.4661466639
 20
71.3525214537
 11
111.4661466639
 21
66.8525214537
  0
LINE
  8
1
  6
HIDDEN
 62
7
 10
124.4661466639
 20
71.1025214537
 11
133.4661466639
 21
71.1025214537
  0
LINE
  8
1
  6
HIDDEN
 62
7
 10
124.4661466639
 20
70.7525214537
 11
133.4661466639
 21
70.7525214537
  0
LINE
  8
1
  6
HIDDEN
 62
7
 10
124.4661466639
 20
67.4525214537
 11
133.4661466639
 21
67.4525214537
  0
LINE
  8
1
  6
HIDDEN
 62
7
 10
124.4661466639
 20
67.1025214537
 11
133.4661466639
 21
67.1025214537
  0
LINE
  8
2
  6
CONTINUOUS
 62
5
 10
113.9632592050
 20
64.3453028064
 11
112.7175903934
 21
61.2311307773
  0
LINE
  8
2
  6
CONTINUOUS
 62
5
 10
111.7891137025
 20
60.6025214537
 11
110.4661466639
 21
60.6025214537
  0
LINE
  8
2
  6
CONTINUOUS
 62
5
 10
36.2645106558
 20
51.5484212565
 11
88.2645106558
 21
51.5484212565
  0
LINE
  8
2
  6
CONTINUOUS
 62
5
 10
94.7645106558
 20
43.5484212565
 11
94.7645106558
 21
37.0484212565
  0
LINE
  8
2
  6
CONTINUOUS
 62
5
 10
94.7645106558
 20
37.0484212565
 11
29.7645106558
 21
37.0484212565
  0
LINE
  8
2
  6
CONTINUOUS
 62
5
 10
29.7645106558
 20
37.0484212565
 11
29.7645106558
 21
43.5484212565
  0
LINE
  8
2
  6
CONTINUOUS
 62
5
 10
94.7645106558
 20
43.5484212565
 11
88.2645106558
 21
51.5484212565
  0
LINE
  8
2
  6
CONTINUOUS
 62
5
 10
36.2645106558
 20
51.5484212565
 11
29.7645106558
 21
43.5484212565
  0
LINE
  8
2
  6
CONTINUOUS
 62
5
 10
33.8539337328
 20
206.1025214537
 11
36.2645106558
 21
192.4775214537
  0
LINE
  8
2
  6
CONTINUOUS
 62
5
 10
36.2645106558
 20
192.4775214537
 11
88.2645106558
 21
192.4775214537
  0
LINE
  8
2
  6
CONTINUOUS
 62
5
 10
88.2645106558
 20
192.4775214537
 11
90.6750875789
 21
206.1025214537
  0
LINE
  8
2
  6
CONTINUOUS
 62
5
 10
88.2645106558
 20
192.4775214537
 11
88.2645106558
 21
65.6025214537
  0
LINE
  8
2
  6
CONTINUOUS
 62
5
 10
36.2645106558
 20
65.6025214537
 11
36.2645106558
 21
192.4775214537
  0
LINE
  8
2
  6
CONTINUOUS
 62
5
 10
45.5659395189
 20
51.5484212565
 11
45.5659395189
 21
46.5484212565
  0
LINE
  8
2
  6
CONTINUOUS
 62
5
 10
45.5659395189
 20
46.5484212565
 11
51.9630817928
 21
48.5484212565
  0
LINE
  8
2
  6
CONTINUOUS
 62
5
 10
51.9630817928
 20
48.5484212565
 11
72.5659395189
 21
48.5484212565
  0
LINE
  8
2
  6
CONTINUOUS
 62
5
 10
72.5659395189
 20
48.5484212565
 11
78.9630817928
 21
46.5484212565
  0
LINE
  8
2
  6
CONTINUOUS
 62
5
 10
78.9630817928
 20
46.5484212565
 11
78.9630817928
 21
51.5484212565
  0
LINE
  8
2
  6
CONTINUOUS
 62
5
 10
51.9630817928
 20
51.5484212565
 11
51.9630817928
 21
48.5484212565
  0
LINE
  8
2
  6
CONTINUOUS
 62
5
 10
72.5659395189
 20
51.5484212565
 11
72.5659395189
 21
48.5484212565
  0
LINE
  8
2
  6
CONTINUOUS
 62
5
 10
45.5659395189
 20
46.5484212565
 11
78.9630817928
 21
46.5484212565
  0
ARC
  8
2
  6
CONTINUOUS
 62
5
 10
110.4661466639
 20
61.6025214537
 40
1.0000000000
 50
180.0000000000
 51
270.0000000000
  0
ARC
  8
2
  6
CONTINUOUS
 62
5
 10
111.7891137025
 20
61.6025214537
 40
1.0000000000
 50
270.0000000000
 51
338.1985905136
  0
ARC
  8
2
  6
CONTINUOUS
 62
5
 10
115.8202125868
 20
63.6025214537
 40
2.0000000000
 50
90.0000000000
 51
158.1985905136
  0
LINE
  8
1
  6
CONTINUOUS
 62
7
 10
96.7645106558
 20
27.5484212565
 11
27.7645106558
 21
27.5484212565
  0
LINE
  8
2
  6
CONTINUOUS
 62
5
 10
124.9661466639
 20
204.3525214537
 11
123.9661466639
 21
204.3525214537
  0
LINE
  8
2
  6
CONTINUOUS
 62
5
 10
124.9661466639
 20
204.3525214537
 11
124.9661466639
 21
203.8525214537
  0
LINE
  8
2
  6
CONTINUOUS
 62
5
 10
124.9661466639
 20
203.8525214537
 11
123.9661466639
 21
203.8525214537
  0
LINE
  8
2
  6
HIDDEN
 62
5
 10
123.9661466639
 20
203.8525214537
 11
114.7351177630
 21
203.8525214537
  0
LINE
  8
2
  6
CONTINUOUS
 62
5
 10
123.9661466639
 20
73.3525214537
 11
124.9661466639
 21
73.3525214537
  0
LINE
  8
2
  6
CONTINUOUS
 62
5
 10
124.9661466639
 20
73.3525214537
 11
124.9661466639
 21
73.8525214537
  0
LINE
  8
2
  6
CONTINUOUS
 62
5
 10
124.9661466639
 20
73.8525214537
 11
123.9661466639
 21
73.8525214537
  0
LINE
  8
2
  6
HIDDEN
 62
5
 10
123.9661466639
 20
73.8525214537
 11
111.4661466639
 21
73.8525214537
  0
LINE
  8
1
  6
CONTINUOUS
 62
7
 10
219.9105182328
 20
201.1025214537
 11
167.9105182328
 21
201.1025214537
  0
LINE
  8
1
  6
CONTINUOUS
 62
7
 10
221.4105182328
 20
78.1025214537
 11
221.4105182328
 21
199.6025214537
  0
LINE
  8
1
  6
CONTINUOUS
 62
7
 10
167.9105182328
 20
76.6025214537
 11
219.9105182328
 21
76.6025214537
  0
LINE
  8
1
  6
CONTINUOUS
 62
7
 10
166.4105182328
 20
78.1025214537
 11
166.4105182328
 21
199.6025214537
  0
LINE
  8
1
  6
CONTINUOUS
 62
7
 10
223.4105182328
 20
75.6025214537
 11
223.4105182328
 21
202.1025214537
  0
LINE
  8
1
  6
CONTINUOUS
 62
7
 10
222.4105182328
 20
203.1025214537
 11
165.4105182328
 21
203.1025214537
  0
LINE
  8
1
  6
CONTINUOUS
 62
7
 10
164.4105182328
 20
75.6025214537
 11
164.4105182328
 21
202.1025214537
  0
LINE
  8
1
  6
CONTINUOUS
 62
7
 10
165.4105182328
 20
74.6025214537
 11
222.4105182328
 21
74.6025214537
  0
ARC
  8
1
  6
CONTINUOUS
 62
7
 10
167.9105182328
 20
199.6025214537
 40
1.5000000000
 50
90.0000000000
 51
180.0000000000
  0
ARC
  8
1
  6
CONTINUOUS
 62
7
 10
219.9105182328
 20
199.6025214537
 40
1.5000000000
 50
0.0000000000
 51
90.0000000000
  0
ARC
  8
1
  6
CONTINUOUS
 62
7
 10
219.9105182328
 20
78.1025214537
 40
1.5000000000
 50
270.0000000000
 51
0.0000000000
  0
ARC
  8
1
  6
CONTINUOUS
 62
7
 10
167.9105182328
 20
78.1025214537
 40
1.5000000000
 50
180.0000000000
 51
270.0000000000
  0
CIRCLE
  8
1
  6
HIDDEN
 62
3
 10
173.9105182328
 20
197.3525214537
 40
1.7500000000
  0
CIRCLE
  8
1
  6
HIDDEN
 62
3
 10
173.9105182328
 20
197.3525214537
 40
3.2500000000
  0
CIRCLE
  8
1
  6
HIDDEN
 62
3
 10
213.9105182328
 20
197.3525214537
 40
1.7500000000
  0
CIRCLE
  8
1
  6
HIDDEN
 62
3
 10
213.9105182328
 20
197.3525214537
 40
3.2500000000
  0
LINE
  8
1
  6
HIDDEN
 62
3
 10
216.9105182328
 20
192.3525214537
 11
219.9105182328
 21
192.3525214537
  0
LINE
  8
1
  6
HIDDEN
 62
3
 10
168.9105182328
 20
192.3525214537
 11
216.9105182328
 21
192.3525214537
  0
CIRCLE
  8
1
  6
HIDDEN
 62
3
 10
173.9105182328
 20
80.3525214537
 40
1.7500000000
  0
CIRCLE
  8
1
  6
HIDDEN
 62
3
 10
173.9105182328
 20
80.3525214537
 40
3.2500000000
  0
CIRCLE
  8
1
  6
HIDDEN
 62
3
 10
213.9105182328
 20
80.3525214537
 40
1.7500000000
  0
CIRCLE
  8
1
  6
HIDDEN
 62
3
 10
213.9105182328
 20
80.3525214537
 40
3.2500000000
  0
CIRCLE
  8
1
  6
HIDDEN
 62
3
 10
193.9105182328
 20
197.3525214537
 40
2.0000000000
  0
LINE
  8
1
  6
CONTINUOUS
 62
7
 10
225.4105182328
 20
75.6025214537
 11
225.4105182328
 21
202.1025214537
  0
LINE
  8
1
  6
CONTINUOUS
 62
7
 10
222.4105182328
 20
205.1025214537
 11
165.4105182328
 21
205.1025214537
  0
LINE
  8
1
  6
CONTINUOUS
 62
7
 10
162.4105182328
 20
75.6025214537
 11
162.4105182328
 21
202.1025214537
  0
LINE
  8
1
  6
CONTINUOUS
 62
7
 10
165.4105182328
 20
72.6025214537
 11
222.4105182328
 21
72.6025214537
  0
LINE
  8
1
  6
CONTINUOUS
 62
7
 10
227.4105182328
 20
65.6025214537
 11
227.4105182328
 21
209.4775214537
  0
LINE
  8
1
  6
CONTINUOUS
 62
7
 10
160.4105182328
 20
209.4775214537
 11
160.4105182328
 21
65.6025214537
  0
LINE
  8
1
  6
CONTINUOUS
 62
7
 10
228.4105182328
 20
64.6025214537
 11
228.4105182328
 21
220.1025214537
  0
LINE
  8
1
  6
CONTINUOUS
 62
7
 10
159.4105182328
 20
220.1025214537
 11
159.4105182328
 21
64.6025214537
  0
ARC
  8
1
  6
CONTINUOUS
 62
7
 10
165.4105182328
 20
202.1025214537
 40
1.0000000000
 50
90.0000000000
 51
180.0000000000
  0
ARC
  8
1
  6
CONTINUOUS
 62
7
 10
222.4105182328
 20
202.1025214537
 40
1.0000000000
 50
0.0000000000
 51
90.0000000000
  0
ARC
  8
1
  6
CONTINUOUS
 62
7
 10
222.4105182328
 20
75.6025214537
 40
1.0000000000
 50
270.0000000000
 51
0.0000000000
  0
ARC
  8
1
  6
CONTINUOUS
 62
7
 10
165.4105182328
 20
75.6025214537
 40
1.0000000000
 50
180.0000000000
 51
270.0000000000
  0
LINE
  8
1
  6
HIDDEN
 62
3
 10
219.9105182328
 20
182.3525214537
 11
219.9105182328
 21
192.3525214537
  0
ARC
  8
1
  6
CONTINUOUS
 62
7
 10
165.4105182328
 20
202.1025214537
 40
3.0000000000
 50
90.0000000000
 51
180.0000000000
  0
ARC
  8
1
  6
CONTINUOUS
 62
7
 10
222.4105182328
 20
202.1025214537
 40
3.0000000000
 50
0.0000000000
 51
90.0000000000
  0
ARC
  8
1
  6
CONTINUOUS
 62
7
 10
222.4105182328
 20
75.6025214537
 40
3.0000000000
 50
270.0000000000
 51
0.0000000000
  0
ARC
  8
1
  6
CONTINUOUS
 62
7
 10
165.4105182328
 20
75.6025214537
 40
3.0000000000
 50
180.0000000000
 51
270.0000000000
  0
LINE
  8
1
  6
DASHDOT
 62
1
 10
230.4105182328
 20
213.1025214537
 11
157.4105182328
 21
213.1025214537
  0
LINE
  8
1
  6
CONTINUOUS
 62
7
 10
228.4105182328
 20
64.6025214537
 11
159.4105182328
 21
64.6025214537
  0
LINE
  8
1
  6
CONTINUOUS
 62
7
 10
160.4105182328
 20
65.6025214537
 11
227.4105182328
 21
65.6025214537
  0
LINE
  8
1
  6
CONTINUOUS
 62
7
 10
160.4105182328
 20
207.1025214537
 11
160.4105182328
 21
219.1025214537
  0
LINE
  8
1
  6
CONTINUOUS
 62
7
 10
160.4105182328
 20
219.1025214537
 11
165.4105182328
 21
219.1025214537
  0
LINE
  8
1
  6
CONTINUOUS
 62
7
 10
165.4105182328
 20
219.1025214537
 11
165.4105182328
 21
207.1025214537
  0
LINE
  8
1
  6
CONTINUOUS
 62
7
 10
165.4105182328
 20
207.1025214537
 11
160.4105182328
 21
207.1025214537
  0
LINE
  8
1
  6
CONTINUOUS
 62
7
 10
227.4105182328
 20
219.1025214537
 11
222.4105182328
 21
219.1025214537
  0
LINE
  8
1
  6
CONTINUOUS
 62
7
 10
222.4105182328
 20
219.1025214537
 11
222.4105182328
 21
207.1025214537
  0
LINE
  8
1
  6
CONTINUOUS
 62
7
 10
222.4105182328
 20
207.1025214537
 11
227.4105182328
 21
207.1025214537
  0
LINE
  8
1
  6
CONTINUOUS
 62
7
 10
227.4105182328
 20
207.1025214537
 11
227.4105182328
 21
219.1025214537
  0
LINE
  8
1
  6
CONTINUOUS
 62
7
 10
222.4105182328
 20
207.1025214537
 11
222.4105182328
 21
206.1025214537
  0
LINE
  8
1
  6
CONTINUOUS
 62
7
 10
222.4105182328
 20
206.1025214537
 11
165.4105182328
 21
206.1025214537
  0
LINE
  8
1
  6
CONTINUOUS
 62
7
 10
165.4105182328
 20
206.1025214537
 11
165.4105182328
 21
207.1025214537
  0
LINE
  8
1
  6
CONTINUOUS
 62
7
 10
228.4105182328
 20
220.1025214537
 11
159.4105182328
 21
220.1025214537
  0
CIRCLE
  8
1
  6
HIDDEN
 62
3
 10
193.9105182328
 20
197.3525214537
 40
1.6500000000
  0
CIRCLE
  8
1
  6
HIDDEN
 62
3
 10
193.9105182328
 20
80.3525214537
 40
2.0000000000
  0
CIRCLE
  8
1
  6
HIDDEN
 62
3
 10
193.9105182328
 20
80.3525214537
 40
1.6500000000
  0
CIRCLE
  8
1
  6
HIDDEN
 62
7
 10
193.9105182328
 20
69.1025214537
 40
2.0000000000
  0
CIRCLE
  8
1
  6
CONTINUOUS
 62
7
 10
193.9105182328
 20
69.1025214537
 40
1.6500000000
  0
INSERT
  8
5
  6
CONTINUOUS
 62
7
  2
S0
 10
0.0000000000
 20
0.0000000000
  0
TEXT
  8
5
  6
CONTINUOUS
 62
7
 10
349.684277
 20
5.000000
 40
6.000000
  1
M0051A052G
 41
0.765697
 50
0.000000
 51
0.000000
 72
   5
 73
   0
 11
379.684277
 21
5.000000
  0
TEXT
  8
5
  6
CONTINUOUS
 62
7
 10
348.653069
 20
20.642557
 40
5.000000
  1
Panel Interface
 41
0.759109
 50
0.000000
 51
0.000000
 72
   5
 73
   0
 11
386.153069
 21
20.642557
  0
TEXT
  8
5
  6
CONTINUOUS
 62
7
 10
348.653069
 20
15.642557
 40
5.000000
  1
Type:MCON-001-052-*
 41
0.756369
 50
0.000000
 51
0.000000
 72
   5
 73
   0
 11
396.153069
 21
15.642557
  0
TEXT
  8
5
  6
CONTINUOUS
 62
7
 10
293.500000
 20
10.750000
 40
3.000000
  1
Yamada
 41
0.779221
 50
0.000000
 51
0.000000
 72
   5
 73
   0
 11
302.500000
 21
10.750000
  0
TEXT
  8
5
  6
CONTINUOUS
 62
7
 10
304.500000
 20
10.750000
 40
3.000000
  1
Yamada
 41
0.779221
 50
0.000000
 51
0.000000
 72
   5
 73
   0
 11
313.500000
 21
10.750000
  0
TEXT
  8
1
  6
CONTINUOUS
 62
7
 10
178.408984
 20
56.344007
 40
4.000000
  1
内 部 図
 41
0.854701
 50
0.000000
 51
0.000000
 72
   5
 73
   0
 11
194.408984
 21
56.344007
  0
DIMENSION
  8
1
  6
CONTINUOUS
 62
5
  2
*D0
 10
111.4661466639
 20
98.7193009011
 11
119.7161466639
 21
101.4693009011
  70
0
 13
127.9661466639
 23
93.8244525436
 14
111.4661466639
 24
93.8244525436
 50
0.000000
  0
CIRCLE
  8
1
  6
CONTINUOUS
 62
5
 10
137.4661466639
 20
187.3525214537
 40
2.0000000000
  0
LINE
  8
1
  6
CONTINUOUS
 62
5
 10
135.9661466638
 20
187.3525214537
 11
138.9661466638
 21
187.3525214537
  0
LINE
  8
1
  6
CONTINUOUS
 62
5
 10
136.4661466638
 20
186.6025214537
 11
138.4661466638
 21
186.6025214537
  0
LINE
  8
1
  6
CONTINUOUS
 62
5
 10
136.9661466638
 20
185.8525214537
 11
137.9661466638
 21
185.8525214537
  0
LINE
  8
1
  6
CONTINUOUS
 62
5
 10
137.4661466639
 20
187.3525214537
 11
137.4661466638
 21
188.8525214537
  0
LINE
  8
1
  6
HIDDEN
 62
3
 10
219.9105182328
 20
182.3525214537
 11
216.9105182328
 21
182.3525214537
  0
LINE
  8
1
  6
HIDDEN
 62
3
 10
216.9105182328
 20
182.3525214537
 11
216.9105182328
 21
192.3525214537
  0
LINE
  8
1
  6
CONTINUOUS
 62
7
 10
133.4661466639
 20
192.3525214537
 11
148.4661466639
 21
192.3525214537
  0
LINE
  8
1
  6
CONTINUOUS
 62
7
 10
148.4661466639
 20
192.3525214537
 11
148.4661466639
 21
182.3525214537
  0
LINE
  8
1
  6
CONTINUOUS
 62
7
 10
148.4661466639
 20
182.3525214537
 11
133.4661466639
 21
182.3525214537
  0
CIRCLE
  8
1
  6
CONTINUOUS
 62
7
 10
143.4661466639
 20
187.3525214537
 40
2.0000000000
  0
CIRCLE
  8
1
  6
HIDDEN
 62
7
 10
143.4661466639
 20
187.3525214537
 40
2.5000000000
  0
CIRCLE
  8
1
  6
HIDDEN
 62
5
 10
137.4661466639
 20
90.3525214537
 40
2.0000000000
  0
LINE
  8
1
  6
HIDDEN
 62
5
 10
135.9661466638
 20
90.3525214537
 11
138.9661466638
 21
90.3525214537
  0
LINE
  8
1
  6
HIDDEN
 62
5
 10
136.4661466638
 20
89.6025214537
 11
138.4661466638
 21
89.6025214537
  0
LINE
  8
1
  6
HIDDEN
 62
5
 10
136.9661466638
 20
88.8525214537
 11
137.9661466638
 21
88.8525214537
  0
LINE
  8
1
  6
HIDDEN
 62
5
 10
137.4661466639
 20
90.3525214537
 11
137.4661466638
 21
91.8525214537
  0
LINE
  8
1
  6
CONTINUOUS
 62
7
 10
133.4661466639
 20
95.3525214537
 11
148.4661466639
 21
95.3525214537
  0
LINE
  8
1
  6
CONTINUOUS
 62
7
 10
148.4661466639
 20
95.3525214537
 11
148.4661466639
 21
85.3525214537
  0
LINE
  8
1
  6
CONTINUOUS
 62
7
 10
148.4661466639
 20
85.3525214537
 11
133.4661466639
 21
85.3525214537
  0
CIRCLE
  8
1
  6
CONTINUOUS
 62
7
 10
143.4661466639
 20
90.3525214537
 40
2.0000000000
  0
CIRCLE
  8
1
  6
HIDDEN
 62
7
 10
143.4661466639
 20
90.3525214537
 40
2.5000000000
  0
DIMENSION
  8
1
  6
CONTINUOUS
 62
5
  2
*D1
 10
20.9779016700
 20
36.5484212565
 11
18.2279016700
 21
32.0484212565
  70
0
 13
27.7645106558
 23
27.5484212565
 14
28.7645106558
 24
36.5484212565
 50
90.000000
  0
DIMENSION
  8
1
  6
CONTINUOUS
 62
5
  2
*D2
 10
20.7383253733
 20
51.5484212565
 11
17.9883253733
 21
44.2984212565
  70
0
 13
29.7645106558
 23
37.0484212565
 14
36.2645106558
 24
51.5484212565
 50
90.000000
  0
DIMENSION
  8
1
  6
CONTINUOUS
 62
5
  2
*D3
 10
13.2316014101
 20
51.5484212565
 11
10.4816014101
 21
39.5484212565
  70
0
 13
27.7645106558
 23
27.5484212565
 14
36.2645106558
 24
51.5484212565
 50
90.000000
  0
LINE
  8
1
  6
CONTINUOUS
 62
7
 10
36.2645106558
 20
27.5484212565
 11
36.2645106558
 21
12.5484212565
  0
LINE
  8
1
  6
CONTINUOUS
 62
7
 10
36.2645106558
 20
12.5484212565
 11
39.2645106558
 21
12.5484212565
  0
LINE
  8
1
  6
CONTINUOUS
 62
7
 10
39.2645106558
 20
12.5484212565
 11
39.2645106558
 21
27.5484212565
  0
LINE
  8
1
  6
CONTINUOUS
 62
7
 10
88.2645106558
 20
27.5484212565
 11
88.2645106558
 21
12.5484212565
  0
LINE
  8
1
  6
CONTINUOUS
 62
7
 10
88.2645106558
 20
12.5484212565
 11
85.2645106558
 21
12.5484212565
  0
LINE
  8
1
  6
CONTINUOUS
 62
7
 10
85.2645106558
 20
12.5484212565
 11
85.2645106558
 21
27.5484212565
  0
LINE
  8
1
  6
HIDDEN
 62
3
 10
167.9105182328
 20
85.3525214537
 11
170.9105182328
 21
85.3525214537
  0
LINE
  8
1
  6
HIDDEN
 62
3
 10
218.9105182328
 20
85.3525214537
 11
170.9105182328
 21
85.3525214537
  0
LINE
  8
1
  6
HIDDEN
 62
3
 10
167.9105182328
 20
95.3525214537
 11
170.9105182328
 21
95.3525214537
  0
LINE
  8
3
  6
HIDDEN
 62
3
 10
170.9105182328
 20
95.3525214537
 11
170.9105182328
 21
85.3525214537
  0
LINE
  8
1
  6
HIDDEN
 62
3
 10
167.9105182328
 20
95.3525214537
 11
167.9105182328
 21
85.3525214537
  0
LINE
  8
1
  6
HIDDEN
 62
3
 10
219.9105182328
 20
86.3525214537
 11
219.9105182328
 21
182.3525214537
  0
LINE
  8
1
  6
HIDDEN
 62
3
 10
167.9105182328
 20
191.3525214537
 11
167.9105182328
 21
95.3525214537
  0
LINE
  8
2
  6
CONTINUOUS
 62
5
 10
115.6954338248
 20
214.7453462552
 11
109.4661466639
 21
192.4775214537
  0
LINE
  8
2
  6
HIDDEN
 62
5
 10
114.7351177630
 20
203.8525214537
 11
111.4661466639
 21
192.2022453229
  0
LINE
  8
2
  6
HIDDEN
 62
5
 10
111.4661466639
 20
192.2022453229
 11
111.4661466639
 21
73.8525214537
  0
DIMENSION
  8
1
  6
CONTINUOUS
 62
5
  2
*D4
 10
17.2916228022
 20
64.6025214537
 11
13.7916228022
 21
142.3525214537
  70
0
 13
27.7645106558
 23
220.1025214537
 14
27.7645106558
 24
64.6025214537
 50
90.000000
  0
DIMENSION
  8
1
  6
CONTINUOUS
 62
5
  2
*D5
 10
96.7645106558
 20
224.0648547044
 11
62.2645106558
 21
227.5648547044
  70
0
 13
27.7645106558
 23
220.1025214537
 14
96.7645106558
 24
220.1025214537
 50
0.000000
  0
LINE
  8
2
  6
CONTINUOUS
 62
5
 10
31.5145106558
 20
37.0484212565
 11
31.5145106558
 21
36.0484212565
  0
LINE
  8
2
  6
CONTINUOUS
 62
5
 10
31.5145106558
 20
36.0484212565
 11
32.0145106558
 21
36.0484212565
  0
LINE
  8
2
  6
CONTINUOUS
 62
5
 10
32.0145106558
 20
36.0484212565
 11
32.0145106558
 21
37.0484212565
  0
LINE
  8
2
  6
CONTINUOUS
 62
5
 10
93.0145106558
 20
37.0484212565
 11
93.0145106558
 21
36.0484212565
  0
LINE
  8
2
  6
CONTINUOUS
 62
5
 10
93.0145106558
 20
36.0484212565
 11
92.5145106558
 21
36.0484212565
  0
LINE
  8
2
  6
CONTINUOUS
 62
5
 10
92.5145106558
 20
36.0484212565
 11
92.5145106558
 21
37.0484212565
  0
ARC
  8
1
  6
HIDDEN
 62
3
 10
168.9105182328
 20
191.3525214537
 40
1.0000000000
 50
90.0000000000
 51
180.0000000000
  0
ARC
  8
1
  6
HIDDEN
 62
3
 10
218.9105182328
 20
86.3525214537
 40
1.0000000000
 50
270.0000000000
 51
0.0000000000
  0
CIRCLE
  8
1
  6
CONTINUOUS
 62
7
 10
62.2645106558
 20
69.1025214537
 40
4.0000000000
  0
LINE
  8
1
  6
CONTINUOUS
 62
7
 10
60.4967437029
 20
70.8702884066
 11
64.0322776088
 21
67.3347545007
  0
LINE
  8
1
  6
CONTINUOUS
 62
7
 10
60.4967437029
 20
67.3347545007
 11
64.0322776088
 21
70.8702884066
  0
CIRCLE
  8
1
  6
CONTINUOUS
 62
7
 10
62.2645106558
 20
69.1025214537
 40
3.5000000000
  0
POINT
  8
1
  6
CONTINUOUS
 62
7
 10
62.2645106558
 20
51.5484212565
  0
LINE
  8
1
  6
CONTINUOUS
 62
7
 10
58.7645106558
 20
51.5484212586
 11
65.7645106558
 21
51.5484212543
  0
LINE
  8
1
  6
CONTINUOUS
 62
7
 10
61.4478439892
 20
54.2317545903
 11
63.0811773225
 21
54.2317545893
  0
ARC
  8
1
  6
CONTINUOUS
 62
7
 10
61.4478439892
 20
51.5484212570
 40
2.6833333333
 50
90.0000000000
 51
179.9999999648
  0
ARC
  8
1
  6
CONTINUOUS
 62
7
 10
63.0811773225
 20
51.5484212560
 40
2.6833333333
 50
359.9999999648
 51
90.0000000000
  0
POINT
  8
1
  6
CONTINUOUS
 62
7
 10
62.2645106558
 20
51.5484212565
  0
POINT
  8
1
  6
CONTINUOUS
 62
7
 10
62.2645106558
 20
51.5484212565
  0
POINT
  8
1
  6
CONTINUOUS
 62
7
 10
109.4661466639
 20
69.1025214537
  0
LINE
  8
1
  6
CONTINUOUS
 62
7
 10
109.4690741866
 20
65.5995939289
 11
109.4690741909
 21
72.5995939289
  0
LINE
  8
1
  6
CONTINUOUS
 62
7
 10
106.7857408549
 20
68.2829272622
 11
106.7857408559
 21
69.9162605955
  0
ARC
  8
1
  6
CONTINUOUS
 62
7
 10
109.4690741882
 20
68.2829272622
 40
2.6833333333
 50
180.0000000000
 51
269.9999999648
  0
ARC
  8
1
  6
CONTINUOUS
 62
7
 10
109.4690741892
 20
69.9162605955
 40
2.6833333333
 50
89.9999999648
 51
180.0000000000
  0
POINT
  8
1
  6
CONTINUOUS
 62
7
 10
109.4661466639
 20
69.1025214537
  0
POINT
  8
1
  6
CONTINUOUS
 62
7
 10
109.4661466639
 20
69.1025214537
  0
LINE
  8
3
  6
CONTINUOUS
 62
7
 10
221.1605182328
 20
77.8525214539
 11
221.1605182328
 21
199.8525214535
  0
LINE
  8
3
  6
CONTINUOUS
 62
7
 10
220.1605182328
 20
200.8525214535
 11
167.6605182328
 21
200.8525214539
  0
LINE
  8
3
  6
CONTINUOUS
 62
7
 10
166.6605182328
 20
77.8525214535
 11
166.6605182328
 21
199.8525214539
  0
LINE
  8
3
  6
CONTINUOUS
 62
7
 10
220.1605182328
 20
76.8525214539
 11
167.6605182328
 21
76.8525214535
  0
LINE
  8
3
  6
CONTINUOUS
 62
7
 10
167.6605182328
 20
200.8525214539
 11
166.6605182328
 21
199.8525214539
  0
LINE
  8
3
  6
CONTINUOUS
 62
7
 10
221.1605182328
 20
199.8525214535
 11
220.1605182328
 21
200.8525214535
  0
LINE
  8
3
  6
CONTINUOUS
 62
7
 10
221.1605182328
 20
77.8525214539
 11
220.1605182328
 21
76.8525214539
  0
LINE
  8
3
  6
CONTINUOUS
 62
7
 10
167.6605182328
 20
76.8525214535
 11
166.6605182328
 21
77.8525214535
  0
CIRCLE
  8
3
  6
CONTINUOUS
 62
6
 10
193.9105182328
 20
197.3525214536
 40
3.9000000000
  0
LINE
  8
3
  6
CONTINUOUS
 62
6
 10
192.1869454536
 20
199.0760942328
 11
195.6340910119
 21
195.6289486745
  0
LINE
  8
3
  6
CONTINUOUS
 62
6
 10
192.1869454536
 20
195.6289486745
 11
195.6340910119
 21
199.0760942328
  0
CIRCLE
  8
3
  6
CONTINUOUS
 62
6
 10
193.9105182328
 20
197.3525214536
 40
3.4125000000
  0
CIRCLE
  8
3
  6
CONTINUOUS
 62
6
 10
193.9105182328
 20
80.3525214537
 40
3.9000000000
  0
LINE
  8
3
  6
CONTINUOUS
 62
6
 10
192.1869454536
 20
82.0760942328
 11
195.6340910119
 21
78.6289486745
  0
LINE
  8
3
  6
CONTINUOUS
 62
6
 10
192.1869454536
 20
78.6289486745
 11
195.6340910119
 21
82.0760942328
  0
CIRCLE
  8
3
  6
CONTINUOUS
 62
6
 10
193.9105182328
 20
80.3525214537
 40
3.4125000000
  0
INSERT
  8
5
  6
CONTINUOUS
 62
7
  2
S1
 10
304.5178631899
 20
252.5000000000
  0
LINE
  8
5
  6
CONTINUOUS
 62
6
 10
13.5000000001
 20
249.5000000000
 11
13.5000000001
 21
279.5000000000
  0
LINE
  8
5
  6
CONTINUOUS
 62
6
 10
25.5000000001
 20
249.5000000000
 11
25.5000000001
 21
279.5000000000
  0
LINE
  8
5
  6
CONTINUOUS
 62
6
 10
90.0000000001
 20
249.5000000000
 11
90.0000000001
 21
279.5000000000
  0
LINE
  8
5
  6
CONTINUOUS
 62
6
 10
99.0000000000
 20
279.5000000000
 11
99.0000000001
 21
249.5000000000
  0
TEXT
  8
5
  6
CONTINUOUS
 62
6
 10
16.534500
 20
250.500000
 40
3.000000
  1
Date
 41
0.787649
 50
0.000000
 51
0.000000
 72
   5
 73
   0
 11
22.465500
 21
250.500000
  0
TEXT
  8
5
  6
CONTINUOUS
 62
6
 10
6.292500
 20
250.500000
 40
3.000000
  1
Rev.
 41
0.719124
 50
0.000000
 51
0.000000
 72
   5
 73
   0
 11
11.707500
 21
250.500000
  0
TEXT
  8
5
  6
CONTINUOUS
 62
6
 10
27.000000
 20
250.500000
 40
3.000000
  1
Content
 41
0.746681
 50
0.000000
 51
0.000000
 72
   5
 73
   0
 11
37.125000
 21
250.500000
  0
TEXT
  8
5
  6
CONTINUOUS
 62
6
 10
90.972000
 20
250.500000
 40
3.000000
  1
Name
 41
0.937052
 50
0.000000
 51
0.000000
 72
   5
 73
   0
 11
98.028000
 21
250.500000
  0
LINE
  8
5
  6
CONTINUOUS
 62
6
 10
4.5000000001
 20
254.5000000000
 11
99.0000000001
 21
254.5000000000
  0
LINE
  8
5
  6
CONTINUOUS
 62
6
 10
4.5000000001
 20
259.5000000000
 11
99.0000000001
 21
259.5000000000
  0
LINE
  8
5
  6
CONTINUOUS
 62
6
 10
4.5000000001
 20
264.5000000000
 11
99.0000000001
 21
264.5000000000
  0
LINE
  8
5
  6
CONTINUOUS
 62
6
 10
4.5000000001
 20
269.5000000000
 11
99.0000000000
 21
269.5000000000
  0
LINE
  8
5
  6
CONTINUOUS
 62
6
 10
4.5000000001
 20
249.5000000000
 11
99.0000000001
 21
249.5000000000
  0
POINT
  8
5
  6
CONTINUOUS
 62
6
 10
9.0000000001
 20
257.0000000000
  0
POINT
  8
5
  6
CONTINUOUS
 62
6
 10
9.0000000001
 20
262.0000000000
  0
POINT
  8
5
  6
CONTINUOUS
 62
6
 10
9.0000000001
 20
267.0000000000
  0
POINT
  8
5
  6
CONTINUOUS
 62
6
 10
9.0000000001
 20
272.0000000000
  0
POINT
  8
5
  6
CONTINUOUS
 62
6
 10
19.5000000001
 20
272.0000000000
  0
POINT
  8
5
  6
CONTINUOUS
 62
6
 10
19.5000000001
 20
267.0000000000
  0
POINT
  8
5
  6
CONTINUOUS
 62
6
 10
19.5000000001
 20
262.0000000000
  0
POINT
  8
5
  6
CONTINUOUS
 62
6
 10
19.5000000001
 20
257.0000000000
  0
POINT
  8
5
  6
CONTINUOUS
 62
6
 10
94.5000000001
 20
257.0000000000
  0
POINT
  8
5
  6
CONTINUOUS
 62
6
 10
94.5000000001
 20
262.0000000000
  0
POINT
  8
5
  6
CONTINUOUS
 62
6
 10
94.5000000001
 20
267.0000000000
  0
POINT
  8
5
  6
CONTINUOUS
 62
6
 10
94.5000000001
 20
272.0000000000
  0
POINT
  8
5
  6
CONTINUOUS
 62
6
 10
25.5000000001
 20
272.0000000000
  0
POINT
  8
5
  6
CONTINUOUS
 62
6
 10
25.5000000001
 20
267.0000000000
  0
POINT
  8
5
  6
CONTINUOUS
 62
6
 10
25.5000000001
 20
262.0000000000
  0
POINT
  8
5
  6
CONTINUOUS
 62
6
 10
25.5000000001
 20
257.0000000000
  0
INSERT
  8
1
  6
CONTINUOUS
 62
5
  2
BALN0
 10
65.1092980532
 20
67.0636039311
  0
TEXT
  8
5
  6
CONTINUOUS
 62
7
 10
243.517863
 20
248.500000
 40
3.000000
  1
M4×8小ワｾﾑｽ(ﾊﾟﾈﾙ固定用)
 41
0.833177
 50
0.000000
 51
0.000000
 72
   5
 73
   0
 11
280.735863
 21
248.500000
  0
TEXT
  8
5
  6
CONTINUOUS
 62
7
 10
223.517863
 20
248.500000
 40
3.000000
  1
添付品ﾋﾞｽ
 41
0.822804
 50
0.000000
 51
0.000000
 72
   5
 73
   0
 11
236.723863
 21
248.500000
  0
TEXT
  8
5
  6
CONTINUOUS
 62
7
 10
299.142863
 20
248.250000
 40
3.500000
  1
2
 41
1.000000
 50
0.000000
 51
0.000000
 72
   5
 73
   0
 11
300.892863
 21
248.250000
  0
LINE
  8
5
  6
CONTINUOUS
 62
6
 10
282.5178631899
 20
257.5000000000
 11
282.5178631899
 21
252.5000000000
  0
LINE
  8
3
  6
CONTINUOUS
 62
7
 10
221.1605182328
 20
77.8525214539
 11
221.1605182328
 21
199.8525214535
  0
LINE
  8
3
  6
CONTINUOUS
 62
7
 10
221.1605182328
 20
199.8525214535
 11
220.1605182328
 21
200.8525214535
  0
LINE
  8
3
  6
CONTINUOUS
 62
7
 10
220.1605182328
 20
200.8525214535
 11
167.6605182328
 21
200.8525214539
  0
LINE
  8
3
  6
CONTINUOUS
 62
7
 10
167.6605182328
 20
200.8525214539
 11
166.6605182328
 21
199.8525214539
  0
LINE
  8
3
  6
CONTINUOUS
 62
7
 10
166.6605182328
 20
77.8525214535
 11
166.6605182328
 21
199.8525214539
  0
LINE
  8
3
  6
CONTINUOUS
 62
7
 10
167.6605182328
 20
76.8525214535
 11
166.6605182328
 21
77.8525214535
  0
LINE
  8
3
  6
CONTINUOUS
 62
7
 10
220.1605182328
 20
76.8525214539
 11
167.6605182328
 21
76.8525214535
  0
LINE
  8
3
  6
CONTINUOUS
 62
7
 10
221.1605182328
 20
77.8525214539
 11
220.1605182328
 21
76.8525214539
  0
DIMENSION
  8
1
  6
CONTINUOUS
 62
5
  2
*D6
 10
142.4822443727
 20
88.0542751045
 11
140.9380756799
 21
91.4348139740
  70
3
 15
144.4500489552
 25
92.6507678028
  0
LINE
  8
5
  6
CONTINUOUS
 62
6
 10
369.5178631899
 20
257.5000000000
 11
329.5178631899
 21
257.5000000000
  0
TEXT
  8
5
  6
CONTINUOUS
 62
7
 10
305.267863
 20
248.250000
 40
3.500000
  1
10
 41
0.854701
 50
0.000000
 51
0.000000
 72
   5
 73
   0
 11
308.767863
 21
248.250000
  0
LINE
  8
5
  6
CONTINUOUS
 62
6
 10
304.5178631899
 20
247.5000000000
 11
304.5178631899
 21
252.5000000000
  0
LINE
  8
5
  6
CONTINUOUS
 62
6
 10
309.5178631899
 20
247.5000000000
 11
304.5178631899
 21
247.5000000000
  0
LINE
  8
5
  6
CONTINUOUS
 62
6
 10
309.5178631899
 20
252.5000000000
 11
309.5178631899
 21
247.5000000000
  0
LINE
  8
5
  6
CONTINUOUS
 62
6
 10
329.5178631899
 20
247.5000000000
 11
309.5178631899
 21
247.5000000000
  0
LINE
  8
5
  6
CONTINUOUS
 62
6
 10
329.5178631899
 20
252.5000000000
 11
329.5178631899
 21
247.5000000000
  0
LINE
  8
5
  6
CONTINUOUS
 62
6
 10
369.5178631899
 20
252.5000000000
 11
369.5178631899
 21
247.5000000000
  0
LINE
  8
5
  6
CONTINUOUS
 62
6
 10
384.5178631899
 20
252.5000000000
 11
384.5178631899
 21
247.5000000000
  0
LINE
  8
5
  6
CONTINUOUS
 62
6
 10
389.5178631899
 20
252.5000000000
 11
389.5178631899
 21
247.5000000000
  0
LINE
  8
5
  6
CONTINUOUS
 62
6
 10
389.5178631899
 20
247.5000000000
 11
384.5178631899
 21
247.5000000000
  0
LINE
  8
5
  6
CONTINUOUS
 62
6
 10
384.5178631899
 20
247.5000000000
 11
369.5178631899
 21
247.5000000000
  0
LINE
  8
5
  6
CONTINUOUS
 62
6
 10
304.5178631899
 20
242.5000000000
 11
304.5178631899
 21
247.5000000000
  0
LINE
  8
5
  6
CONTINUOUS
 62
6
 10
309.5178631899
 20
242.5000000000
 11
304.5178631899
 21
242.5000000000
  0
LINE
  8
5
  6
CONTINUOUS
 62
6
 10
309.5178631899
 20
247.5000000000
 11
309.5178631899
 21
242.5000000000
  0
LINE
  8
5
  6
CONTINUOUS
 62
6
 10
329.5178631899
 20
242.5000000000
 11
309.5178631899
 21
242.5000000000
  0
LINE
  8
5
  6
CONTINUOUS
 62
6
 10
329.5178631899
 20
247.5000000000
 11
329.5178631899
 21
242.5000000000
  0
LINE
  8
5
  6
CONTINUOUS
 62
6
 10
369.5178631899
 20
247.5000000000
 11
369.5178631899
 21
242.5000000000
  0
LINE
  8
5
  6
CONTINUOUS
 62
6
 10
384.5178631899
 20
247.5000000000
 11
384.5178631899
 21
242.5000000000
  0
LINE
  8
5
  6
CONTINUOUS
 62
6
 10
389.5178631899
 20
247.5000000000
 11
389.5178631899
 21
242.5000000000
  0
LINE
  8
5
  6
CONTINUOUS
 62
6
 10
389.5178631899
 20
242.5000000000
 11
384.5178631899
 21
242.5000000000
  0
LINE
  8
5
  6
CONTINUOUS
 62
6
 10
384.5178631899
 20
242.5000000000
 11
369.5178631899
 21
242.5000000000
  0
LINE
  8
5
  6
CONTINUOUS
 62
6
 10
369.5178631899
 20
242.5000000000
 11
329.5178631899
 21
242.5000000000
  0
LINE
  8
5
  6
CONTINUOUS
 62
6
 10
304.5178631898
 20
237.5000000000
 11
304.5178631898
 21
242.5000000000
  0
LINE
  8
5
  6
CONTINUOUS
 62
6
 10
309.5178631898
 20
237.5000000000
 11
304.5178631898
 21
237.5000000000
  0
LINE
  8
5
  6
CONTINUOUS
 62
6
 10
309.5178631898
 20
242.5000000000
 11
309.5178631898
 21
237.5000000000
  0
LINE
  8
5
  6
CONTINUOUS
 62
6
 10
329.5178631898
 20
237.5000000000
 11
309.5178631898
 21
237.5000000000
  0
LINE
  8
5
  6
CONTINUOUS
 62
6
 10
329.5178631898
 20
242.5000000000
 11
329.5178631898
 21
237.5000000000
  0
LINE
  8
5
  6
CONTINUOUS
 62
6
 10
369.5178631898
 20
242.5000000000
 11
369.5178631898
 21
237.5000000000
  0
LINE
  8
5
  6
CONTINUOUS
 62
6
 10
384.5178631898
 20
242.5000000000
 11
384.5178631898
 21
237.5000000000
  0
LINE
  8
5
  6
CONTINUOUS
 62
6
 10
389.5178631898
 20
242.5000000000
 11
389.5178631898
 21
237.5000000000
  0
LINE
  8
5
  6
CONTINUOUS
 62
6
 10
389.5178631898
 20
237.5000000000
 11
384.5178631898
 21
237.5000000000
  0
LINE
  8
5
  6
CONTINUOUS
 62
6
 10
384.5178631898
 20
237.5000000000
 11
369.5178631898
 21
237.5000000000
  0
LINE
  8
5
  6
CONTINUOUS
 62
6
 10
369.5178631898
 20
237.5000000000
 11
329.5178631898
 21
237.5000000000
  0
TEXT
  8
5
  6
CONTINUOUS
 62
7
 10
305.267863
 20
243.250000
 40
3.500000
  1
11
 41
0.854701
 50
0.000000
 51
0.000000
 72
   5
 73
   0
 11
308.767863
 21
243.250000
  0
TEXT
  8
5
  6
CONTINUOUS
 62
7
 10
310.517863
 20
263.500000
 40
3.000000
  1
パネル
 41
0.877246
 50
0.000000
 51
0.000000
 72
   5
 73
   0
 11
319.307863
 21
263.500000
  0
TEXT
  8
5
  6
CONTINUOUS
 62
7
 10
330.517863
 20
263.250000
 40
3.500000
  1
M0051B052B (SPCCt=1.6)
 41
0.757104
 50
0.000000
 51
0.000000
 72
   5
 73
   0
 11
369.126363
 21
263.250000
  0
TEXT
  8
5
  6
CONTINUOUS
 62
7
 10
386.142863
 20
263.250000
 40
3.500000
  1
1
 41
1.000000
 50
0.000000
 51
0.000000
 72
   5
 73
   0
 11
387.892863
 21
263.250000
  0
TEXT
  8
5
  6
CONTINUOUS
 62
7
 10
283.517863
 20
268.500000
 40
3.000000
  1
MADOKA
 41
1.028831
 50
0.000000
 51
0.000000
 72
   5
 73
   0
 11
295.400863
 21
268.500000
  0
TEXT
  8
5
  6
CONTINUOUS
 62
7
 10
283.517863
 20
263.500000
 40
3.000000
  1
MADOKA
 41
1.028831
 50
0.000000
 51
0.000000
 72
   5
 73
   0
 11
295.400863
 21
263.500000
  0
TEXT
  8
5
  6
CONTINUOUS
 62
7
 10
370.517863
 20
263.500000
 40
3.000000
  1
MADOKA
 41
1.028831
 50
0.000000
 51
0.000000
 72
   5
 73
   0
 11
382.400863
 21
263.500000
  0
TEXT
  8
5
  6
CONTINUOUS
 62
7
 10
370.517863
 20
268.500000
 40
3.000000
  1
--
 41
0.854701
 50
0.000000
 51
0.000000
 72
   5
 73
   0
 11
373.517863
 21
268.500000
  0
TEXT
  8
5
  6
CONTINUOUS
 62
7
 10
283.517863
 20
243.500000
 40
3.000000
  1
--
 41
0.854701
 50
0.000000
 51
0.000000
 72
   5
 73
   0
 11
286.517863
 21
243.500000
  0
TEXT
  8
5
  6
CONTINUOUS
 62
7
 10
283.517863
 20
248.500000
 40
3.000000
  1
--
 41
0.854701
 50
0.000000
 51
0.000000
 72
   5
 73
   0
 11
286.517863
 21
248.500000
  0
TEXT
  8
5
  6
CONTINUOUS
 62
7
 10
283.517863
 20
253.500000
 40
3.000000
  1
--
 41
0.854701
 50
0.000000
 51
0.000000
 72
   5
 73
   0
 11
286.517863
 21
253.500000
  0
TEXT
  8
5
  6
CONTINUOUS
 62
7
 10
283.517863
 20
258.500000
 40
3.000000
  1
--
 41
0.854701
 50
0.000000
 51
0.000000
 72
   5
 73
   0
 11
286.517863
 21
258.500000
  0
TEXT
  8
5
  6
CONTINUOUS
 62
7
 10
386.142863
 20
258.250000
 40
3.500000
  1
1
 41
1.000000
 50
0.000000
 51
0.000000
 72
   5
 73
   0
 11
387.892863
 21
258.250000
  0
TEXT
  8
5
  6
CONTINUOUS
 62
7
 10
386.142863
 20
248.250000
 40
3.500000
  1
1
 41
1.000000
 50
0.000000
 51
0.000000
 72
   5
 73
   0
 11
387.892863
 21
248.250000
  0
TEXT
  8
5
  6
CONTINUOUS
 62
7
 10
386.142863
 20
243.250000
 40
3.500000
  1
2
 41
1.000000
 50
0.000000
 51
0.000000
 72
   5
 73
   0
 11
387.892863
 21
243.250000
  0
TEXT
  8
5
  6
CONTINUOUS
 62
7
 10
310.517863
 20
248.500000
 40
3.000000
  1
↑固定板金
 41
0.880282
 50
0.000000
 51
0.000000
 72
   5
 73
   0
 11
325.517863
 21
248.500000
  0
TEXT
  8
5
  6
CONTINUOUS
 62
7
 10
330.517863
 20
248.250000
 40
3.500000
  1
M0051B302B (SPCCt=2.6)
 41
0.757104
 50
0.000000
 51
0.000000
 72
   5
 73
   0
 11
369.126363
 21
248.250000
  0
TEXT
  8
5
  6
CONTINUOUS
 62
7
 10
370.517863
 20
248.500000
 40
3.000000
  1
MADOKA
 41
1.028831
 50
0.000000
 51
0.000000
 72
   5
 73
   0
 11
382.400863
 21
248.500000
  0
LINE
  8
3
  6
CONTINUOUS
 62
7
 10
221.1605182328
 20
77.8525214539
 11
221.1605182328
 21
199.8525214535
  0
LINE
  8
3
  6
CONTINUOUS
 62
7
 10
220.1605182328
 20
200.8525214535
 11
167.6605182328
 21
200.8525214539
  0
LINE
  8
3
  6
CONTINUOUS
 62
7
 10
166.6605182328
 20
77.8525214535
 11
166.6605182328
 21
199.8525214539
  0
LINE
  8
3
  6
CONTINUOUS
 62
7
 10
220.1605182328
 20
76.8525214539
 11
167.6605182328
 21
76.8525214535
  0
LINE
  8
3
  6
CONTINUOUS
 62
7
 10
167.6605182328
 20
200.8525214539
 11
166.6605182328
 21
199.8525214539
  0
LINE
  8
3
  6
CONTINUOUS
 62
7
 10
221.1605182328
 20
199.8525214535
 11
220.1605182328
 21
200.8525214535
  0
LINE
  8
3
  6
CONTINUOUS
 62
7
 10
221.1605182328
 20
77.8525214539
 11
220.1605182328
 21
76.8525214539
  0
LINE
  8
3
  6
CONTINUOUS
 62
7
 10
167.6605182328
 20
76.8525214535
 11
166.6605182328
 21
77.8525214535
  0
LINE
  8
5
  6
CONTINUOUS
 62
6
 10
369.5178631899
 20
247.5000000000
 11
329.5178631899
 21
247.5000000000
  0
TEXT
  8
5
  6
CONTINUOUS
 62
7
 10
330.517863
 20
243.500000
 40
3.000000
  1
M4×8小ワｾﾑｽ
 41
0.900136
 50
0.000000
 51
0.000000
 72
   5
 73
   0
 11
350.392863
 21
243.500000
  0
TEXT
  8
5
  6
CONTINUOUS
 62
7
 10
370.517863
 20
243.500000
 40
3.000000
  1
--
 41
0.854701
 50
0.000000
 51
0.000000
 72
   5
 73
   0
 11
373.517863
 21
243.500000
  0
POINT
  8
3
  6
CONTINUOUS
 62
7
 10
193.9105182328
 20
138.8525214537
  0
POINT
  8
3
  6
CONTINUOUS
 62
7
 10
193.9105182328
 20
138.8525214537
  0
POINT
  8
3
  6
CONTINUOUS
 62
7
 10
193.9105182328
 20
138.8525214537
  0
POINT
  8
3
  6
CONTINUOUS
 62
7
 10
193.9105182328
 20
138.8525214537
  0
LINE
  8
3
  6
CONTINUOUS
 62
7
 10
171.3105182328
 20
161.4525214537
 11
216.5105182328
 21
161.4525214537
  0
LINE
  8
3
  6
CONTINUOUS
 62
7
 10
171.3105182328
 20
116.2525214537
 11
171.3105182328
 21
161.4525214537
  0
LINE
  8
3
  6
CONTINUOUS
 62
7
 10
216.5105182328
 20
116.2525214537
 11
171.3105182328
 21
116.2525214537
  0
LINE
  8
3
  6
CONTINUOUS
 62
7
 10
216.5105182328
 20
161.4525214537
 11
216.5105182328
 21
116.2525214537
  0
POINT
  8
3
  6
CONTINUOUS
 62
7
 10
193.9105182328
 20
138.8525214537
  0
ARC
  8
3
  6
CONTINUOUS
 62
5
 10
193.9105182328
 20
145.8025214537
 40
2.6500000000
 50
180.0000000000
 51
0.0000000000
  0
LINE
  8
3
  6
CONTINUOUS
 62
5
 10
191.2605182328
 20
145.8025214537
 11
191.2605182328
 21
148.4525214537
  0
LINE
  8
3
  6
CONTINUOUS
 62
5
 10
191.2605182328
 20
148.4525214537
 11
196.5605182328
 21
148.4525214537
  0
LINE
  8
3
  6
CONTINUOUS
 62
5
 10
196.5605182328
 20
148.4525214537
 11
196.5605182328
 21
145.8025214537
  0
LINE
  8
3
  6
CONTINUOUS
 62
5
 10
199.2105182328
 20
138.2525214537
 11
201.4105182328
 21
138.2525214537
  0
LINE
  8
3
  6
CONTINUOUS
 62
5
 10
201.4105182328
 20
138.2525214537
 11
201.4105182328
 21
135.8824204411
  0
LINE
  8
3
  6
CONTINUOUS
 62
5
 10
201.4105182328
 20
131.9226224664
 11
201.4105182328
 21
129.5525214537
  0
LINE
  8
3
  6
CONTINUOUS
 62
5
 10
201.4105182328
 20
129.5525214537
 11
199.2105182328
 21
129.5525214537
  0
LINE
  8
3
  6
CONTINUOUS
 62
5
 10
199.2105182328
 20
129.5525214537
 11
199.2105182328
 21
138.2525214537
  0
LINE
  8
3
  6
CONTINUOUS
 62
5
 10
186.4105182328
 20
137.4025214537
 11
188.6105182328
 21
137.4025214537
  0
LINE
  8
3
  6
CONTINUOUS
 62
5
 10
188.6105182328
 20
137.4025214537
 11
188.6105182328
 21
130.4025214538
  0
LINE
  8
3
  6
CONTINUOUS
 62
5
 10
188.6105182328
 20
130.4025214538
 11
186.4105182328
 21
130.4025214538
  0
LINE
  8
3
  6
CONTINUOUS
 62
5
 10
186.4105182328
 20
130.4025214538
 11
186.4105182328
 21
131.9226224664
  0
LINE
  8
3
  6
CONTINUOUS
 62
5
 10
186.4105182328
 20
135.8824204411
 11
186.4105182328
 21
137.4025214537
  0
POINT
  8
3
  6
CONTINUOUS
 62
7
 10
193.9105182328
 20
138.8525214537
  0
ARC
  8
3
  6
CONTINUOUS
 62
5
 10
203.4605182328
 20
133.9025214537
 40
2.8500000000
 50
224.0034273486
 51
135.9965726514
  0
ARC
  8
3
  6
CONTINUOUS
 62
5
 10
184.3605182328
 20
133.9025214537
 40
2.8500000000
 50
44.0034273486
 51
315.9965726514
  0
POINT
  8
3
  6
CONTINUOUS
 62
5
 10
184.3605182328
 20
133.9025214537
  0
POINT
  8
3
  6
CONTINUOUS
 62
5
 10
203.4605182328
 20
133.9025214537
  0
CIRCLE
  8
3
  6
CONTINUOUS
 62
6
 10
193.9105182328
 20
166.8525214537
 40
3.9000000000
  0
LINE
  8
3
  6
CONTINUOUS
 62
6
 10
192.1869454536
 20
168.5760942329
 11
195.6340910119
 21
165.1289486746
  0
LINE
  8
3
  6
CONTINUOUS
 62
6
 10
192.1869454536
 20
165.1289486746
 11
195.6340910119
 21
168.5760942329
  0
CIRCLE
  8
3
  6
CONTINUOUS
 62
6
 10
193.9105182328
 20
166.8525214537
 40
3.4125000000
  0
CIRCLE
  8
3
  6
CONTINUOUS
 62
6
 10
193.9105182328
 20
110.8525214537
 40
3.9000000000
  0
LINE
  8
3
  6
CONTINUOUS
 62
6
 10
192.1869454536
 20
112.5760942329
 11
195.6340910119
 21
109.1289486746
  0
LINE
  8
3
  6
CONTINUOUS
 62
6
 10
192.1869454536
 20
109.1289486746
 11
195.6340910119
 21
112.5760942329
  0
CIRCLE
  8
3
  6
CONTINUOUS
 62
6
 10
193.9105182328
 20
110.8525214537
 40
3.4125000000
  0
LINE
  8
3
  6
HIDDEN
 62
6
 10
218.9105182326
 20
159.8525214535
 11
218.9105182328
 21
117.8525214538
  0
LINE
  8
3
  6
HIDDEN
 62
6
 10
206.9105182329
 20
105.8525214538
 11
180.9105182327
 21
105.8525214536
  0
LINE
  8
3
  6
HIDDEN
 62
6
 10
168.9105182329
 20
159.8525214549
 11
168.9105182327
 21
117.8525214536
  0
LINE
  8
3
  6
HIDDEN
 62
6
 10
206.9105182326
 20
171.8525214535
 11
180.9105182329
 21
171.8525214545
  0
INSERT
  8
1
  6
CONTINUOUS
 62
5
  2
LTEX0
 10
143.4661466639
 20
87.8525214537
  0
LINE
  8
1
  6
HIDDEN
 62
6
 10
218.9105182326
 20
159.8525214535
 11
206.9105182326
 21
171.8525214535
  0
LINE
  8
1
  6
HIDDEN
 62
6
 10
180.9105182329
 20
171.8525214545
 11
168.9105182329
 21
159.8525214549
  0
LINE
  8
1
  6
HIDDEN
 62
6
 10
180.9105182327
 20
105.8525214536
 11
168.9105182327
 21
117.8525214536
  0
LINE
  8
1
  6
HIDDEN
 62
6
 10
218.9105182328
 20
117.8525214538
 11
206.9105182329
 21
105.8525214538
  0
INSERT
  8
1
  6
CONTINUOUS
 62
7
  2
S2
 10
393.0020125722
 20
250.3911338517
  0
INSERT
  8
1
  6
CONTINUOUS
 62
7
  2
S3
 10
9.0000000001
 20
257.0000000000
  0
TEXT
  8
1
  6
CONTINUOUS
 62
7
 10
14.836500
 20
255.500000
 40
3.000000
  1
'08.5.13
 41
0.599037
 50
0.000000
 51
0.000000
 72
   5
 73
   0
 11
24.163500
 21
255.500000
  0
TEXT
  8
1
  6
CONTINUOUS
 62
7
 10
28.160983
 20
255.056979
 40
4.000000
  1
M0051B302 改訂A→B
 41
0.790861
 50
0.000000
 51
0.000000
 72
   5
 73
   0
 11
64.160983
 21
255.056979
  0
TEXT
  8
1
  6
CONTINUOUS
 62
7
 10
91.000000
 20
255.250000
 40
3.500000
  1
山田
 41
0.921659
 50
0.000000
 51
0.000000
 72
   5
 73
   0
 11
98.000000
 21
255.250000
  0
INSERT
  8
1
  6
CONTINUOUS
 62
7
  2
S4
 10
393.0020125722
 20
265.3911338517
  0
LINE
  8
1
  6
CONTINUOUS
 62
7
 10
11.5000000001
 20
260.0000000000
 11
6.5000000001
 21
260.0000000000
  0
TEXT
  8
1
  6
CONTINUOUS
 62
7
 10
7.904400
 20
259.621673
 40
3.300000
  1
C
 41
1.328000
 50
0.000000
 51
0.000000
 72
   5
 73
   0
 11
10.095600
 21
259.621673
  0
LINE
  8
1
  6
CONTINUOUS
 62
7
 10
9.0000000001
 20
264.0000000000
 11
6.5000000001
 21
260.0000000000
  0
LINE
  8
1
  6
CONTINUOUS
 62
7
 10
9.0000000001
 20
264.0000000000
 11
11.5000000001
 21
260.0000000000
  0
POINT
  8
1
  6
CONTINUOUS
 62
7
 10
9.0000000001
 20
262.0000000000
  0
TEXT
  8
1
  6
CONTINUOUS
 62
7
 10
14.836500
 20
260.500000
 40
3.000000
  1
'08.6.20
 41
0.599037
 50
0.000000
 51
0.000000
 72
   5
 73
   0
 11
24.163500
 21
260.500000
  0
TEXT
  8
1
  6
CONTINUOUS
 62
7
 10
28.160983
 20
260.056979
 40
4.000000
  1
図番誤記訂正B051A→B052A
 41
0.815217
 50
0.000000
 51
0.000000
 72
   5
 73
   0
 11
76.160983
 21
260.056979
  0
TEXT
  8
1
  6
CONTINUOUS
 62
7
 10
91.000000
 20
260.250000
 40
3.500000
  1
山田
 41
0.921659
 50
0.000000
 51
0.000000
 72
   5
 73
   0
 11
98.000000
 21
260.250000
  0
INSERT
  8
1
  6
CONTINUOUS
 62
5
  2
BALN1
 10
112.1348058892
 20
202.0171741535
  0
INSERT
  8
1
  6
CONTINUOUS
 62
5
  2
BALN2
 10
131.0889601190
 20
214.9344220794
  0
INSERT
  8
1
  6
CONTINUOUS
 62
5
  2
BALN3
 10
173.9105182328
 20
197.3525214537
  0
INSERT
  8
1
  6
CONTINUOUS
 62
5
  2
BALN4
 10
194.9817324968
 20
201.1025214537
  0
INSERT
  8
1
  6
CONTINUOUS
 62
5
  2
BALN5
 10
208.7458902071
 20
187.3847268719
  0
LINE
  8
5
  6
CONTINUOUS
 62
6
 10
304.5178631899
 20
272.5000000000
 11
304.5178631899
 21
277.5000000000
  0
LINE
  8
5
  6
CONTINUOUS
 62
6
 10
304.5178631899
 20
277.5000000000
 11
309.5178631899
 21
277.5000000000
  0
LINE
  8
5
  6
CONTINUOUS
 62
6
 10
309.5178631899
 20
277.5000000000
 11
329.5178631899
 21
277.5000000000
  0
LINE
  8
5
  6
CONTINUOUS
 62
6
 10
329.5178631899
 20
277.5000000000
 11
369.5178631899
 21
277.5000000000
  0
LINE
  8
5
  6
CONTINUOUS
 62
6
 10
369.5178631899
 20
277.5000000000
 11
384.5178631899
 21
277.5000000000
  0
LINE
  8
5
  6
CONTINUOUS
 62
6
 10
384.5178631899
 20
277.5000000000
 11
389.5178631899
 21
277.5000000000
  0
LINE
  8
5
  6
CONTINUOUS
 62
6
 10
389.5178631899
 20
277.5000000000
 11
389.5178631899
 21
272.5000000000
  0
LINE
  8
5
  6
CONTINUOUS
 62
6
 10
389.5178631899
 20
272.5000000000
 11
384.5178631899
 21
272.5000000000
  0
LINE
  8
5
  6
CONTINUOUS
 62
6
 10
384.5178631899
 20
272.5000000000
 11
369.5178631899
 21
272.5000000000
  0
LINE
  8
5
  6
CONTINUOUS
 62
6
 10
369.5178631899
 20
272.5000000000
 11
329.5178631899
 21
272.5000000000
  0
LINE
  8
5
  6
CONTINUOUS
 62
6
 10
329.5178631899
 20
272.5000000000
 11
309.5178631899
 21
272.5000000000
  0
LINE
  8
5
  6
CONTINUOUS
 62
6
 10
309.5178631899
 20
272.5000000000
 11
304.5178631899
 21
272.5000000000
  0
LINE
  8
5
  6
CONTINUOUS
 62
6
 10
309.5178631899
 20
277.5000000000
 11
309.5178631899
 21
272.5000000000
  0
LINE
  8
5
  6
CONTINUOUS
 62
6
 10
329.5178631899
 20
277.5000000000
 11
329.5178631899
 21
272.5000000000
  0
LINE
  8
5
  6
CONTINUOUS
 62
6
 10
369.5178631899
 20
277.5000000000
 11
369.5178631899
 21
272.5000000000
  0
LINE
  8
5
  6
CONTINUOUS
 62
6
 10
384.5178631899
 20
277.5000000000
 11
384.5178631899
 21
272.5000000000
  0
TEXT
  8
5
  6
CONTINUOUS
 62
7
 10
304.717863
 20
273.850000
 40
2.300000
  1
項番
 41
0.921659
 50
0.000000
 51
0.000000
 72
   5
 73
   0
 11
309.317863
 21
273.850000
  0
TEXT
  8
5
  6
CONTINUOUS
 62
7
 10
314.525863
 20
273.500000
 40
3.000000
  1
品　　名
 41
0.737916
 50
0.000000
 51
0.000000
 72
   5
 73
   0
 11
324.509863
 21
273.500000
  0
TEXT
  8
5
  6
CONTINUOUS
 62
7
 10
334.364863
 20
273.500000
 40
3.000000
  1
定  格 / 型  番 / 材　質
 41
0.686277
 50
0.000000
 51
0.000000
 72
   5
 73
   0
 11
364.670863
 21
273.500000
  0
TEXT
  8
5
  6
CONTINUOUS
 62
7
 10
371.820363
 20
273.500000
 40
3.000000
  1
メーカー
 41
0.768293
 50
0.000000
 51
0.000000
 72
   5
 73
   0
 11
382.215363
 21
273.500000
  0
TEXT
  8
5
  6
CONTINUOUS
 62
7
 10
384.717863
 20
273.850000
 40
2.300000
  1
数量
 41
0.921659
 50
0.000000
 51
0.000000
 72
   5
 73
   0
 11
389.317863
 21
273.850000
  0
LINE
  8
5
  6
CONTINUOUS
 62
6
 10
304.5178631899
 20
272.5000000000
 11
309.5178631899
 21
272.5000000000
  0
LINE
  8
5
  6
CONTINUOUS
 62
6
 10
309.5178631899
 20
272.5000000000
 11
329.5178631899
 21
272.5000000000
  0
LINE
  8
5
  6
CONTINUOUS
 62
6
 10
329.5178631899
 20
272.5000000000
 11
369.5178631899
 21
272.5000000000
  0
LINE
  8
5
  6
CONTINUOUS
 62
6
 10
369.5178631899
 20
272.5000000000
 11
384.5178631899
 21
272.5000000000
  0
LINE
  8
5
  6
CONTINUOUS
 62
6
 10
384.5178631899
 20
272.5000000000
 11
389.5178631899
 21
272.5000000000
  0
LINE
  8
4
  6
CONTINUOUS
 62
3
 10
323.4699106964
 20
192.8525214537
 11
376.4699106964
 21
192.8525214537
  0
LINE
  8
4
  6
CONTINUOUS
 62
3
 10
376.4699106964
 20
192.8525214537
 11
376.4699106964
 21
84.8525214537
  0
LINE
  8
4
  6
CONTINUOUS
 62
3
 10
323.4699106964
 20
84.8525214537
 11
323.4699106964
 21
192.8525214537
  0
LINE
  8
4
  6
CONTINUOUS
 62
3
 10
376.4699106964
 20
84.8525214537
 11
323.4699106964
 21
84.8525214537
  0
CIRCLE
  8
4
  6
CONTINUOUS
 62
3
 10
329.9699106964
 20
197.3525214537
 40
1.5000000000
  0
CIRCLE
  8
4
  6
CONTINUOUS
 62
3
 10
369.9699106964
 20
197.3525214537
 40
1.5000000000
  0
CIRCLE
  8
4
  6
CONTINUOUS
 62
3
 10
329.9699106964
 20
80.3525214537
 40
1.5000000000
  0
CIRCLE
  8
4
  6
CONTINUOUS
 62
3
 10
369.9699106964
 20
80.3525214537
 40
1.5000000000
  0
CIRCLE
  8
4
  6
CONTINUOUS
 62
3
 10
349.9699106964
 20
197.3525214537
 40
2.2500000000
  0
CIRCLE
  8
4
  6
CONTINUOUS
 62
3
 10
349.9699106964
 20
80.3525214537
 40
2.2500000000
  0
DIMENSION
  8
4
  6
CONTINUOUS
 62
5
  2
*D7
 10
329.9699106964
 20
204.0459702776
 11
326.7199106964
 21
206.7959702776
  70
0
 13
323.4699106964
 23
192.8525214537
 14
329.9699106964
 24
195.8525214537
 50
0.000000
  0
DIMENSION
  8
4
  6
CONTINUOUS
 62
5
  2
*D8
 10
349.9699106964
 20
204.0459702776
 11
339.9699106964
 21
206.7959702776
  70
0
 13
329.9699106964
 23
195.8525214537
 14
349.9699106964
 24
195.1025214537
 50
0.000000
  0
DIMENSION
  8
4
  6
CONTINUOUS
 62
5
  2
*D9
 10
369.9699106964
 20
204.0459702776
 11
359.9699106964
 21
206.7959702776
  70
0
 13
349.9699106964
 23
195.1025214537
 14
369.9699106964
 24
195.8525214537
 50
0.000000
  0
DIMENSION
  8
4
  6
CONTINUOUS
 62
5
  2
*D10
 10
376.4699106964
 20
204.0459702776
 11
373.2199106964
 21
206.7959702776
  70
0
 13
369.9699106964
 23
195.8525214537
 14
376.4699106964
 24
192.8525214537
 50
0.000000
  0
DIMENSION
  8
4
  6
CONTINUOUS
 62
5
  2
*D11
 10
376.4699106964
 20
211.0459702776
 11
349.9699106964
 21
213.7959702776
  70
0
 13
323.4699106964
 23
192.8525214537
 14
376.4699106964
 24
192.8525214537
 50
0.000000
  0
DIMENSION
  8
4
  6
CONTINUOUS
 62
5
  2
*D12
 10
329.1190410718
 20
198.5878436311
 11
332.2346680216
 21
198.9124490988
  70
3
 15
330.8207803210
 25
196.1171992763
  0
DIMENSION
  8
4
  6
CONTINUOUS
 62
5
  2
*D13
 10
348.5687128589
 20
199.1129602116
 11
352.1215580672
 21
199.0650965883
  70
3
 15
351.3711085338
 25
195.5920826958
  0
TEXT
  8
4
  6
CONTINUOUS
 62
7
 10
327.297935
 20
56.646609
 40
5.000000
  1
パネルカット図
 41
0.872818
 50
0.000000
 51
0.000000
 72
   5
 73
   0
 11
362.297935
 21
56.646609
  0
TEXT
  8
4
  6
CONTINUOUS
 62
7
 10
327.297935
 20
51.646609
 40
5.000000
  1
推奨板厚 t=1.6以上
 41
0.827967
 50
0.000000
 51
0.000000
 72
   5
 73
   0
 11
372.297935
 21
51.646609
  0
LINE
  8
1
  6
HIDDEN
 62
1
 10
384.4699106964
 20
64.6025214537
 11
384.4699106964
 21
220.1025214537
  0
LINE
  8
1
  6
HIDDEN
 62
1
 10
384.4699106964
 20
220.1025214537
 11
315.4699106964
 21
220.1025214537
  0
LINE
  8
1
  6
HIDDEN
 62
1
 10
315.4699106964
 20
220.1025214537
 11
315.4699106964
 21
64.6025214537
  0
LINE
  8
1
  6
HIDDEN
 62
1
 10
384.4699106964
 20
64.6025214537
 11
315.4699106964
 21
64.6025214537
  0
DIMENSION
  8
1
  6
CONTINUOUS
 62
5
  2
*D14
 10
311.2740444133
 20
84.8525214537
 11
308.7740444133
 21
82.6025214537
  70
0
 13
371.4699106964
 23
80.3525214537
 14
323.4699106964
 24
84.8525214537
 50
90.000000
  0
DIMENSION
  8
1
  6
CONTINUOUS
 62
5
  2
*D15
 10
311.2740444133
 20
192.8525214537
 11
308.5240444133
 21
138.8525214537
  70
0
 13
323.4699106964
 23
84.8525214537
 14
323.4699106964
 24
192.8525214537
 50
90.000000
  0
DIMENSION
  8
1
  6
CONTINUOUS
 62
5
  2
*D16
 10
311.2740444133
 20
197.3525214537
 11
308.7740444133
 21
195.1025214537
  70
0
 13
323.4699106964
 23
192.8525214537
 14
371.4699106964
 24
197.3525214537
 50
90.000000
  0
DIMENSION
  8
1
  6
CONTINUOUS
 62
5
  2
*D17
 10
304.2740444133
 20
197.3525214537
 11
301.5240444133
 21
138.8525214537
  70
0
 13
371.4699106964
 23
80.3525214537
 14
371.4699106964
 24
197.3525214537
 50
90.000000
  0
DIMENSION
  8
1
  6
CONTINUOUS
 62
5
  2
*D18
 10
392.1131447593
 20
84.8525214537
 11
389.3631447593
 21
74.7275214537
  70
0
 13
384.4699106964
 23
64.6025214537
 14
376.4699106964
 24
84.8525214537
 50
90.000000
  0
DIMENSION
  8
1
  6
CONTINUOUS
 62
5
  2
*D19
 10
392.1131447593
 20
192.8525214537
 11
389.3631447593
 21
138.8525214537
  70
0
 13
376.4699106964
 23
84.8525214537
 14
376.4699106964
 24
192.8525214537
 50
90.000000
  0
DIMENSION
  8
1
  6
CONTINUOUS
 62
5
  2
*D20
 10
392.1131447593
 20
220.1025214537
 11
389.3631447593
 21
206.4775214537
  70
0
 13
376.4699106964
 23
192.8525214537
 14
384.4699106964
 24
220.1025214537
 50
90.000000
  0
INSERT
  8
1
  6
CONTINUOUS
 62
5
  2
LTEX1
 10
328.3242520258
 20
64.6025214537
  0
LINE
  8
1
  6
CONTINUOUS
 62
7
 10
11.5000000001
 20
265.0000000000
 11
6.5000000001
 21
265.0000000000
  0
TEXT
  8
1
  6
CONTINUOUS
 62
7
 10
7.930800
 20
264.621673
 40
3.300000
  1
D
 41
1.296000
 50
0.000000
 51
0.000000
 72
   5
 73
   0
 11
10.069200
 21
264.621673
  0
LINE
  8
1
  6
CONTINUOUS
 62
7
 10
9.0000000001
 20
269.0000000000
 11
6.5000000001
 21
265.0000000000
  0
LINE
  8
1
  6
CONTINUOUS
 62
7
 10
9.0000000001
 20
269.0000000000
 11
11.5000000001
 21
265.0000000000
  0
POINT
  8
1
  6
CONTINUOUS
 62
7
 10
9.0000000001
 20
267.0000000000
  0
TEXT
  8
1
  6
CONTINUOUS
 62
7
 10
14.836500
 20
265.500000
 40
3.000000
  1
'09.2.18
 41
0.599037
 50
0.000000
 51
0.000000
 72
   5
 73
   0
 11
24.163500
 21
265.500000
  0
TEXT
  8
1
  6
CONTINUOUS
 62
7
 10
28.160983
 20
265.056979
 40
4.000000
  1
ACｱｳﾄﾚｯﾄ仕様明記
 41
0.810537
 50
0.000000
 51
0.000000
 72
   5
 73
   0
 11
60.160983
 21
265.056979
  0
TEXT
  8
1
  6
CONTINUOUS
 62
7
 10
91.000000
 20
265.250000
 40
3.500000
  1
山田
 41
0.921659
 50
0.000000
 51
0.000000
 72
   5
 73
   0
 11
98.000000
 21
265.250000
  0
TEXT
  8
1
  6
CONTINUOUS
 62
7
 10
180.248528
 20
38.632714
 40
4.500000
  1
ACｱｳﾄﾚｯﾄ仕様
 41
0.796813
 50
0.000000
 51
0.000000
 72
   5
 73
   0
 11
207.248528
 21
38.632714
  0
TEXT
  8
1
  6
CONTINUOUS
 62
7
 10
180.248528
 20
33.632714
 40
4.500000
  1
ﾒｰｶｰ:Legrand
 41
0.762389
 50
0.000000
 51
0.000000
 72
   5
 73
   0
 11
207.248528
 21
33.632714
  0
TEXT
  8
1
  6
CONTINUOUS
 62
7
 10
180.248528
 20
28.632714
 40
4.500000
  1
型式:741 02
 41
0.801749
 50
0.000000
 51
0.000000
 72
   5
 73
   0
 11
204.998528
 21
28.632714
  0
TEXT
  8
1
  6
CONTINUOUS
 62
7
 10
180.248528
 20
23.632714
 40
4.500000
  1
定格:15A-127V
 41
0.792683
 50
0.000000
 51
0.000000
 72
   5
 73
   0
 11
209.498528
 21
23.632714
  0
TEXT
  8
1
  6
CONTINUOUS
 62
7
 10
180.248528
 20
18.632714
 40
4.500000
  1
　　 16A-250V
 41
0.792683
 50
0.000000
 51
0.000000
 72
   5
 73
   0
 11
209.498528
 21
18.632714
  0
TEXT
  8
1
  6
CONTINUOUS
 62
7
 10
180.248528
 20
13.632714
 40
4.500000
  1
規格:GOST(Bielorussie)
 41
0.773015
 50
0.000000
 51
0.000000
 72
   5
 73
   0
 11
229.748528
 21
13.632714
  0
POINT
  8
5
  6
CONTINUOUS
 62
6
 10
9.0000000001
 20
272.0000000000
  0
LINE
  8
1
  6
CONTINUOUS
 62
7
 10
11.5000000001
 20
270.0000000000
 11
6.5000000001
 21
270.0000000000
  0
TEXT
  8
1
  6
CONTINUOUS
 62
7
 10
8.090850
 20
269.621673
 40
3.300000
  1
F
 41
1.102000
 50
0.000000
 51
0.000000
 72
   5
 73
   0
 11
9.909150
 21
269.621673
  0
LINE
  8
1
  6
CONTINUOUS
 62
7
 10
9.0000000001
 20
274.0000000000
 11
6.5000000001
 21
270.0000000000
  0
LINE
  8
1
  6
CONTINUOUS
 62
7
 10
9.0000000001
 20
274.0000000000
 11
11.5000000001
 21
270.0000000000
  0
POINT
  8
1
  6
CONTINUOUS
 62
7
 10
9.0000000001
 20
272.0000000000
  0
TEXT
  8
1
  6
CONTINUOUS
 62
7
 10
14.086500
 20
270.500000
 40
3.000000
  1
'10.11.01
 41
0.615870
 50
0.000000
 51
0.000000
 72
   5
 73
   0
 11
24.913500
 21
270.500000
  0
TEXT
  8
1
  6
CONTINUOUS
 62
7
 10
28.160983
 20
270.056979
 40
4.000000
  1
Oﾀｲﾌﾟｱｳﾄﾚｯﾄ追加による型番追加
 41
0.817823
 50
0.000000
 51
0.000000
 72
   5
 73
   0
 11
86.160983
 21
270.056979
  0
TEXT
  8
1
  6
CONTINUOUS
 62
7
 10
91.000000
 20
270.250000
 40
3.500000
  1
山田
 41
0.921659
 50
0.000000
 51
0.000000
 72
   5
 73
   0
 11
98.000000
 21
270.250000
  0
LINE
  8
3
  6
CONTINUOUS
 62
7
 10
237.2208555364
 20
161.4525214537
 11
282.4208555364
 21
161.4525214537
  0
LINE
  8
3
  6
CONTINUOUS
 62
7
 10
237.2208555364
 20
116.2525214537
 11
237.2208555364
 21
161.4525214537
  0
LINE
  8
3
  6
CONTINUOUS
 62
7
 10
282.4208555364
 20
116.2525214537
 11
237.2208555364
 21
116.2525214537
  0
LINE
  8
3
  6
CONTINUOUS
 62
7
 10
282.4208555364
 20
161.4525214537
 11
282.4208555364
 21
116.2525214537
  0
INSERT
  8
1
  6
CONTINUOUS
 62
5
  2
BALN6
 10
273.9664827132
 20
152.5861924475
  0
POINT
  8
3
  6
CONTINUOUS
 62
7
 10
259.8208555364
 20
138.8525214537
  0
POINT
  8
3
  6
CONTINUOUS
 62
7
 10
259.8208555364
 20
138.8525214537
  0
LINE
  8
1
  6
CONTINUOUS
 62
5
 10
253.7208555364
 20
130.7525214537
 11
249.9708555364
 21
137.2477119821
  0
LINE
  8
1
  6
CONTINUOUS
 62
5
 10
249.9708555364
 20
137.2477119821
 11
252.1359190459
 21
138.4977119821
  0
LINE
  8
1
  6
CONTINUOUS
 62
5
 10
252.1359190459
 20
138.4977119821
 11
255.8859190459
 21
132.0025214537
  0
LINE
  8
1
  6
CONTINUOUS
 62
5
 10
255.8859190459
 20
132.0025214537
 11
253.7208555364
 21
130.7525214537
  0
LINE
  8
1
  6
CONTINUOUS
 62
5
 10
265.9208555364
 20
130.7525214537
 11
269.6708555364
 21
137.2477119821
  0
LINE
  8
1
  6
CONTINUOUS
 62
5
 10
269.6708555364
 20
137.2477119821
 11
267.5057920270
 21
138.4977119821
  0
LINE
  8
1
  6
CONTINUOUS
 62
5
 10
267.5057920270
 20
138.4977119821
 11
263.7557920270
 21
132.0025214537
  0
LINE
  8
1
  6
CONTINUOUS
 62
5
 10
263.7557920270
 20
132.0025214537
 11
265.9208555364
 21
130.7525214537
  0
LINE
  8
1
  6
CONTINUOUS
 62
5
 10
258.7208555364
 20
152.9525214537
 11
260.9208555364
 21
152.9525214537
  0
LINE
  8
1
  6
CONTINUOUS
 62
5
 10
260.9208555364
 20
152.9525214537
 11
260.9208555364
 21
145.4525214537
  0
LINE
  8
1
  6
CONTINUOUS
 62
5
 10
260.9208555364
 20
145.4525214537
 11
258.7208555364
 21
145.4525214537
  0
LINE
  8
1
  6
CONTINUOUS
 62
5
 10
258.7208555364
 20
145.4525214537
 11
258.7208555364
 21
152.9525214537
  0
TEXT
  8
1
  6
CONTINUOUS
 62
5
 10
244.820856
 20
109.274353
 40
4.000000
  1
O-Typeｱｳﾄﾚｯﾄ
 41
0.762389
 50
0.000000
 51
0.000000
 72
   5
 73
   0
 11
268.820856
 21
109.274353
  0
TEXT
  8
1
  6
CONTINUOUS
 62
5
 10
244.820856
 20
105.274353
 40
4.000000
  1
型番末尾 「-O」
 41
0.846501
 50
0.000000
 51
0.000000
 72
   5
 73
   0
 11
274.820856
 21
105.274353
  0
TEXT
  8
1
  6
CONTINUOUS
 62
7
 10
109.417775
 20
266.918820
 40
5.500000
  1
型番仕様
 41
0.886918
 50
0.000000
 51
0.000000
 72
   5
 73
   0
 11
131.417775
 21
266.918820
  0
TEXT
  8
1
  6
CONTINUOUS
 62
7
 10
109.417775
 20
261.418820
 40
5.500000
  1
MCON-001-052 %%uPB%%u -%%u*
 41
0.756939
 50
0.000000
 51
0.000000
 72
   5
 73
   0
 11
158.917775
 21
261.418820
  0
LINE
  8
1
  6
CONTINUOUS
 62
7
 10
157.5662253754
 20
261.1115597668
 11
157.5662253754
 21
256.1115597668
  0
TEXT
  8
1
  6
CONTINUOUS
 62
7
 10
156.518266
 20
251.984890
 40
3.500000
  1
空白 :BS-Type (A-Type)主に南ｱﾌﾘｶ
 41
0.783546
 50
0.000000
 51
0.000000
 72
   5
 73
   0
 11
212.518266
 21
251.984890
  0
TEXT
  8
1
  6
CONTINUOUS
 62
7
 10
156.518266
 20
247.984890
 40
3.500000
  1
      使用部品:9A
 41
0.806452
 50
0.000000
 51
0.000000
 72
   5
 73
   0
 11
186.268266
 21
247.984890
  0
TEXT
  8
1
  6
CONTINUOUS
 62
7
 10
156.518266
 20
243.984890
 40
3.500000
  1
O(ｵｰ):O-Type 主に中国
 41
0.794251
 50
0.000000
 51
0.000000
 72
   5
 73
   0
 11
193.268266
 21
243.984890
  0
TEXT
  8
1
  6
CONTINUOUS
 62
7
 10
156.518266
 20
239.984890
 40
3.500000
  1
      使用部品:9O
 41
0.806452
 50
0.000000
 51
0.000000
 72
   5
 73
   0
 11
186.268266
 21
239.984890
  0
TEXT
  8
5
  6
CONTINUOUS
 62
7
 10
305.267863
 20
253.250000
 40
3.500000
  1
9O
 41
0.854701
 50
0.000000
 51
0.000000
 72
   5
 73
   0
 11
308.767863
 21
253.250000
  0
TEXT
  8
5
  6
CONTINUOUS
 62
7
 10
330.517863
 20
253.250000
 40
3.500000
  1
741 52  (O-Type)
 41
0.758294
 50
0.000000
 51
0.000000
 72
   5
 73
   0
 11
358.517863
 21
253.250000
  0
TEXT
  8
5
  6
CONTINUOUS
 62
7
 10
370.517863
 20
253.500000
 40
3.000000
  1
Legrand
 41
0.734513
 50
0.000000
 51
0.000000
 72
   5
 73
   0
 11
380.477863
 21
253.500000
  0
TEXT
  8
5
  6
CONTINUOUS
 62
7
 10
386.142863
 20
253.250000
 40
3.500000
  1
1
 41
1.000000
 50
0.000000
 51
0.000000
 72
   5
 73
   0
 11
387.892863
 21
253.250000
  0
INSERT
  8
1
  6
CONTINUOUS
 62
7
  2
S5
 10
393.0020125722
 20
255.3911338517
  0
TEXT
  8
5
  6
CONTINUOUS
 62
7
 10
310.517863
 20
253.500000
 40
3.000000
  1
ACｱｳﾄﾚｯﾄ
 41
0.770713
 50
0.000000
 51
0.000000
 72
   5
 73
   0
 11
322.517863
 21
253.500000
  0
TEXT
  8
1
  6
CONTINUOUS
 62
7
 10
114.543411
 20
241.814621
 40
3.500000
  1
①ﾍﾞｰｽ,②ｶﾊﾞｰ材質
 41
0.806452
 50
0.000000
 51
0.000000
 72
   5
 73
   0
 11
144.293411
 21
241.814621
  0
TEXT
  8
1
  6
CONTINUOUS
 62
7
 10
114.543411
 20
238.314621
 40
3.500000
  1
無印:ｱﾙﾐﾀﾞｲｷｬｽﾄ
 41
0.786164
 50
0.000000
 51
0.000000
 72
   5
 73
   0
 11
140.793411
 21
238.314621
  0
TEXT
  8
1
  6
CONTINUOUS
 62
7
 10
114.543411
 20
234.814621
 40
3.500000
  1
PB:PBT(UL:V-0)
 41
0.760043
 50
0.000000
 51
0.000000
 72
   5
 73
   0
 11
139.043411
 21
234.814621
  0
POINT
  8
5
  6
CONTINUOUS
 62
6
 10
108.7860907866
 20
244.3354031146
  0
POINT
  8
5
  6
CONTINUOUS
 62
6
 10
108.7860907866
 20
244.3354031146
  0
POINT
  8
1
  6
CONTINUOUS
 62
6
 10
108.7860907866
 20
244.3354031146
  0
POINT
  8
5
  6
CONTINUOUS
 62
6
 10
108.7860907866
 20
244.3354031146
  0
INSERT
  8
1
  6
CONTINUOUS
 62
7
  2
S6
 10
108.7860907866
 20
244.3354031146
  0
CIRCLE
  8
1
  6
HIDDEN
 62
6
 10
193.9105182328
 20
186.3525214536
 40
2.0000000000
  0
CIRCLE
  8
1
  6
HIDDEN
 62
6
 10
193.9105182328
 20
186.3525214536
 40
4.0000000000
  0
INSERT
  8
1
  6
CONTINUOUS
 62
7
  2
S7
 10
183.4105174579
 20
186.3525214536
  0
INSERT
  8
1
  6
CONTINUOUS
 62
7
  2
S8
 10
233.9316052311
 20
177.0992534633
  0
INSERT
  8
1
  6
CONTINUOUS
 62
5
  2
LTEX2
 10
197.9105182328
 20
186.3525214536
  0
INSERT
  8
3
  6
CONTINUOUS
 62
5
  2
LTEX3
 10
134.5962334454
 20
86.7605564293
  0
POINT
  8
5
  6
CONTINUOUS
 62
6
 10
137.2868002249
 20
38.5097255163
  0
POINT
  8
5
  6
CONTINUOUS
 62
6
 10
137.2868002249
 20
38.5097255163
  0
POINT
  8
1
  6
CONTINUOUS
 62
6
 10
137.2868002249
 20
38.5097255163
  0
POINT
  8
5
  6
CONTINUOUS
 62
6
 10
137.2868002249
 20
38.5097255163
  0
INSERT
  8
1
  6
CONTINUOUS
 62
7
  2
S9
 10
137.2868002249
 20
38.5097255163
  0
INSERT
  8
3
  6
CONTINUOUS
 62
5
  2
LTEX4
 10
88.2645106558
 20
17.3439335173
  0
INSERT
  8
3
  6
CONTINUOUS
 62
5
  2
LTEX5
 10
39.2645106558
 20
18.7789024664
  0
LINE
  8
5
  6
CONTINUOUS
 62
6
 10
4.5000000001
 20
274.5000000000
 11
99.0000000001
 21
274.5000000000
  0
POINT
  8
5
  6
CONTINUOUS
 62
6
 10
9.0000000001
 20
277.0000000000
  0
POINT
  8
5
  6
CONTINUOUS
 62
6
 10
19.5000000001
 20
277.0000000000
  0
POINT
  8
5
  6
CONTINUOUS
 62
6
 10
94.5000000001
 20
277.0000000000
  0
POINT
  8
5
  6
CONTINUOUS
 62
6
 10
25.5000000001
 20
277.0000000000
  0
POINT
  8
5
  6
CONTINUOUS
 62
6
 10
9.0000000001
 20
277.0000000000
  0
LINE
  8
1
  6
CONTINUOUS
 62
7
 10
11.5000000001
 20
275.0000000000
 11
6.5000000001
 21
275.0000000000
  0
TEXT
  8
1
  6
CONTINUOUS
 62
7
 10
7.878000
 20
274.621673
 40
3.300000
  1
G
 41
1.360000
 50
0.000000
 51
0.000000
 72
   5
 73
   0
 11
10.122000
 21
274.621673
  0
LINE
  8
1
  6
CONTINUOUS
 62
7
 10
9.0000000001
 20
279.0000000000
 11
6.5000000001
 21
275.0000000000
  0
LINE
  8
1
  6
CONTINUOUS
 62
7
 10
9.0000000001
 20
279.0000000000
 11
11.5000000001
 21
275.0000000000
  0
POINT
  8
1
  6
CONTINUOUS
 62
7
 10
9.0000000001
 20
277.0000000000
  0
TEXT
  8
1
  6
CONTINUOUS
 62
7
 10
14.836500
 20
275.500000
 40
3.000000
  1
'22.3.23
 41
0.599037
 50
0.000000
 51
0.000000
 72
   5
 73
   0
 11
24.163500
 21
275.500000
  0
TEXT
  8
1
  6
CONTINUOUS
 62
7
 10
28.160983
 20
275.056979
 40
4.000000
  1
PB追加に伴う変更
 41
0.854701
 50
0.000000
 51
0.000000
 72
   5
 73
   0
 11
60.160983
 21
275.056979
  0
TEXT
  8
1
  6
CONTINUOUS
 62
7
 10
91.000000
 20
275.250000
 40
3.500000
  1
山田
 41
0.921659
 50
0.000000
 51
0.000000
 72
   5
 73
   0
 11
98.000000
 21
275.250000
  0
POINT
  8
5
  6
CONTINUOUS
 62
6
 10
213.9256723456
 20
267.4081570662
  0
POINT
  8
5
  6
CONTINUOUS
 62
6
 10
213.9256723456
 20
267.4081570662
  0
POINT
  8
1
  6
CONTINUOUS
 62
6
 10
213.9256723456
 20
267.4081570662
  0
POINT
  8
5
  6
CONTINUOUS
 62
6
 10
213.9256723455
 20
267.4081570662
  0
INSERT
  8
1
  6
CONTINUOUS
 62
7
  2
S10
 10
213.9256723455
 20
267.4081570662
  0
TEXT
  8
5
  6
CONTINUOUS
 62
7
 10
243.347411
 20
269.028436
 40
3.000000
  1
ｱﾙﾐﾀﾞｲｷｬｽﾄ銀色塗装
 41
0.833541
 50
0.000000
 51
0.000000
 72
   5
 73
   0
 11
271.379411
 21
269.028436
  0
TEXT
  8
5
  6
CONTINUOUS
 62
7
 10
243.347411
 20
266.028436
 40
3.000000
  1
又は
 41
0.921659
 50
0.000000
 51
0.000000
 72
   5
 73
   0
 11
249.347411
 21
266.028436
  0
TEXT
  8
5
  6
CONTINUOUS
 62
7
 10
243.347411
 20
263.028436
 40
3.000000
  1
PBT 黒色(UL  V-0)
 41
0.751838
 50
0.000000
 51
0.000000
 72
   5
 73
   0
 11
267.887411
 21
263.028436
  0
LINE
  8
1
  6
CONTINUOUS
 62
7
 10
147.8636043498
 20
261.3198242089
 11
147.8636043498
 21
251.2698138647
  0
LINE
  8
1
  6
CONTINUOUS
 62
7
 10
147.8636043498
 20
251.2698138647
 11
116.4852387196
 21
251.2698138647
  0
LINE
  8
1
  6
CONTINUOUS
 62
7
 10
116.4852387196
 20
251.2698138647
 11
116.4852387196
 21
246.5798090374
  0
INSERT
  8
1
  6
CONTINUOUS
 62
5
  2
BALN7
 10
176.5315913021
 20
167.4735945239
  0
INSERT
  8
1
  6
CONTINUOUS
 62
5
  2
BALN8
 10
193.9105182328
 20
170.2650214537
  0
INSERT
  8
1
  6
CONTINUOUS
 62
5
  2
BALN9
 10
208.0561454095
 20
152.5861924475
  0
INSERT
  8
1
  6
CONTINUOUS
 62
7
  2
S11
 10
397.9911248503
 20
265.3911338517
  0
ENDSEC
  0
EOF
