  0
SECTION
  2
HEADER
  9
$ACADVER
  1
AC1009
  9
$DWGCODEPAGE
  3
dos932
  9
$INSBASE
 10
202.2490435001
 20
-18.2327615310
  9
$EXTMIN
 10
-380.7638398488
 20
-371.8059262898
  9
$EXTMAX
 10
905.1614918533
 20
335.3404032277
  9
$LIMMIN
 10
-380.7638398488
 20
-371.8059262898
  9
$LIMMAX
 10
905.1614918533
 20
335.3404032277
  9
$VIEWCTR
 10
0.0000000000
 20
0.0000000000
  9
$VIEWSIZE
 40
0.0000000000
  9
$SNAPMODE
 70
     0
  9
$SNAPUNIT
 10
20.0
 20
20.0
  9
$SNAPBASE
 10
0.000000
 20
0.000000
  9
$SNAPANG
 50
0.0
  9
$SNAPSTYLE
 70
     0
  9
$SNAPISOPAIR
 70
     0
  9
$GRIDMODE
 70
     0
  9
$GRIDUNIT
 10
10.000000
 20
10.000000
  9
$ORTHOMODE
 70
     0
  9
$REGENMODE
 70
     0
  9
$FILLMODE
 70
     1
  9
$QTEXTMODE
 70
     0
  9
$DRAGMODE
 70
     1
  9
$LTSCALE
 40
1.0
  9
$OSMODE
 70
     0
  9
$ATTMODE
 70
     1
  9
$TEXTSIZE
 40
4.000000
  9
$TRACEWID
 40
0.05
  9
$TEXTSTYLE
  7
STANDARD
  9
$CLAYER
  8
1
  9
$CELTYPE
  6
CONTINUOUS
  9
$CECOLOR
  62
7
  9
$DIMSCALE
 40
1.0000000000
  9
$DIMASZ
 40
2.0000000000
  9
$DIMEXO
 40
0.5000000000
  9
$DIMDLI
 40
7.000000
  9
$DIMRND
 40
0.0
  9
$DIMDLE
 40
0.0
  9
$DIMEXE
 40
1.0000000000
  9
$DIMTP
 40
0.0
  9
$DIMTM
 40
0.0
  9
$DIMTXT
 40
3.500000
  9
$DIMCEN
 40
0.09
  9
$DIMTSZ
 40
0.0
  9
$DIMTOL
 70
     0
  9
$DIMLIM
 70
     0
  9
$DIMTIH
 70
     0
  9
$DIMTOH
 70
     0
  9
$DIMSE1
 70
     0
  9
$DIMSE2
 70
     0
  9
$DIMTAD
 70
     1
  9
$DIMZIN
 70
     0
  9
$DIMBLK
  1

  9
$DIMASO
 70
     1
  9
$DIMSHO
 70
     0
  9
$DIMPOST
  1

  9
$DIMAPOST
  1

  9
$DIMALT
 70
     0
  9
$DIMALTD
 70
     3
  9
$DIMCLRD
 70
     5
  9
$DIMCLRE
 70
     5
  9
$DIMCLRT
 70
     7
  9
$DIMALTF
 40
25.4
  9
$DIMLFAC
 40
1.0
  9
$DIMTOFL
 70
     0
  9
$DIMTVP
 40
0.0
  9
$DIMTIX
 70
     0
  9
$DIMSOXD
 70
     0
  9
$DIMSAH
 70
     0
  9
$LUNITS
 70
     2
  9
$LUPREC
 70
     4
  9
$AXISMODE
 70
     0
  9
$AXISUNIT
 10
0.0
 20
0.0
  9
$SKETCHINC
 40
0.1
  9
$FILLETRAD
 40
0.0
  9
$AUNITS
 70
     0
  9
$AUPREC
 70
     0
  9
$MENU
  1
ACAD
  9
$ELEVATION
 40
0.0
  9
$THICKNESS
 40
0.0
  9
$VIEWDIR
 10
0.0
 20
0.0
 30
1.0
  9
$LIMCHECK
 70
     0
  9
$BLIPMODE
 70
     1
  9
$CHAMFERA
 40
0.0
  9
$CHAMFERB
 40
0.0
  9
$FASTZOOM
 70
     1
  9
$SKPOLY
 70
     0
  9
$TDCREATE
 40
2460019.0000000051
  9
$TDUPDATE
 40
2460019.0000000051
  9
$TDINDWG
 40
0.0000000000
  9
$TDUSRTIMER
 40
0.0000000000
  9
$USRTIMER
 70
     1
  9
$ANGBASE
 50
0.0
  9
$ANGDIR
 70
     0
  9
$PDMODE
 70
     65
  9
$PDSIZE
 40
0.2
  9
$PLINEWID
 40
0.0
  9
$COORDS
 70
     2
  9
$USERI1
 70
     0
  9
$USERI2
 70
     0
  9
$USERI3
 70
     0
  9
$USERI4
 70
     0
  9
$USERI5
 70
     0
  9
$USERR1
 40
0.0
  9
$USERR2
 40
0.0
  9
$USERR3
 40
0.0
  9
$USERR4
 40
0.0
  9
$USERR5
 40
0.0
  0
ENDSEC
  0
SECTION
  2
TABLES
  0
TABLE
  2
LTYPE
 70
     9
  0
LTYPE
  2
CONTINUOUS
 70
    64
  3
Solid line
 72
    65
 73
     0
 40
0.0
  0
LTYPE
  2
DASHED
 70
    64
  3
__ __ __ __ __ __ __ __ __ __ __ __ __ __ __
 72
    65
 73
     2
 40
3.0
 49
2.0
 49
-1.0
  0
LTYPE
  2
HIDDEN
 70
    64
  3
_ _ _ _ _ _ _ _ _ _ _ _ _ _ _ _ _ _ _ _ _ _ _
 72
    65
 73
     2
 40
1.5
 49
1.0
 49
-0.5
  0
LTYPE
  2
CENTER
 70
    64
  3
____ _ ____ _ ____ _ ____ _ ____ _ ____ _ ____
 72
    65
 73
     4
 40
24.0
 49
20.0
 49
-1.0
 49
2.0
 49
-1.0
  0
LTYPE
  2
PHANTOM
 70
    64
  3
_____ _ _ _____ _ _ _____ _ _ _____ _ _ ____
 72
    65
 73
     6
 40
27.0
 49
20.0
 49
-1.0
 49
2.0
 49
-1.0
 49
2.0
 49
-1.0
  0
LTYPE
  2
DOT
 70
    64
  3
...............................................
 72
    65
 73
     2
 40
1.5
 49
0.5
 49
-1.0
  0
LTYPE
  2
DASHDOT
 70
    64
  3
__ . __ . __ . __ . __ . __ . __ . __ . __ . __
 72
    65
 73
     4
 40
8.5
 49
6.0
 49
-1.0
 49
0.5
 49
-1.0
  0
LTYPE
  2
DIVIDE
 70
    64
  3
__ . . __ . . __ . . __ . . __ . . __ . . __
 72
    65
 73
     6
 40
10.0
 49
6.0
 49
-1.0
 49
0.5
 49
-1.0
 49
0.5
 49
-1.0
  0
LTYPE
  2
BORDER
 70
    64
  3
__ __ . __ __ . __ __ . __ __ . __ __ . __ __
 72
    65
 73
     6
 40
15.5
 49
6.0
 49
-1.0
 49
6.0
 49
-1.0
 49
0.5
 49
-1.0
  0
ENDTAB
  0
TABLE
  2
LAYER
 70
  8
  0
LAYER
  2
0
 70
    64
 62
     7
  6
CONTINUOUS
  0
LAYER
  2
1
 70
    64
 62
     7
  6
CONTINUOUS
  0
LAYER
  2
2
 70
    64
 62
     7
  6
CONTINUOUS
  0
LAYER
  2
3
 70
    64
 62
     7
  6
CONTINUOUS
  0
LAYER
  2
4
 70
    64
 62
     7
  6
CONTINUOUS
  0
LAYER
  2
5
 70
    64
 62
     7
  6
CONTINUOUS
  0
LAYER
  2
7
 70
    64
 62
     7
  6
CONTINUOUS
  0
LAYER
  2
DEFPOINTS
 70
     0
 62
    -7
  6
CONTINUOUS
  0
ENDTAB
  0
TABLE
  2
STYLE
 70
     1
  0
STYLE
  2
STANDARD
 70
    64
 40
0.0
 41
1.0
 71
     0
 42
4.000000
  3
TXT
  4
EXTFONT
 50
0.0
  0
ENDTAB
  0
TABLE
  2
VIEW
 70
     0
  0
ENDTAB
  0
ENDSEC
  0
SECTION
  2
BLOCKS
  0
BLOCK
  8
0
  2
CI
 70
   0
 10
0.0
 20
0.0
  0
CIRCLE
  8
0
  62
0
 10
0.0
 20
0.0
 40
0.1666666666
  0
ENDBLK
  8
0
  0
BLOCK
  8
5
  2
S0
 70
     0
 10
0.0000000000
 20
0.0000000000
  3
S0
  0
POINT
  8
5
  6
CONTINUOUS
 62
6
 10
-6.5000000000
 20
-6.5000000000
  0
LINE
  8
5
  6
CONTINUOUS
 62
6
 10
4.5000000000
 20
4.5000000000
 11
402.5000000000
 21
4.5000000000
  0
LINE
  8
5
  6
CONTINUOUS
 62
6
 10
4.5000000000
 20
4.5000000000
 11
4.5000000000
 21
279.5000000000
  0
LINE
  8
5
  6
CONTINUOUS
 62
6
 10
44.5000000000
 20
284.0000000000
 11
44.5000000000
 21
279.5000000000
  0
LINE
  8
5
  6
CONTINUOUS
 62
6
 10
44.5000000000
 20
4.5000000000
 11
44.5000000000
 21
0.0000000000
  0
LINE
  8
5
  6
CONTINUOUS
 62
6
 10
84.5000000000
 20
284.0000000000
 11
84.5000000000
 21
279.5000000000
  0
LINE
  8
5
  6
CONTINUOUS
 62
6
 10
124.5000000000
 20
284.0000000000
 11
124.5000000000
 21
279.5000000000
  0
LINE
  8
5
  6
CONTINUOUS
 62
6
 10
164.5000000000
 20
284.0000000000
 11
164.5000000000
 21
279.5000000000
  0
LINE
  8
5
  6
CONTINUOUS
 62
6
 10
204.5000000000
 20
284.0000000000
 11
204.5000000000
 21
279.5000000000
  0
LINE
  8
5
  6
CONTINUOUS
 62
6
 10
244.5000000000
 20
284.0000000000
 11
244.5000000000
 21
279.5000000000
  0
LINE
  8
5
  6
CONTINUOUS
 62
6
 10
84.5000000000
 20
4.5000000000
 11
84.5000000000
 21
0.0000000000
  0
LINE
  8
5
  6
CONTINUOUS
 62
6
 10
124.5000000000
 20
4.5000000000
 11
124.5000000000
 21
0.0000000000
  0
LINE
  8
5
  6
CONTINUOUS
 62
6
 10
164.5000000000
 20
4.5000000000
 11
164.5000000000
 21
0.0000000000
  0
LINE
  8
5
  6
CONTINUOUS
 62
6
 10
204.5000000000
 20
4.5000000000
 11
204.5000000000
 21
0.0000000000
  0
LINE
  8
5
  6
CONTINUOUS
 62
6
 10
244.5000000000
 20
4.5000000000
 11
244.5000000000
 21
0.0000000000
  0
LINE
  8
5
  6
CONTINUOUS
 62
6
 10
0.0000000000
 20
239.5000000000
 11
4.5000000000
 21
239.5000000000
  0
LINE
  8
5
  6
CONTINUOUS
 62
6
 10
402.5000000000
 20
239.5000000000
 11
407.0000000000
 21
239.5000000000
  0
LINE
  8
5
  6
CONTINUOUS
 62
6
 10
0.0000000000
 20
199.5000000000
 11
4.5000000000
 21
199.5000000000
  0
LINE
  8
5
  6
CONTINUOUS
 62
6
 10
0.0000000000
 20
159.5000000000
 11
4.5000000000
 21
159.5000000000
  0
LINE
  8
5
  6
CONTINUOUS
 62
6
 10
0.0000000000
 20
119.5000000000
 11
4.5000000000
 21
119.5000000000
  0
LINE
  8
5
  6
CONTINUOUS
 62
6
 10
402.5000000000
 20
199.5000000000
 11
407.0000000000
 21
199.5000000000
  0
LINE
  8
5
  6
CONTINUOUS
 62
6
 10
402.5000000000
 20
159.5000000000
 11
407.0000000000
 21
159.5000000000
  0
LINE
  8
5
  6
CONTINUOUS
 62
6
 10
402.5000000000
 20
119.5000000000
 11
407.0000000000
 21
119.5000000000
  0
TEXT
  8
5
  6
CONTINUOUS
 62
6
 10
23.500000
 20
279.500000
 40
4.000000
  1
1
 41
1.000000
 50
0.000000
 51
0.000000
 72
   5
 73
   0
 11
25.500000
 21
279.500000
  0
TEXT
  8
5
  6
CONTINUOUS
 62
6
 10
23.500000
 20
0.500000
 40
4.000000
  1
1
 41
1.000000
 50
0.000000
 51
0.000000
 72
   5
 73
   0
 11
25.500000
 21
0.500000
  0
TEXT
  8
5
  6
CONTINUOUS
 62
6
 10
63.500000
 20
279.500000
 40
4.000000
  1
2
 41
1.000000
 50
0.000000
 51
0.000000
 72
   5
 73
   0
 11
65.500000
 21
279.500000
  0
TEXT
  8
5
  6
CONTINUOUS
 62
6
 10
103.500000
 20
279.500000
 40
4.000000
  1
3
 41
1.000000
 50
0.000000
 51
0.000000
 72
   5
 73
   0
 11
105.500000
 21
279.500000
  0
TEXT
  8
5
  6
CONTINUOUS
 62
6
 10
143.500000
 20
279.500000
 40
4.000000
  1
4
 41
1.000000
 50
0.000000
 51
0.000000
 72
   5
 73
   0
 11
145.500000
 21
279.500000
  0
TEXT
  8
5
  6
CONTINUOUS
 62
6
 10
183.500000
 20
279.500000
 40
4.000000
  1
5
 41
1.000000
 50
0.000000
 51
0.000000
 72
   5
 73
   0
 11
185.500000
 21
279.500000
  0
TEXT
  8
5
  6
CONTINUOUS
 62
6
 10
223.500000
 20
279.500000
 40
4.000000
  1
6
 41
1.000000
 50
0.000000
 51
0.000000
 72
   5
 73
   0
 11
225.500000
 21
279.500000
  0
TEXT
  8
5
  6
CONTINUOUS
 62
6
 10
263.500000
 20
279.500000
 40
4.000000
  1
7
 41
1.000000
 50
0.000000
 51
0.000000
 72
   5
 73
   0
 11
265.500000
 21
279.500000
  0
TEXT
  8
5
  6
CONTINUOUS
 62
6
 10
63.500000
 20
0.500000
 40
4.000000
  1
2
 41
1.000000
 50
0.000000
 51
0.000000
 72
   5
 73
   0
 11
65.500000
 21
0.500000
  0
TEXT
  8
5
  6
CONTINUOUS
 62
6
 10
103.500000
 20
0.500000
 40
4.000000
  1
3
 41
1.000000
 50
0.000000
 51
0.000000
 72
   5
 73
   0
 11
105.500000
 21
0.500000
  0
TEXT
  8
5
  6
CONTINUOUS
 62
6
 10
143.500000
 20
0.500000
 40
4.000000
  1
4
 41
1.000000
 50
0.000000
 51
0.000000
 72
   5
 73
   0
 11
145.500000
 21
0.500000
  0
TEXT
  8
5
  6
CONTINUOUS
 62
6
 10
183.500000
 20
0.500000
 40
4.000000
  1
5
 41
1.000000
 50
0.000000
 51
0.000000
 72
   5
 73
   0
 11
185.500000
 21
0.500000
  0
TEXT
  8
5
  6
CONTINUOUS
 62
6
 10
223.500000
 20
0.500000
 40
4.000000
  1
6
 41
1.000000
 50
0.000000
 51
0.000000
 72
   5
 73
   0
 11
225.500000
 21
0.500000
  0
TEXT
  8
5
  6
CONTINUOUS
 62
6
 10
263.500000
 20
0.500000
 40
4.000000
  1
7
 41
1.000000
 50
0.000000
 51
0.000000
 72
   5
 73
   0
 11
265.500000
 21
0.500000
  0
TEXT
  8
5
  6
CONTINUOUS
 62
6
 10
1.626773
 20
257.454143
 40
4.000000
  1
A
 41
1.266000
 50
0.000000
 51
0.000000
 72
   5
 73
   0
 11
4.158773
 21
257.454143
  0
TEXT
  8
5
  6
CONTINUOUS
 62
6
 10
402.786513
 20
257.492354
 40
4.000000
  1
A
 41
1.266000
 50
0.000000
 51
0.000000
 72
   5
 73
   0
 11
405.318513
 21
257.492354
  0
TEXT
  8
5
  6
CONTINUOUS
 62
6
 10
1.610773
 20
217.454143
 40
4.000000
  1
B
 41
1.274000
 50
0.000000
 51
0.000000
 72
   5
 73
   0
 11
4.158773
 21
217.454143
  0
TEXT
  8
5
  6
CONTINUOUS
 62
6
 10
1.502773
 20
177.454143
 40
4.000000
  1
C
 41
1.328000
 50
0.000000
 51
0.000000
 72
   5
 73
   0
 11
4.158773
 21
177.454143
  0
TEXT
  8
5
  6
CONTINUOUS
 62
6
 10
1.566773
 20
137.454143
 40
4.000000
  1
D
 41
1.296000
 50
0.000000
 51
0.000000
 72
   5
 73
   0
 11
4.158773
 21
137.454143
  0
TEXT
  8
5
  6
CONTINUOUS
 62
6
 10
1.894773
 20
97.454143
 40
4.000000
  1
E
 41
1.132000
 50
0.000000
 51
0.000000
 72
   5
 73
   0
 11
4.158773
 21
97.454143
  0
TEXT
  8
5
  6
CONTINUOUS
 62
6
 10
402.786513
 20
217.492354
 40
4.000000
  1
B
 41
1.274000
 50
0.000000
 51
0.000000
 72
   5
 73
   0
 11
405.334513
 21
217.492354
  0
TEXT
  8
5
  6
CONTINUOUS
 62
6
 10
402.786513
 20
177.492354
 40
4.000000
  1
C
 41
1.328000
 50
0.000000
 51
0.000000
 72
   5
 73
   0
 11
405.442513
 21
177.492354
  0
TEXT
  8
5
  6
CONTINUOUS
 62
6
 10
402.786513
 20
137.492354
 40
4.000000
  1
D
 41
1.296000
 50
0.000000
 51
0.000000
 72
   5
 73
   0
 11
405.378513
 21
137.492354
  0
TEXT
  8
5
  6
CONTINUOUS
 62
6
 10
402.786513
 20
97.492354
 40
4.000000
  1
E
 41
1.132000
 50
0.000000
 51
0.000000
 72
   5
 73
   0
 11
405.050513
 21
97.492354
  0
LINE
  8
5
  6
CONTINUOUS
 62
6
 10
347.5000000000
 20
29.5000000000
 11
347.5000000000
 21
4.5000000000
  0
LINE
  8
5
  6
CONTINUOUS
 62
6
 10
347.5000000000
 20
14.5000000000
 11
402.5000000000
 21
14.5000000000
  0
LINE
  8
5
  6
CONTINUOUS
 62
6
 10
347.5000000000
 20
7.5000000000
 11
281.5000000000
 21
7.5000000000
  0
LINE
  8
5
  6
CONTINUOUS
 62
6
 10
303.5000000000
 20
4.5000000000
 11
303.5000000000
 21
21.0000000000
  0
LINE
  8
5
  6
CONTINUOUS
 62
6
 10
336.5000000000
 20
17.0000000000
 11
336.5000000000
 21
4.5000000000
  0
LINE
  8
5
  6
CONTINUOUS
 62
6
 10
325.5000000000
 20
4.5000000000
 11
325.4999999999
 21
21.0000000000
  0
LINE
  8
5
  6
CONTINUOUS
 62
6
 10
314.5000000000
 20
17.0000000000
 11
314.5000000000
 21
4.5000000000
  0
TEXT
  8
5
  6
CONTINUOUS
 62
6
 10
294.250000
 20
4.750000
 40
2.500000
  1
Design
 41
0.779221
 50
0.000000
 51
0.000000
 72
   5
 73
   0
 11
301.750000
 21
4.750000
  0
TEXT
  8
5
  6
CONTINUOUS
 62
6
 10
305.875000
 20
4.750000
 40
2.500000
  1
Draft
 41
0.786164
 50
0.000000
 51
0.000000
 72
   5
 73
   0
 11
312.125000
 21
4.750000
  0
TEXT
  8
5
  6
CONTINUOUS
 62
6
 10
316.875000
 20
4.750000
 40
2.500000
  1
Check
 41
0.786164
 50
0.000000
 51
0.000000
 72
   5
 73
   0
 11
323.125000
 21
4.750000
  0
LINE
  8
5
  6
CONTINUOUS
 62
6
 10
281.5000000000
 20
29.5000000000
 11
402.5000000000
 21
29.5000000000
  0
LINE
  8
5
  6
CONTINUOUS
 62
6
 10
281.5000000000
 20
17.0000000000
 11
347.5000000000
 21
17.0000000000
  0
LINE
  8
5
  6
CONTINUOUS
 62
6
 10
392.5000000000
 20
14.5000000000
 11
392.5000000000
 21
4.5000000000
  0
TEXT
  8
5
  6
CONTINUOUS
 62
6
 10
395.520000
 20
5.000000
 40
2.000000
  1
SIZE
 41
0.788845
 50
0.000000
 51
0.000000
 72
   5
 73
   0
 11
399.480000
 21
5.000000
  0
LINE
  8
5
  6
CONTINUOUS
 62
6
 10
392.5000000000
 20
7.5000000000
 11
402.5000000000
 21
7.5000000000
  0
TEXT
  8
5
  6
CONTINUOUS
 62
6
 10
394.005000
 20
8.500000
 40
5.000000
  1
Ａ３
 41
0.644240
 50
0.000000
 51
0.000000
 72
   5
 73
   0
 11
400.995000
 21
8.500000
  0
TEXT
  8
5
  6
CONTINUOUS
 62
6
 10
338.875000
 20
4.750000
 40
2.500000
  1
Scale
 41
0.786164
 50
0.000000
 51
0.000000
 72
   5
 73
   0
 11
345.125000
 21
4.750000
  0
TEXT
  8
5
  6
CONTINUOUS
 62
6
 10
338.250000
 20
9.750000
 40
5.000000
  1
1/1
 41
0.815217
 50
0.000000
 51
0.000000
 72
   5
 73
   0
 11
345.750000
 21
9.750000
  0
TEXT
  8
5
  6
CONTINUOUS
 62
6
 10
326.625000
 20
4.750000
 40
2.500000
  1
Confirm
 41
0.774336
 50
0.000000
 51
0.000000
 72
   5
 73
   0
 11
335.375000
 21
4.750000
  0
TEXT
  8
5
  6
CONTINUOUS
 62
6
 10
284.500000
 20
4.750000
 40
2.500000
  1
Date
 41
0.796813
 50
0.000000
 51
0.000000
 72
   5
 73
   0
 11
289.500000
 21
4.750000
  0
TEXT
  8
5
  6
CONTINUOUS
 62
6
 10
283.250000
 20
12.462500
 40
3.000000
  1
2010/
 41
0.786164
 50
0.000000
 51
0.000000
 72
   5
 73
   0
 11
290.750000
 21
12.462500
  0
TEXT
  8
5
  6
CONTINUOUS
 62
6
 10
283.250000
 20
9.037500
 40
3.000000
  1
09/07
 41
0.786164
 50
0.000000
 51
0.000000
 72
   5
 73
   0
 11
290.750000
 21
9.037500
  0
LINE
  8
5
  6
CONTINUOUS
 62
6
 10
292.5000000000
 20
17.0000000000
 11
292.5000000000
 21
4.5000000000
  0
LINE
  8
5
  6
CONTINUOUS
 62
6
 10
281.5000000000
 20
4.5000000000
 11
281.5000000000
 21
29.5000000000
  0
TEXT
  8
5
  6
CONTINUOUS
 62
6
 10
281.755293
 20
18.213190
 40
2.000000
  1
Material
 41
0.638921
 50
0.000000
 51
0.000000
 72
   5
 73
   0
 11
288.387293
 21
18.213190
  0
LINE
  8
5
  6
CONTINUOUS
 62
6
 10
288.5000000000
 20
21.0000000000
 11
288.5000000000
 21
17.0000000000
  0
TEXT
  8
5
  6
CONTINUOUS
 62
6
 10
303.605000
 20
18.000000
 40
2.000000
  1
Process
 41
0.751106
 50
0.000000
 51
0.000000
 72
   5
 73
   0
 11
310.395000
 21
18.000000
  0
LINE
  8
5
  6
CONTINUOUS
 62
6
 10
310.5000000000
 20
21.0000000000
 11
310.5000000000
 21
17.0000000000
  0
TEXT
  8
5
  6
CONTINUOUS
 62
6
 10
325.773000
 20
18.000000
 40
2.000000
  1
Amount
 41
0.838182
 50
0.000000
 51
0.000000
 72
   5
 73
   0
 11
332.227000
 21
18.000000
  0
LINE
  8
5
  6
CONTINUOUS
 62
6
 10
332.4999999999
 20
21.0000000000
 11
332.4999999999
 21
17.0000000000
  0
LINE
  8
5
  6
CONTINUOUS
 62
6
 10
347.5000000000
 20
21.0000000000
 11
281.5000000000
 21
21.0000000000
  0
POINT
  8
5
  6
CONTINUOUS
 62
6
 10
289.5000000000
 20
19.0000000000
  0
POINT
  8
5
  6
CONTINUOUS
 62
6
 10
311.5000000000
 20
19.0000000000
  0
POINT
  8
5
  6
CONTINUOUS
 62
6
 10
339.9999999999
 20
19.0000000000
  0
POINT
  8
5
  6
CONTINUOUS
 62
6
 10
298.0000000000
 20
12.2500000000
  0
POINT
  8
5
  6
CONTINUOUS
 62
6
 10
309.0000000000
 20
12.2500000000
  0
POINT
  8
5
  6
CONTINUOUS
 62
6
 10
320.0000000000
 20
12.2500000000
  0
POINT
  8
5
  6
CONTINUOUS
 62
6
 10
331.0000000000
 20
12.2500000000
  0
POINT
  8
5
  6
CONTINUOUS
 62
6
 10
0.0000000000
 20
0.0000000000
  0
TEXT
  8
5
  6
CONTINUOUS
 62
7
 10
301.099806
 20
20.780083
 40
4.000000
  1
MADOKA SYSTEM co,.ltd
 41
0.778201
 50
0.000000
 51
0.000000
 72
   5
 73
   0
 11
344.367806
 21
20.780083
  0
LINE
  8
5
  6
CONTINUOUS
 62
6
 10
284.5000000000
 20
284.0000000000
 11
284.5000000000
 21
279.5000000000
  0
LINE
  8
5
  6
CONTINUOUS
 62
6
 10
284.5000000000
 20
4.5000000000
 11
284.5000000000
 21
0.0000000000
  0
TEXT
  8
5
  6
CONTINUOUS
 62
6
 10
303.500000
 20
279.500000
 40
4.000000
  1
8
 41
1.000000
 50
0.000000
 51
0.000000
 72
   5
 73
   0
 11
305.500000
 21
279.500000
  0
TEXT
  8
5
  6
CONTINUOUS
 62
6
 10
303.500000
 20
0.500000
 40
4.000000
  1
8
 41
1.000000
 50
0.000000
 51
0.000000
 72
   5
 73
   0
 11
305.500000
 21
0.500000
  0
LINE
  8
5
  6
CONTINUOUS
 62
6
 10
324.5000000000
 20
284.0000000000
 11
324.5000000000
 21
279.5000000000
  0
LINE
  8
5
  6
CONTINUOUS
 62
6
 10
324.5000000000
 20
4.5000000000
 11
324.5000000000
 21
0.0000000000
  0
TEXT
  8
5
  6
CONTINUOUS
 62
6
 10
343.500000
 20
279.500000
 40
4.000000
  1
9
 41
1.000000
 50
0.000000
 51
0.000000
 72
   5
 73
   0
 11
345.500000
 21
279.500000
  0
TEXT
  8
5
  6
CONTINUOUS
 62
6
 10
343.500000
 20
0.500000
 40
4.000000
  1
9
 41
1.000000
 50
0.000000
 51
0.000000
 72
   5
 73
   0
 11
345.500000
 21
0.500000
  0
LINE
  8
5
  6
CONTINUOUS
 62
6
 10
364.5000000000
 20
284.0000000000
 11
364.5000000000
 21
279.5000000000
  0
LINE
  8
5
  6
CONTINUOUS
 62
6
 10
364.5000000000
 20
4.5000000000
 11
364.5000000000
 21
0.0000000000
  0
TEXT
  8
5
  6
CONTINUOUS
 62
6
 10
382.500000
 20
279.500000
 40
4.000000
  1
10
 41
0.854701
 50
0.000000
 51
0.000000
 72
   5
 73
   0
 11
386.500000
 21
279.500000
  0
TEXT
  8
5
  6
CONTINUOUS
 62
6
 10
382.500000
 20
0.500000
 40
4.000000
  1
10
 41
0.854701
 50
0.000000
 51
0.000000
 72
   5
 73
   0
 11
386.500000
 21
0.500000
  0
LINE
  8
5
  6
CONTINUOUS
 62
6
 10
0.0000000000
 20
79.5000000000
 11
4.5000000000
 21
79.5000000000
  0
LINE
  8
5
  6
CONTINUOUS
 62
6
 10
402.5000000000
 20
79.5000000000
 11
407.0000000000
 21
79.5000000000
  0
LINE
  8
5
  6
CONTINUOUS
 62
6
 10
0.0000000000
 20
39.5000000000
 11
4.5000000000
 21
39.5000000000
  0
LINE
  8
5
  6
CONTINUOUS
 62
6
 10
402.5000000000
 20
39.5000000000
 11
407.0000000000
 21
39.5000000000
  0
TEXT
  8
5
  6
CONTINUOUS
 62
6
 10
1.954773
 20
57.454143
 40
4.000000
  1
F
 41
1.102000
 50
0.000000
 51
0.000000
 72
   5
 73
   0
 11
4.158773
 21
57.454143
  0
TEXT
  8
5
  6
CONTINUOUS
 62
6
 10
402.786513
 20
57.492354
 40
4.000000
  1
F
 41
1.102000
 50
0.000000
 51
0.000000
 72
   5
 73
   0
 11
404.990513
 21
57.492354
  0
TEXT
  8
5
  6
CONTINUOUS
 62
6
 10
1.438773
 20
17.454143
 40
4.000000
  1
G
 41
1.360000
 50
0.000000
 51
0.000000
 72
   5
 73
   0
 11
4.158773
 21
17.454143
  0
TEXT
  8
5
  6
CONTINUOUS
 62
6
 10
402.786513
 20
17.492354
 40
4.000000
  1
G
 41
1.360000
 50
0.000000
 51
0.000000
 72
   5
 73
   0
 11
405.506513
 21
17.492354
  0
LINE
  8
5
  6
CONTINUOUS
 62
6
 10
4.5000000000
 20
279.5000000000
 11
402.5000000000
 21
279.5000000000
  0
LINE
  8
5
  6
CONTINUOUS
 62
6
 10
402.5000000000
 20
279.5000000000
 11
402.5000000000
 21
4.5000000000
  0
POINT
  8
5
  6
CONTINUOUS
 62
6
 10
353.5000000000
 20
20.5000000000
  0
POINT
  8
5
  6
CONTINUOUS
 62
6
 10
353.5000000000
 20
8.0000000000
  0
LINE
  8
5
  6
CONTINUOUS
 62
6
 10
347.5000000000
 20
26.5000000000
 11
402.5000000000
 21
26.5000000000
  0
LINE
  8
5
  6
CONTINUOUS
 62
6
 10
347.5000000000
 20
11.5000000000
 11
392.5000000000
 21
11.5000000000
  0
TEXT
  8
5
  6
CONTINUOUS
 62
7
 10
362.928500
 20
26.250000
 40
3.500000
  1
Document Name
 41
0.807728
 50
0.000000
 51
0.000000
 72
   5
 73
   0
 11
387.071500
 21
26.250000
  0
TEXT
  8
5
  6
CONTINUOUS
 62
7
 10
359.678500
 20
11.250000
 40
3.500000
  1
Document No.
 41
0.749428
 50
0.000000
 51
0.000000
 72
   5
 73
   0
 11
380.321500
 21
11.250000
  0
ENDBLK
  8
0
  0
BLOCK
  8
1
  2
*D0
 70
     1
 10
0.0000000000
 20
0.0000000000
  3
*D0
  0
LINE
  8
1
  6
BYBLOCK
 62
5
 10
127.9661466639
 20
94.3244525436
 11
127.9661466639
 21
99.7193009011
  0
LINE
  8
1
  6
BYBLOCK
 62
5
 10
111.4661466639
 20
94.3244525436
 11
111.4661466639
 21
99.7193009011
  0
LINE
  8
1
  6
BYBLOCK
 62
5
 10
111.4661466639
 20
98.7193009011
 11
127.9661466639
 21
98.7193009011
  0
SOLID
  8
1
  6
CONTINUOUS
 62
5
 10
126.0342950114
 20
98.2016628109
 11
126.0342950114
 21
99.2369389913
 12
127.9661466639
 22
98.7193009011
 13
127.9661466639
 23
98.7193009011
  0
SOLID
  8
1
  6
CONTINUOUS
 62
5
 10
113.3979983165
 20
99.2369389913
 11
113.3979983165
 21
98.2016628109
 12
111.4661466639
 22
98.7193009011
 13
111.4661466639
 23
98.7193009011
  0
TEXT
  8
1
  6
CONTINUOUS
 62
7
 10
116.216147
 20
99.719301
 40
3.500000
  1
16.5
 41
0.796813
 50
0.000000
 51
0.000000
 72
   5
 73
   0
 11
123.216147
 21
99.719301
  0
POINT
  8
DEFPOINTS
  6
BYBLOCK
 62
5
 10
127.9661466639
 20
93.8244525436
  0
POINT
  8
DEFPOINTS
  6
BYBLOCK
 62
5
 10
111.4661466639
 20
93.8244525436
  0
POINT
  8
DEFPOINTS
  6
BYBLOCK
 62
5
 10
111.4661466639
 20
98.7193009011
  0
ENDBLK
  8
0
  0
BLOCK
  8
1
  2
*D1
 70
     1
 10
0.0000000000
 20
0.0000000000
  3
*D1
  0
LINE
  8
1
  6
BYBLOCK
 62
5
 10
27.2645106558
 20
21.2716424853
 11
19.9779016700
 21
21.2716424853
  0
LINE
  8
1
  6
BYBLOCK
 62
5
 10
28.2645106558
 20
30.2716424853
 11
19.9779016700
 21
30.2716424853
  0
LINE
  8
1
  6
BYBLOCK
 62
5
 10
20.9779016700
 20
30.2716424853
 11
20.9779016700
 21
21.2716424853
  0
SOLID
  8
1
  6
CONTINUOUS
 62
5
 10
20.4602635798
 20
23.2034941378
 11
21.4955397602
 21
23.2034941378
 12
20.9779016700
 22
21.2716424853
 13
20.9779016700
 23
21.2716424853
  0
SOLID
  8
1
  6
CONTINUOUS
 62
5
 10
21.4955397602
 20
28.3397908327
 11
20.4602635798
 21
28.3397908327
 12
20.9779016700
 22
30.2716424853
 13
20.9779016700
 23
30.2716424853
  0
TEXT
  8
1
  6
CONTINUOUS
 62
7
 10
19.977902
 20
24.896642
 40
3.500000
  1
9
 41
1.000000
 50
90.000000
 51
0.000000
 72
   5
 73
   0
 11
19.977902
 21
26.646642
  0
POINT
  8
DEFPOINTS
  6
BYBLOCK
 62
5
 10
27.7645106558
 20
21.2716424853
  0
POINT
  8
DEFPOINTS
  6
BYBLOCK
 62
5
 10
28.7645106558
 20
30.2716424853
  0
POINT
  8
DEFPOINTS
  6
BYBLOCK
 62
5
 10
20.9779016700
 20
30.2716424853
  0
ENDBLK
  8
0
  0
BLOCK
  8
1
  2
*D2
 70
     1
 10
0.0000000000
 20
0.0000000000
  3
*D2
  0
LINE
  8
1
  6
BYBLOCK
 62
5
 10
29.2645106558
 20
30.7716424853
 11
19.7383253733
 21
30.7716424853
  0
LINE
  8
1
  6
BYBLOCK
 62
5
 10
35.7645106558
 20
45.2716424853
 11
19.7383253733
 21
45.2716424853
  0
LINE
  8
1
  6
BYBLOCK
 62
5
 10
20.7383253733
 20
45.2716424853
 11
20.7383253733
 21
30.7716424853
  0
SOLID
  8
1
  6
CONTINUOUS
 62
5
 10
20.2206872831
 20
32.7034941378
 11
21.2559634635
 21
32.7034941378
 12
20.7383253733
 22
30.7716424853
 13
20.7383253733
 23
30.7716424853
  0
SOLID
  8
1
  6
CONTINUOUS
 62
5
 10
21.2559634635
 20
43.3397908327
 11
20.2206872831
 21
43.3397908327
 12
20.7383253733
 22
45.2716424853
 13
20.7383253733
 23
45.2716424853
  0
TEXT
  8
1
  6
CONTINUOUS
 62
7
 10
19.738325
 20
34.521642
 40
3.500000
  1
14.5
 41
0.796813
 50
90.000000
 51
0.000000
 72
   5
 73
   0
 11
19.738325
 21
41.521642
  0
POINT
  8
DEFPOINTS
  6
BYBLOCK
 62
5
 10
29.7645106558
 20
30.7716424853
  0
POINT
  8
DEFPOINTS
  6
BYBLOCK
 62
5
 10
36.2645106558
 20
45.2716424853
  0
POINT
  8
DEFPOINTS
  6
BYBLOCK
 62
5
 10
20.7383253733
 20
45.2716424853
  0
ENDBLK
  8
0
  0
BLOCK
  8
1
  2
*D3
 70
     1
 10
0.0000000000
 20
0.0000000000
  3
*D3
  0
LINE
  8
1
  6
BYBLOCK
 62
5
 10
27.2645106558
 20
21.2716424853
 11
12.2316014101
 21
21.2716424853
  0
LINE
  8
1
  6
BYBLOCK
 62
5
 10
35.7645106558
 20
45.2716424853
 11
12.2316014101
 21
45.2716424853
  0
LINE
  8
1
  6
BYBLOCK
 62
5
 10
13.2316014101
 20
45.2716424853
 11
13.2316014101
 21
21.2716424853
  0
SOLID
  8
1
  6
CONTINUOUS
 62
5
 10
12.7139633199
 20
23.2034941378
 11
13.7492395003
 21
23.2034941378
 12
13.2316014101
 22
21.2716424853
 13
13.2316014101
 23
21.2716424853
  0
SOLID
  8
1
  6
CONTINUOUS
 62
5
 10
13.7492395003
 20
43.3397908327
 11
12.7139633199
 21
43.3397908327
 12
13.2316014101
 22
45.2716424853
 13
13.2316014101
 23
45.2716424853
  0
TEXT
  8
1
  6
CONTINUOUS
 62
7
 10
12.231601
 20
31.521642
 40
3.500000
  1
24
 41
0.854701
 50
90.000000
 51
0.000000
 72
   5
 73
   0
 11
12.231601
 21
35.021642
  0
POINT
  8
DEFPOINTS
  6
BYBLOCK
 62
5
 10
27.7645106558
 20
21.2716424853
  0
POINT
  8
DEFPOINTS
  6
BYBLOCK
 62
5
 10
36.2645106558
 20
45.2716424853
  0
POINT
  8
DEFPOINTS
  6
BYBLOCK
 62
5
 10
13.2316014101
 20
45.2716424853
  0
ENDBLK
  8
0
  0
BLOCK
  8
1
  2
*D4
 70
     1
 10
0.0000000000
 20
0.0000000000
  3
*D4
  0
LINE
  8
1
  6
BYBLOCK
 62
5
 10
27.2645106558
 20
220.1025214537
 11
16.2916228022
 21
220.1025214537
  0
LINE
  8
1
  6
BYBLOCK
 62
5
 10
27.2645106558
 20
64.6025214537
 11
16.2916228022
 21
64.6025214537
  0
LINE
  8
1
  6
BYBLOCK
 62
5
 10
17.2916228022
 20
64.6025214537
 11
17.2916228022
 21
220.1025214537
  0
SOLID
  8
1
  6
CONTINUOUS
 62
5
 10
17.8092608924
 20
218.1706698011
 11
16.7739847120
 21
218.1706698011
 12
17.2916228022
 22
220.1025214537
 13
17.2916228022
 23
220.1025214537
  0
SOLID
  8
1
  6
CONTINUOUS
 62
5
 10
16.7739847120
 20
66.5343731063
 11
17.8092608924
 21
66.5343731063
 12
17.2916228022
 22
64.6025214537
 13
17.2916228022
 23
64.6025214537
  0
TEXT
  8
1
  6
CONTINUOUS
 62
7
 10
16.291623
 20
136.102521
 40
5.000000
  1
155.5
 41
0.786164
 50
90.000000
 51
0.000000
 72
   5
 73
   0
 11
16.291623
 21
148.602521
  0
POINT
  8
DEFPOINTS
  6
BYBLOCK
 62
5
 10
27.7645106558
 20
220.1025214537
  0
POINT
  8
DEFPOINTS
  6
BYBLOCK
 62
5
 10
27.7645106558
 20
64.6025214537
  0
POINT
  8
DEFPOINTS
  6
BYBLOCK
 62
5
 10
17.2916228022
 20
64.6025214537
  0
ENDBLK
  8
0
  0
BLOCK
  8
1
  2
*D5
 70
     1
 10
0.0000000000
 20
0.0000000000
  3
*D5
  0
LINE
  8
1
  6
BYBLOCK
 62
5
 10
27.7645106558
 20
220.6025214537
 11
27.7645106558
 21
225.0648547044
  0
LINE
  8
1
  6
BYBLOCK
 62
5
 10
96.7645106558
 20
220.6025214537
 11
96.7645106558
 21
225.0648547044
  0
LINE
  8
1
  6
BYBLOCK
 62
5
 10
96.7645106558
 20
224.0648547044
 11
27.7645106558
 21
224.0648547044
  0
SOLID
  8
1
  6
CONTINUOUS
 62
5
 10
29.6963623084
 20
224.5824927946
 11
29.6963623084
 21
223.5472166142
 12
27.7645106558
 22
224.0648547044
 13
27.7645106558
 23
224.0648547044
  0
SOLID
  8
1
  6
CONTINUOUS
 62
5
 10
94.8326590033
 20
223.5472166142
 11
94.8326590033
 21
224.5824927946
 12
96.7645106558
 22
224.0648547044
 13
96.7645106558
 23
224.0648547044
  0
TEXT
  8
1
  6
CONTINUOUS
 62
7
 10
59.764511
 20
225.064855
 40
5.000000
  1
69
 41
0.854701
 50
0.000000
 51
0.000000
 72
   5
 73
   0
 11
64.764511
 21
225.064855
  0
POINT
  8
DEFPOINTS
  6
BYBLOCK
 62
5
 10
27.7645106558
 20
220.1025214537
  0
POINT
  8
DEFPOINTS
  6
BYBLOCK
 62
5
 10
96.7645106558
 20
220.1025214537
  0
POINT
  8
DEFPOINTS
  6
BYBLOCK
 62
5
 10
96.7645106558
 20
224.0648547044
  0
ENDBLK
  8
0
  0
BLOCK
  8
1
  2
BALN0
 70
     0
 10
65.1092980532
 20
67.0636039311
  3
BALN0
  0
SOLID
  8
1
  6
CONTINUOUS
 62
5
 10
67.0995994495
 20
66.8668798809
 11
66.7345875985
 21
65.8980852079
 12
65.1092980532
 22
67.0636039311
 13
65.1092980532
 23
67.0636039311
  0
LINE
  8
1
  6
BYBLOCK
 62
5
 10
65.1092980532
 20
67.0636039311
 11
88.4832927053
 21
58.2570061116
  0
CIRCLE
  8
1
  6
BYBLOCK
 62
5
 10
91.2906440902
 20
57.1992829901
 40
3.0000000000
  0
TEXT
  8
1
  6
CONTINUOUS
 62
7
 10
90.415644
 20
55.449283
 40
3.500000
  1
3
 41
1.000000
 50
0.000000
 51
0.000000
 72
   5
 73
   0
 11
92.165644
 21
55.449283
  0
ENDBLK
  8
0
  0
BLOCK
  8
1
  2
*D6
 70
     1
 10
0.0000000000
 20
0.0000000000
  3
*D6
  0
LINE
  8
1
  6
BYBLOCK
 62
5
 10
142.4822443727
 20
88.0542751045
 11
141.4983420815
 21
85.7560287554
  0
LINE
  8
1
  6
BYBLOCK
 62
5
 10
144.4500489552
 20
92.6507678028
 11
145.4339512464
 21
94.9490141519
  0
SOLID
  8
1
  6
CONTINUOUS
 62
5
 10
142.1978070062
 20
86.0746045803
 11
141.2460791254
 21
86.4820488227
 12
142.4822443727
 22
88.0542751045
 13
142.4822443727
 23
88.0542751045
  0
SOLID
  8
1
  6
CONTINUOUS
 62
5
 10
144.7344863217
 20
94.6304383270
 11
145.6862142025
 21
94.2229940847
 12
144.4500489552
 22
92.6507678028
 13
144.4500489552
 23
92.6507678028
  0
TEXT
  8
1
  6
CONTINUOUS
 62
7
 10
145.999175
 20
98.810194
 40
3.500000
  1
2-M5
 41
0.796813
 50
66.823748
 51
0.000000
 72
   5
 73
   0
 11
148.754102
 21
105.245284
  0
POINT
  8
DEFPOINTS
  6
BYBLOCK
 62
5
 10
142.4822443727
 20
88.0542751045
  0
POINT
  8
DEFPOINTS
  6
BYBLOCK
 62
5
 10
144.4500489552
 20
92.6507678028
  0
LINE
  8
1
  6
BYBLOCK
 62
5
 10
142.4822443727
 20
88.0542751045
 11
149.6734002150
 21
104.8517231924
  0
ENDBLK
  8
0
  0
BLOCK
  8
5
  2
S1
 70
     0
 10
-1.2509564999
 20
-313.9655230621
  3
S1
  0
POINT
  8
5
  6
CONTINUOUS
 62
6
 10
-7.7509564999
 20
-320.4655230621
  0
LINE
  8
5
  6
CONTINUOUS
 62
6
 10
3.2490435001
 20
-309.4655230621
 11
401.2490435001
 21
-309.4655230621
  0
LINE
  8
5
  6
CONTINUOUS
 62
6
 10
3.2490435001
 20
-309.4655230621
 11
3.2490435001
 21
-34.4655230621
  0
LINE
  8
5
  6
CONTINUOUS
 62
6
 10
43.2490435001
 20
-29.9655230621
 11
43.2490435001
 21
-34.4655230621
  0
LINE
  8
5
  6
CONTINUOUS
 62
6
 10
43.2490435001
 20
-309.4655230621
 11
43.2490435001
 21
-313.9655230621
  0
LINE
  8
5
  6
CONTINUOUS
 62
6
 10
83.2490435001
 20
-29.9655230621
 11
83.2490435001
 21
-34.4655230621
  0
LINE
  8
5
  6
CONTINUOUS
 62
6
 10
123.2490435001
 20
-29.9655230621
 11
123.2490435001
 21
-34.4655230621
  0
LINE
  8
5
  6
CONTINUOUS
 62
6
 10
163.2490435001
 20
-29.9655230621
 11
163.2490435001
 21
-34.4655230621
  0
LINE
  8
5
  6
CONTINUOUS
 62
6
 10
203.2490435001
 20
-29.9655230621
 11
203.2490435001
 21
-34.4655230621
  0
LINE
  8
5
  6
CONTINUOUS
 62
6
 10
243.2490435001
 20
-29.9655230621
 11
243.2490435001
 21
-34.4655230621
  0
LINE
  8
5
  6
CONTINUOUS
 62
6
 10
83.2490435001
 20
-309.4655230621
 11
83.2490435001
 21
-313.9655230621
  0
LINE
  8
5
  6
CONTINUOUS
 62
6
 10
123.2490435001
 20
-309.4655230621
 11
123.2490435001
 21
-313.9655230621
  0
LINE
  8
5
  6
CONTINUOUS
 62
6
 10
163.2490435001
 20
-309.4655230621
 11
163.2490435001
 21
-313.9655230621
  0
LINE
  8
5
  6
CONTINUOUS
 62
6
 10
203.2490435001
 20
-309.4655230621
 11
203.2490435001
 21
-313.9655230621
  0
LINE
  8
5
  6
CONTINUOUS
 62
6
 10
243.2490435001
 20
-309.4655230621
 11
243.2490435001
 21
-313.9655230621
  0
LINE
  8
5
  6
CONTINUOUS
 62
6
 10
-1.2509564999
 20
-74.4655230621
 11
3.2490435001
 21
-74.4655230621
  0
LINE
  8
5
  6
CONTINUOUS
 62
6
 10
401.2490435001
 20
-74.4655230621
 11
405.7490435001
 21
-74.4655230621
  0
LINE
  8
5
  6
CONTINUOUS
 62
6
 10
-1.2509564999
 20
-114.4655230621
 11
3.2490435001
 21
-114.4655230621
  0
LINE
  8
5
  6
CONTINUOUS
 62
6
 10
-1.2509564999
 20
-154.4655230621
 11
3.2490435001
 21
-154.4655230621
  0
LINE
  8
5
  6
CONTINUOUS
 62
6
 10
-1.2509564999
 20
-194.4655230621
 11
3.2490435001
 21
-194.4655230621
  0
LINE
  8
5
  6
CONTINUOUS
 62
6
 10
401.2490435001
 20
-114.4655230621
 11
405.7490435001
 21
-114.4655230621
  0
LINE
  8
5
  6
CONTINUOUS
 62
6
 10
401.2490435001
 20
-154.4655230621
 11
405.7490435001
 21
-154.4655230621
  0
LINE
  8
5
  6
CONTINUOUS
 62
6
 10
401.2490435001
 20
-194.4655230621
 11
405.7490435001
 21
-194.4655230621
  0
TEXT
  8
5
  6
CONTINUOUS
 62
6
 10
22.249044
 20
-34.465523
 40
4.000000
  1
1
 41
1.000000
 50
0.000000
 51
0.000000
 72
   5
 73
   0
 11
24.249044
 21
-34.465523
  0
TEXT
  8
5
  6
CONTINUOUS
 62
6
 10
22.249044
 20
-313.465523
 40
4.000000
  1
1
 41
1.000000
 50
0.000000
 51
0.000000
 72
   5
 73
   0
 11
24.249044
 21
-313.465523
  0
TEXT
  8
5
  6
CONTINUOUS
 62
6
 10
62.249044
 20
-34.465523
 40
4.000000
  1
2
 41
1.000000
 50
0.000000
 51
0.000000
 72
   5
 73
   0
 11
64.249044
 21
-34.465523
  0
TEXT
  8
5
  6
CONTINUOUS
 62
6
 10
102.249044
 20
-34.465523
 40
4.000000
  1
3
 41
1.000000
 50
0.000000
 51
0.000000
 72
   5
 73
   0
 11
104.249044
 21
-34.465523
  0
TEXT
  8
5
  6
CONTINUOUS
 62
6
 10
142.249044
 20
-34.465523
 40
4.000000
  1
4
 41
1.000000
 50
0.000000
 51
0.000000
 72
   5
 73
   0
 11
144.249044
 21
-34.465523
  0
TEXT
  8
5
  6
CONTINUOUS
 62
6
 10
182.249044
 20
-34.465523
 40
4.000000
  1
5
 41
1.000000
 50
0.000000
 51
0.000000
 72
   5
 73
   0
 11
184.249044
 21
-34.465523
  0
TEXT
  8
5
  6
CONTINUOUS
 62
6
 10
222.249044
 20
-34.465523
 40
4.000000
  1
6
 41
1.000000
 50
0.000000
 51
0.000000
 72
   5
 73
   0
 11
224.249044
 21
-34.465523
  0
TEXT
  8
5
  6
CONTINUOUS
 62
6
 10
262.249044
 20
-34.465523
 40
4.000000
  1
7
 41
1.000000
 50
0.000000
 51
0.000000
 72
   5
 73
   0
 11
264.249044
 21
-34.465523
  0
TEXT
  8
5
  6
CONTINUOUS
 62
6
 10
62.249044
 20
-313.465523
 40
4.000000
  1
2
 41
1.000000
 50
0.000000
 51
0.000000
 72
   5
 73
   0
 11
64.249044
 21
-313.465523
  0
TEXT
  8
5
  6
CONTINUOUS
 62
6
 10
102.249044
 20
-313.465523
 40
4.000000
  1
3
 41
1.000000
 50
0.000000
 51
0.000000
 72
   5
 73
   0
 11
104.249044
 21
-313.465523
  0
TEXT
  8
5
  6
CONTINUOUS
 62
6
 10
142.249044
 20
-313.465523
 40
4.000000
  1
4
 41
1.000000
 50
0.000000
 51
0.000000
 72
   5
 73
   0
 11
144.249044
 21
-313.465523
  0
TEXT
  8
5
  6
CONTINUOUS
 62
6
 10
182.249044
 20
-313.465523
 40
4.000000
  1
5
 41
1.000000
 50
0.000000
 51
0.000000
 72
   5
 73
   0
 11
184.249044
 21
-313.465523
  0
TEXT
  8
5
  6
CONTINUOUS
 62
6
 10
222.249044
 20
-313.465523
 40
4.000000
  1
6
 41
1.000000
 50
0.000000
 51
0.000000
 72
   5
 73
   0
 11
224.249044
 21
-313.465523
  0
TEXT
  8
5
  6
CONTINUOUS
 62
6
 10
262.249044
 20
-313.465523
 40
4.000000
  1
7
 41
1.000000
 50
0.000000
 51
0.000000
 72
   5
 73
   0
 11
264.249044
 21
-313.465523
  0
TEXT
  8
5
  6
CONTINUOUS
 62
6
 10
0.375816
 20
-56.511380
 40
4.000000
  1
A
 41
1.266000
 50
0.000000
 51
0.000000
 72
   5
 73
   0
 11
2.907816
 21
-56.511380
  0
TEXT
  8
5
  6
CONTINUOUS
 62
6
 10
401.535557
 20
-56.473169
 40
4.000000
  1
A
 41
1.266000
 50
0.000000
 51
0.000000
 72
   5
 73
   0
 11
404.067557
 21
-56.473169
  0
TEXT
  8
5
  6
CONTINUOUS
 62
6
 10
0.359816
 20
-96.511380
 40
4.000000
  1
B
 41
1.274000
 50
0.000000
 51
0.000000
 72
   5
 73
   0
 11
2.907816
 21
-96.511380
  0
TEXT
  8
5
  6
CONTINUOUS
 62
6
 10
0.251816
 20
-136.511380
 40
4.000000
  1
C
 41
1.328000
 50
0.000000
 51
0.000000
 72
   5
 73
   0
 11
2.907816
 21
-136.511380
  0
TEXT
  8
5
  6
CONTINUOUS
 62
6
 10
0.315816
 20
-176.511380
 40
4.000000
  1
D
 41
1.296000
 50
0.000000
 51
0.000000
 72
   5
 73
   0
 11
2.907816
 21
-176.511380
  0
TEXT
  8
5
  6
CONTINUOUS
 62
6
 10
0.643816
 20
-216.511380
 40
4.000000
  1
E
 41
1.132000
 50
0.000000
 51
0.000000
 72
   5
 73
   0
 11
2.907816
 21
-216.511380
  0
TEXT
  8
5
  6
CONTINUOUS
 62
6
 10
401.535557
 20
-96.473169
 40
4.000000
  1
B
 41
1.274000
 50
0.000000
 51
0.000000
 72
   5
 73
   0
 11
404.083557
 21
-96.473169
  0
TEXT
  8
5
  6
CONTINUOUS
 62
6
 10
401.535557
 20
-136.473169
 40
4.000000
  1
C
 41
1.328000
 50
0.000000
 51
0.000000
 72
   5
 73
   0
 11
404.191557
 21
-136.473169
  0
TEXT
  8
5
  6
CONTINUOUS
 62
6
 10
401.535557
 20
-176.473169
 40
4.000000
  1
D
 41
1.296000
 50
0.000000
 51
0.000000
 72
   5
 73
   0
 11
404.127557
 21
-176.473169
  0
TEXT
  8
5
  6
CONTINUOUS
 62
6
 10
401.535557
 20
-216.473169
 40
4.000000
  1
E
 41
1.132000
 50
0.000000
 51
0.000000
 72
   5
 73
   0
 11
403.799557
 21
-216.473169
  0
LINE
  8
5
  6
CONTINUOUS
 62
6
 10
346.2490435001
 20
-284.4655230621
 11
346.2490435001
 21
-309.4655230621
  0
LINE
  8
5
  6
CONTINUOUS
 62
6
 10
346.2490435001
 20
-299.4655230621
 11
401.2490435001
 21
-299.4655230621
  0
LINE
  8
5
  6
CONTINUOUS
 62
6
 10
346.2490435001
 20
-306.4655230621
 11
280.2490435001
 21
-306.4655230621
  0
LINE
  8
5
  6
CONTINUOUS
 62
6
 10
302.2490435001
 20
-309.4655230621
 11
302.2490435001
 21
-292.9655230621
  0
LINE
  8
5
  6
CONTINUOUS
 62
6
 10
335.2490435001
 20
-296.9655230621
 11
335.2490435001
 21
-309.4655230621
  0
LINE
  8
5
  6
CONTINUOUS
 62
6
 10
324.2490435001
 20
-309.4655230621
 11
324.2490434999
 21
-292.9655230621
  0
LINE
  8
5
  6
CONTINUOUS
 62
6
 10
313.2490435001
 20
-296.9655230621
 11
313.2490435001
 21
-309.4655230621
  0
TEXT
  8
5
  6
CONTINUOUS
 62
6
 10
293.272794
 20
-309.215523
 40
2.500000
  1
Design
 41
0.722338
 50
0.000000
 51
0.000000
 72
   5
 73
   0
 11
300.225294
 21
-309.215523
  0
TEXT
  8
5
  6
CONTINUOUS
 62
6
 10
305.087794
 20
-309.215523
 40
2.500000
  1
Draft
 41
0.669497
 50
0.000000
 51
0.000000
 72
   5
 73
   0
 11
310.410294
 21
-309.215523
  0
TEXT
  8
5
  6
CONTINUOUS
 62
6
 10
315.467794
 20
-309.215523
 40
2.500000
  1
Check
 41
0.825472
 50
0.000000
 51
0.000000
 72
   5
 73
   0
 11
322.030294
 21
-309.215523
  0
LINE
  8
5
  6
CONTINUOUS
 62
6
 10
280.2490435001
 20
-284.4655230621
 11
401.2490435001
 21
-284.4655230621
  0
LINE
  8
5
  6
CONTINUOUS
 62
6
 10
280.2490435001
 20
-296.9655230621
 11
346.2490435001
 21
-296.9655230621
  0
LINE
  8
5
  6
CONTINUOUS
 62
6
 10
391.2490435001
 20
-299.4655230621
 11
391.2490435001
 21
-309.4655230621
  0
TEXT
  8
5
  6
CONTINUOUS
 62
6
 10
394.269044
 20
-308.965523
 40
2.000000
  1
SIZE
 41
0.788845
 50
0.000000
 51
0.000000
 72
   5
 73
   0
 11
398.229044
 21
-308.965523
  0
LINE
  8
5
  6
CONTINUOUS
 62
6
 10
391.2490435001
 20
-306.4655230621
 11
401.2490435001
 21
-306.4655230621
  0
TEXT
  8
5
  6
CONTINUOUS
 62
6
 10
392.754044
 20
-305.465523
 40
5.000000
  1
Ａ３
 41
0.644240
 50
0.000000
 51
0.000000
 72
   5
 73
   0
 11
399.744044
 21
-305.465523
  0
TEXT
  8
5
  6
CONTINUOUS
 62
6
 10
337.887794
 20
-309.215523
 40
2.500000
  1
Scale
 41
0.719811
 50
0.000000
 51
0.000000
 72
   5
 73
   0
 11
343.610294
 21
-309.215523
  0
TEXT
  8
5
  6
CONTINUOUS
 62
6
 10
336.999044
 20
-304.215523
 40
5.000000
  1
1/1
 41
0.815217
 50
0.000000
 51
0.000000
 72
   5
 73
   0
 11
344.499044
 21
-304.215523
  0
TEXT
  8
5
  6
CONTINUOUS
 62
6
 10
325.661544
 20
-309.215523
 40
2.500000
  1
Confirm
 41
0.723451
 50
0.000000
 51
0.000000
 72
   5
 73
   0
 11
333.836544
 21
-309.215523
  0
TEXT
  8
5
  6
CONTINUOUS
 62
6
 10
283.277794
 20
-309.215523
 40
2.500000
  1
Date
 41
0.787649
 50
0.000000
 51
0.000000
 72
   5
 73
   0
 11
288.220294
 21
-309.215523
  0
TEXT
  8
5
  6
CONTINUOUS
 62
6
 10
281.999044
 20
-301.503023
 40
3.000000
  1
2010/
 41
0.786164
 50
0.000000
 51
0.000000
 72
   5
 73
   0
 11
289.499044
 21
-301.503023
  0
TEXT
  8
5
  6
CONTINUOUS
 62
6
 10
281.999044
 20
-304.928023
 40
3.000000
  1
09/07
 41
0.786164
 50
0.000000
 51
0.000000
 72
   5
 73
   0
 11
289.499044
 21
-304.928023
  0
LINE
  8
5
  6
CONTINUOUS
 62
6
 10
291.2490435001
 20
-296.9655230621
 11
291.2490435001
 21
-309.4655230621
  0
LINE
  8
5
  6
CONTINUOUS
 62
6
 10
280.2490435001
 20
-309.4655230621
 11
280.2490435001
 21
-284.4655230621
  0
TEXT
  8
5
  6
CONTINUOUS
 62
6
 10
280.504337
 20
-295.752333
 40
2.000000
  1
Material
 41
0.638921
 50
0.000000
 51
0.000000
 72
   5
 73
   0
 11
287.136337
 21
-295.752333
  0
LINE
  8
5
  6
CONTINUOUS
 62
6
 10
287.2490435001
 20
-292.9655230621
 11
287.2490435001
 21
-296.9655230621
  0
TEXT
  8
5
  6
CONTINUOUS
 62
6
 10
302.354044
 20
-295.965523
 40
2.000000
  1
Process
 41
0.751106
 50
0.000000
 51
0.000000
 72
   5
 73
   0
 11
309.144044
 21
-295.965523
  0
LINE
  8
5
  6
CONTINUOUS
 62
6
 10
309.2490435001
 20
-292.9655230621
 11
309.2490435001
 21
-296.9655230621
  0
TEXT
  8
5
  6
CONTINUOUS
 62
6
 10
324.522043
 20
-295.965523
 40
2.000000
  1
Amount
 41
0.838182
 50
0.000000
 51
0.000000
 72
   5
 73
   0
 11
330.976043
 21
-295.965523
  0
LINE
  8
5
  6
CONTINUOUS
 62
6
 10
331.2490435000
 20
-292.9655230621
 11
331.2490435000
 21
-296.9655230621
  0
LINE
  8
5
  6
CONTINUOUS
 62
6
 10
346.2490435001
 20
-292.9655230621
 11
280.2490435001
 21
-292.9655230621
  0
POINT
  8
5
  6
CONTINUOUS
 62
6
 10
288.2490435001
 20
-294.9655230621
  0
POINT
  8
5
  6
CONTINUOUS
 62
6
 10
310.2490435001
 20
-294.9655230621
  0
POINT
  8
5
  6
CONTINUOUS
 62
6
 10
338.7490435000
 20
-294.9655230621
  0
POINT
  8
5
  6
CONTINUOUS
 62
6
 10
296.7490435001
 20
-301.7155230621
  0
POINT
  8
5
  6
CONTINUOUS
 62
6
 10
307.7490435001
 20
-301.7155230621
  0
POINT
  8
5
  6
CONTINUOUS
 62
6
 10
318.7490435001
 20
-301.7155230621
  0
POINT
  8
5
  6
CONTINUOUS
 62
6
 10
329.7490435001
 20
-301.7155230621
  0
POINT
  8
5
  6
CONTINUOUS
 62
6
 10
-1.2509564999
 20
-313.9655230621
  0
TEXT
  8
5
  6
CONTINUOUS
 62
7
 10
299.848849
 20
-293.185440
 40
4.000000
  1
MADOKA SYSTEM co,.ltd
 41
0.778201
 50
0.000000
 51
0.000000
 72
   5
 73
   0
 11
343.116849
 21
-293.185440
  0
LINE
  8
5
  6
CONTINUOUS
 62
6
 10
283.2490435001
 20
-29.9655230621
 11
283.2490435001
 21
-34.4655230621
  0
LINE
  8
5
  6
CONTINUOUS
 62
6
 10
283.2490435001
 20
-309.4655230621
 11
283.2490435001
 21
-313.9655230621
  0
TEXT
  8
5
  6
CONTINUOUS
 62
6
 10
302.249044
 20
-34.465523
 40
4.000000
  1
8
 41
1.000000
 50
0.000000
 51
0.000000
 72
   5
 73
   0
 11
304.249044
 21
-34.465523
  0
TEXT
  8
5
  6
CONTINUOUS
 62
6
 10
302.249044
 20
-313.465523
 40
4.000000
  1
8
 41
1.000000
 50
0.000000
 51
0.000000
 72
   5
 73
   0
 11
304.249044
 21
-313.465523
  0
LINE
  8
5
  6
CONTINUOUS
 62
6
 10
323.2490435001
 20
-29.9655230621
 11
323.2490435001
 21
-34.4655230621
  0
LINE
  8
5
  6
CONTINUOUS
 62
6
 10
323.2490435001
 20
-309.4655230621
 11
323.2490435001
 21
-313.9655230621
  0
TEXT
  8
5
  6
CONTINUOUS
 62
6
 10
342.249044
 20
-34.465523
 40
4.000000
  1
9
 41
1.000000
 50
0.000000
 51
0.000000
 72
   5
 73
   0
 11
344.249044
 21
-34.465523
  0
TEXT
  8
5
  6
CONTINUOUS
 62
6
 10
342.249044
 20
-313.465523
 40
4.000000
  1
9
 41
1.000000
 50
0.000000
 51
0.000000
 72
   5
 73
   0
 11
344.249044
 21
-313.465523
  0
LINE
  8
5
  6
CONTINUOUS
 62
6
 10
363.2490435001
 20
-29.9655230621
 11
363.2490435001
 21
-34.4655230621
  0
LINE
  8
5
  6
CONTINUOUS
 62
6
 10
363.2490435001
 20
-309.4655230621
 11
363.2490435001
 21
-313.9655230621
  0
TEXT
  8
5
  6
CONTINUOUS
 62
6
 10
381.249044
 20
-34.465523
 40
4.000000
  1
10
 41
0.854701
 50
0.000000
 51
0.000000
 72
   5
 73
   0
 11
385.249044
 21
-34.465523
  0
TEXT
  8
5
  6
CONTINUOUS
 62
6
 10
381.249044
 20
-313.465523
 40
4.000000
  1
10
 41
0.854701
 50
0.000000
 51
0.000000
 72
   5
 73
   0
 11
385.249044
 21
-313.465523
  0
LINE
  8
5
  6
CONTINUOUS
 62
6
 10
-1.2509564999
 20
-234.4655230621
 11
3.2490435001
 21
-234.4655230621
  0
LINE
  8
5
  6
CONTINUOUS
 62
6
 10
401.2490435001
 20
-234.4655230621
 11
405.7490435001
 21
-234.4655230621
  0
LINE
  8
5
  6
CONTINUOUS
 62
6
 10
-1.2509564999
 20
-274.4655230621
 11
3.2490435001
 21
-274.4655230621
  0
LINE
  8
5
  6
CONTINUOUS
 62
6
 10
401.2490435001
 20
-274.4655230621
 11
405.7490435001
 21
-274.4655230621
  0
TEXT
  8
5
  6
CONTINUOUS
 62
6
 10
0.703816
 20
-256.511380
 40
4.000000
  1
F
 41
1.102000
 50
0.000000
 51
0.000000
 72
   5
 73
   0
 11
2.907816
 21
-256.511380
  0
TEXT
  8
5
  6
CONTINUOUS
 62
6
 10
401.535557
 20
-256.473169
 40
4.000000
  1
F
 41
1.102000
 50
0.000000
 51
0.000000
 72
   5
 73
   0
 11
403.739557
 21
-256.473169
  0
TEXT
  8
5
  6
CONTINUOUS
 62
6
 10
0.187816
 20
-296.511380
 40
4.000000
  1
G
 41
1.360000
 50
0.000000
 51
0.000000
 72
   5
 73
   0
 11
2.907816
 21
-296.511380
  0
TEXT
  8
5
  6
CONTINUOUS
 62
6
 10
401.535557
 20
-296.473169
 40
4.000000
  1
G
 41
1.360000
 50
0.000000
 51
0.000000
 72
   5
 73
   0
 11
404.255557
 21
-296.473169
  0
LINE
  8
5
  6
CONTINUOUS
 62
6
 10
3.2490435001
 20
-34.4655230621
 11
401.2490435001
 21
-34.4655230621
  0
LINE
  8
5
  6
CONTINUOUS
 62
6
 10
401.2490435001
 20
-34.4655230621
 11
401.2490435001
 21
-309.4655230621
  0
POINT
  8
5
  6
CONTINUOUS
 62
6
 10
352.2490435001
 20
-293.4655230621
  0
POINT
  8
5
  6
CONTINUOUS
 62
6
 10
352.2490435001
 20
-305.9655230621
  0
LINE
  8
5
  6
CONTINUOUS
 62
6
 10
346.2490435001
 20
-287.4655230621
 11
401.2490435001
 21
-287.4655230621
  0
LINE
  8
5
  6
CONTINUOUS
 62
6
 10
346.2490435001
 20
-302.4655230621
 11
391.2490435001
 21
-302.4655230621
  0
TEXT
  8
5
  6
CONTINUOUS
 62
7
 10
361.677544
 20
-287.715523
 40
3.500000
  1
Document Name
 41
0.807728
 50
0.000000
 51
0.000000
 72
   5
 73
   0
 11
385.820544
 21
-287.715523
  0
TEXT
  8
5
  6
CONTINUOUS
 62
7
 10
358.427544
 20
-302.715523
 40
3.500000
  1
Document No.
 41
0.749428
 50
0.000000
 51
0.000000
 72
   5
 73
   0
 11
379.070544
 21
-302.715523
  0
ENDBLK
  8
0
  0
BLOCK
  8
3
  2
BALN1
 70
     0
 10
220.6171374659
 20
-157.0777679959
  3
BALN1
  0
SOLID
  8
3
  6
CONTINUOUS
 62
5
 10
221.8821805410
 20
-155.5286824534
 11
222.4872396771
 21
-156.3687421011
 12
220.6171374659
 22
-157.0777679959
 13
220.6171374659
 23
-157.0777679959
  0
LINE
  8
3
  6
BYBLOCK
 62
5
 10
220.6171374659
 20
-157.0777679959
 11
228.1828315380
 21
-151.6285212288
  0
CIRCLE
  8
3
  6
BYBLOCK
 62
5
 10
230.6171374659
 20
-149.8751944909
 40
3.0000000000
  0
TEXT
  8
3
  6
CONTINUOUS
 62
7
 10
227.992137
 20
-151.625194
 40
3.500000
  1
101
 41
0.815217
 50
0.000000
 51
0.000000
 72
   5
 73
   0
 11
233.242137
 21
-151.625194
  0
ENDBLK
  8
0
  0
BLOCK
  8
3
  2
BALN2
 70
     0
 10
262.5671374659
 20
-157.0777679959
  3
BALN2
  0
SOLID
  8
3
  6
CONTINUOUS
 62
5
 10
263.8321805410
 20
-155.5286824534
 11
264.4372396771
 21
-156.3687421011
 12
262.5671374659
 22
-157.0777679959
 13
262.5671374659
 23
-157.0777679959
  0
LINE
  8
3
  6
BYBLOCK
 62
5
 10
262.5671374659
 20
-157.0777679959
 11
270.1328315380
 21
-151.6285212288
  0
CIRCLE
  8
3
  6
BYBLOCK
 62
5
 10
272.5671374659
 20
-149.8751944909
 40
3.0000000000
  0
TEXT
  8
3
  6
CONTINUOUS
 62
7
 10
269.942137
 20
-151.625194
 40
3.500000
  1
102
 41
0.815217
 50
0.000000
 51
0.000000
 72
   5
 73
   0
 11
275.192137
 21
-151.625194
  0
ENDBLK
  8
0
  0
BLOCK
  8
3
  2
BALN3
 70
     0
 10
251.5921374659
 20
-164.2803415009
  3
BALN3
  0
SOLID
  8
3
  6
CONTINUOUS
 62
5
 10
253.5913653613
 20
-164.2247733247
 11
253.3513036994
 21
-165.2318319964
 12
251.5921374659
 22
-164.2803415009
 13
251.5921374659
 23
-164.2803415009
  0
LINE
  8
3
  6
BYBLOCK
 62
5
 10
251.5921374659
 20
-164.2803415009
 11
269.6489055272
 21
-168.5846962235
  0
CIRCLE
  8
3
  6
BYBLOCK
 62
5
 10
272.5671374659
 20
-169.2803415009
 40
3.0000000000
  0
TEXT
  8
3
  6
CONTINUOUS
 62
7
 10
269.942137
 20
-171.030342
 40
3.500000
  1
103
 41
0.815217
 50
0.000000
 51
0.000000
 72
   5
 73
   0
 11
275.192137
 21
-171.030342
  0
ENDBLK
  8
0
  0
BLOCK
  8
3
  2
BALN4
 70
     0
 10
219.1421374659
 20
-215.8011842222
  3
BALN4
  0
SOLID
  8
3
  6
CONTINUOUS
 62
5
 10
220.7873304727
 20
-214.6639331635
 11
221.1355419332
 21
-215.6388924183
 12
219.1421374659
 22
-215.8011842222
 13
219.1421374659
 23
-215.8011842222
  0
LINE
  8
3
  6
BYBLOCK
 62
5
 10
219.1421374659
 20
-215.8011842222
 11
227.7919224945
 21
-212.7118712447
  0
CIRCLE
  8
3
  6
BYBLOCK
 62
5
 10
230.6171374658
 20
-211.7028319165
 40
3.0000000000
  0
TEXT
  8
3
  6
CONTINUOUS
 62
7
 10
227.992137
 20
-213.452832
 40
3.500000
  1
111
 41
0.815217
 50
0.000000
 51
0.000000
 72
   5
 73
   0
 11
233.242137
 21
-213.452832
  0
ENDBLK
  8
0
  0
BLOCK
  8
3
  2
BALN5
 70
     0
 10
212.0334406374
 20
-219.2431864733
  3
BALN5
  0
SOLID
  8
3
  6
CONTINUOUS
 62
5
 10
214.0324978485
 20
-219.3045889721
 11
213.7339737164
 21
-220.2958912027
 12
212.0334406374
 22
-219.2431864733
 13
212.0334406374
 23
-219.2431864733
  0
LINE
  8
3
  6
BYBLOCK
 62
5
 10
212.0334406374
 20
-219.2431864733
 11
227.7445641874
 21
-223.9744877626
  0
CIRCLE
  8
3
  6
BYBLOCK
 62
5
 10
230.6171374659
 20
-224.8395442694
 40
3.0000000000
  0
TEXT
  8
3
  6
CONTINUOUS
 62
7
 10
227.992137
 20
-226.589544
 40
3.500000
  1
112
 41
0.815217
 50
0.000000
 51
0.000000
 72
   5
 73
   0
 11
233.242137
 21
-226.589544
  0
ENDBLK
  8
0
  0
BLOCK
  8
3
  2
BALN6
 70
     0
 10
261.0921374659
 20
-215.8011842222
  3
BALN6
  0
SOLID
  8
3
  6
CONTINUOUS
 62
5
 10
262.7373304727
 20
-214.6639331635
 11
263.0855419332
 21
-215.6388924183
 12
261.0921374659
 22
-215.8011842222
 13
261.0921374659
 23
-215.8011842222
  0
LINE
  8
3
  6
BYBLOCK
 62
5
 10
261.0921374659
 20
-215.8011842222
 11
269.7419224945
 21
-212.7118712447
  0
CIRCLE
  8
3
  6
BYBLOCK
 62
5
 10
272.5671374658
 20
-211.7028319165
 40
3.0000000000
  0
TEXT
  8
3
  6
CONTINUOUS
 62
7
 10
269.942137
 20
-213.452832
 40
3.500000
  1
113
 41
0.815217
 50
0.000000
 51
0.000000
 72
   5
 73
   0
 11
275.192137
 21
-213.452832
  0
ENDBLK
  8
0
  0
BLOCK
  8
3
  2
BALN7
 70
     0
 10
253.9834406374
 20
-219.2431864733
  3
BALN7
  0
SOLID
  8
3
  6
CONTINUOUS
 62
5
 10
255.9824978485
 20
-219.3045889721
 11
255.6839737164
 21
-220.2958912027
 12
253.9834406374
 22
-219.2431864733
 13
253.9834406374
 23
-219.2431864733
  0
LINE
  8
3
  6
BYBLOCK
 62
5
 10
253.9834406374
 20
-219.2431864733
 11
269.6945641874
 21
-223.9744877626
  0
CIRCLE
  8
3
  6
BYBLOCK
 62
5
 10
272.5671374659
 20
-224.8395442694
 40
3.0000000000
  0
TEXT
  8
3
  6
CONTINUOUS
 62
7
 10
269.942137
 20
-226.589544
 40
3.500000
  1
114
 41
0.815217
 50
0.000000
 51
0.000000
 72
   5
 73
   0
 11
275.192137
 21
-226.589544
  0
ENDBLK
  8
0
  0
BLOCK
  8
1
  2
LTEX0
 70
     0
 10
143.4661466639
 20
87.8525214537
  3
LTEX0
  0
SOLID
  8
1
  6
CONTINUOUS
 62
5
 10
143.3932367761
 20
85.8538508584
 11
142.4036695513
 21
86.1580768883
 12
143.4661466639
 22
87.8525214537
 13
143.4661466639
 23
87.8525214537
  0
TEXT
  8
1
  6
CONTINUOUS
 62
7
 10
135.592421
 20
63.241364
 40
5.000000
  1
 ⑥⑦
 41
0.880282
 50
0.000000
 51
0.000000
 72
   5
 73
   0
 11
148.092421
 21
63.241364
  0
LINE
  8
1
  6
BYBLOCK
 62
5
 10
143.4661466639
 20
87.8525214537
 11
135.5924212135
 21
62.2413643591
  0
LINE
  8
1
  6
BYBLOCK
 62
5
 10
135.5924212135
 20
62.2413643591
 11
148.0924212135
 21
62.2413643591
  0
ENDBLK
  8
0
  0
BLOCK
  8
4
  2
*D7
 70
     1
 10
0.0000000000
 20
0.0000000000
  3
*D7
  0
LINE
  8
4
  6
BYBLOCK
 62
5
 10
319.0572849682
 20
172.8091792572
 11
319.0572849682
 21
184.5026280811
  0
LINE
  8
4
  6
BYBLOCK
 62
5
 10
325.5572849682
 20
175.8091792572
 11
325.5572849682
 21
184.5026280811
  0
LINE
  8
4
  6
BYBLOCK
 62
5
 10
325.5572849682
 20
183.5026280811
 11
319.0572849682
 21
183.5026280811
  0
SOLID
  8
4
  6
CONTINUOUS
 62
5
 10
320.9891366208
 20
184.0202661713
 11
320.9891366208
 21
182.9849899909
 12
319.0572849682
 22
183.5026280811
 13
319.0572849682
 23
183.5026280811
  0
SOLID
  8
4
  6
CONTINUOUS
 62
5
 10
323.6254333156
 20
182.9849899909
 11
323.6254333156
 21
184.0202661713
 12
325.5572849682
 22
183.5026280811
 13
325.5572849682
 23
183.5026280811
  0
TEXT
  8
4
  6
CONTINUOUS
 62
7
 10
319.682285
 20
184.502628
 40
3.500000
  1
6.5
 41
0.815217
 50
0.000000
 51
0.000000
 72
   5
 73
   0
 11
324.932285
 21
184.502628
  0
POINT
  8
DEFPOINTS
  6
BYBLOCK
 62
5
 10
319.0572849682
 20
172.3091792572
  0
POINT
  8
DEFPOINTS
  6
BYBLOCK
 62
5
 10
325.5572849682
 20
175.3091792572
  0
POINT
  8
DEFPOINTS
  6
BYBLOCK
 62
5
 10
325.5572849682
 20
183.5026280811
  0
ENDBLK
  8
0
  0
BLOCK
  8
4
  2
*D8
 70
     1
 10
0.0000000000
 20
0.0000000000
  3
*D8
  0
LINE
  8
4
  6
BYBLOCK
 62
5
 10
345.5572849682
 20
175.0591792572
 11
345.5572849682
 21
184.5026280811
  0
LINE
  8
4
  6
BYBLOCK
 62
5
 10
345.5572849682
 20
183.5026280811
 11
325.5572849682
 21
183.5026280811
  0
SOLID
  8
4
  6
CONTINUOUS
 62
5
 10
327.4891366208
 20
184.0202661713
 11
327.4891366208
 21
182.9849899909
 12
325.5572849682
 22
183.5026280811
 13
325.5572849682
 23
183.5026280811
  0
SOLID
  8
4
  6
CONTINUOUS
 62
5
 10
343.6254333156
 20
182.9849899909
 11
343.6254333156
 21
184.0202661713
 12
345.5572849682
 22
183.5026280811
 13
345.5572849682
 23
183.5026280811
  0
TEXT
  8
4
  6
CONTINUOUS
 62
7
 10
333.807285
 20
184.502628
 40
3.500000
  1
20
 41
0.854701
 50
0.000000
 51
0.000000
 72
   5
 73
   0
 11
337.307285
 21
184.502628
  0
POINT
  8
DEFPOINTS
  6
BYBLOCK
 62
5
 10
325.5572849682
 20
175.3091792572
  0
POINT
  8
DEFPOINTS
  6
BYBLOCK
 62
5
 10
345.5572849682
 20
174.5591792572
  0
POINT
  8
DEFPOINTS
  6
BYBLOCK
 62
5
 10
345.5572849682
 20
183.5026280811
  0
ENDBLK
  8
0
  0
BLOCK
  8
4
  2
*D9
 70
     1
 10
0.0000000000
 20
0.0000000000
  3
*D9
  0
LINE
  8
4
  6
BYBLOCK
 62
5
 10
365.5572849682
 20
175.8091792572
 11
365.5572849682
 21
184.5026280811
  0
LINE
  8
4
  6
BYBLOCK
 62
5
 10
365.5572849682
 20
183.5026280811
 11
345.5572849682
 21
183.5026280811
  0
SOLID
  8
4
  6
CONTINUOUS
 62
5
 10
347.4891366208
 20
184.0202661713
 11
347.4891366208
 21
182.9849899909
 12
345.5572849682
 22
183.5026280811
 13
345.5572849682
 23
183.5026280811
  0
SOLID
  8
4
  6
CONTINUOUS
 62
5
 10
363.6254333156
 20
182.9849899909
 11
363.6254333156
 21
184.0202661713
 12
365.5572849682
 22
183.5026280811
 13
365.5572849682
 23
183.5026280811
  0
TEXT
  8
4
  6
CONTINUOUS
 62
7
 10
353.807285
 20
184.502628
 40
3.500000
  1
20
 41
0.854701
 50
0.000000
 51
0.000000
 72
   5
 73
   0
 11
357.307285
 21
184.502628
  0
POINT
  8
DEFPOINTS
  6
BYBLOCK
 62
5
 10
345.5572849682
 20
174.5591792572
  0
POINT
  8
DEFPOINTS
  6
BYBLOCK
 62
5
 10
365.5572849682
 20
175.3091792572
  0
POINT
  8
DEFPOINTS
  6
BYBLOCK
 62
5
 10
365.5572849682
 20
183.5026280811
  0
ENDBLK
  8
0
  0
BLOCK
  8
4
  2
*D10
 70
     1
 10
0.0000000000
 20
0.0000000000
  3
*D10
  0
LINE
  8
4
  6
BYBLOCK
 62
5
 10
372.0572849682
 20
172.8091792572
 11
372.0572849682
 21
184.5026280811
  0
LINE
  8
4
  6
BYBLOCK
 62
5
 10
372.0572849682
 20
183.5026280811
 11
365.5572849682
 21
183.5026280811
  0
SOLID
  8
4
  6
CONTINUOUS
 62
5
 10
367.4891366208
 20
184.0202661713
 11
367.4891366208
 21
182.9849899909
 12
365.5572849682
 22
183.5026280811
 13
365.5572849682
 23
183.5026280811
  0
SOLID
  8
4
  6
CONTINUOUS
 62
5
 10
370.1254333156
 20
182.9849899909
 11
370.1254333156
 21
184.0202661713
 12
372.0572849682
 22
183.5026280811
 13
372.0572849682
 23
183.5026280811
  0
TEXT
  8
4
  6
CONTINUOUS
 62
7
 10
366.182285
 20
184.502628
 40
3.500000
  1
6.5
 41
0.815217
 50
0.000000
 51
0.000000
 72
   5
 73
   0
 11
371.432285
 21
184.502628
  0
POINT
  8
DEFPOINTS
  6
BYBLOCK
 62
5
 10
365.5572849682
 20
175.3091792572
  0
POINT
  8
DEFPOINTS
  6
BYBLOCK
 62
5
 10
372.0572849682
 20
172.3091792572
  0
POINT
  8
DEFPOINTS
  6
BYBLOCK
 62
5
 10
372.0572849682
 20
183.5026280811
  0
ENDBLK
  8
0
  0
BLOCK
  8
4
  2
*D11
 70
     1
 10
0.0000000000
 20
0.0000000000
  3
*D11
  0
LINE
  8
4
  6
BYBLOCK
 62
5
 10
319.0572849682
 20
184.5026280811
 11
319.0572849682
 21
191.5026280811
  0
LINE
  8
4
  6
BYBLOCK
 62
5
 10
372.0572849682
 20
172.8091792572
 11
372.0572849682
 21
191.5026280811
  0
LINE
  8
4
  6
BYBLOCK
 62
5
 10
372.0572849682
 20
190.5026280811
 11
319.0572849682
 21
190.5026280811
  0
SOLID
  8
4
  6
CONTINUOUS
 62
5
 10
320.9891366208
 20
191.0202661713
 11
320.9891366208
 21
189.9849899909
 12
319.0572849682
 22
190.5026280811
 13
319.0572849682
 23
190.5026280811
  0
SOLID
  8
4
  6
CONTINUOUS
 62
5
 10
370.1254333156
 20
189.9849899909
 11
370.1254333156
 21
191.0202661713
 12
372.0572849682
 22
190.5026280811
 13
372.0572849682
 23
190.5026280811
  0
TEXT
  8
4
  6
CONTINUOUS
 62
7
 10
343.807285
 20
191.502628
 40
3.500000
  1
53
 41
0.854701
 50
0.000000
 51
0.000000
 72
   5
 73
   0
 11
347.307285
 21
191.502628
  0
POINT
  8
DEFPOINTS
  6
BYBLOCK
 62
5
 10
319.0572849682
 20
172.3091792572
  0
POINT
  8
DEFPOINTS
  6
BYBLOCK
 62
5
 10
372.0572849682
 20
172.3091792572
  0
POINT
  8
DEFPOINTS
  6
BYBLOCK
 62
5
 10
372.0572849682
 20
190.5026280811
  0
ENDBLK
  8
0
  0
BLOCK
  8
4
  2
*D12
 70
     1
 10
0.0000000000
 20
0.0000000000
  3
*D12
  0
LINE
  8
4
  6
BYBLOCK
 62
5
 10
324.7064153436
 20
178.0445014346
 11
323.2882993026
 21
180.1033717302
  0
LINE
  8
4
  6
BYBLOCK
 62
5
 10
326.4081545928
 20
175.5738570798
 11
327.8262706338
 21
173.5149867841
  0
SOLID
  8
4
  6
CONTINUOUS
 62
5
 10
323.1842795416
 20
179.3418458761
 11
324.0368792918
 21
179.9291025795
 12
324.7064153436
 22
178.0445014346
 13
324.7064153436
 23
178.0445014346
  0
SOLID
  8
4
  6
CONTINUOUS
 62
5
 10
327.9302903948
 20
174.2765126382
 11
327.0776906446
 21
173.6892559349
 12
326.4081545928
 22
175.5738570798
 13
326.4081545928
 23
175.5738570798
  0
TEXT
  8
4
  6
CONTINUOUS
 62
7
 10
332.437449
 20
168.583219
 40
3.500000
  1
4-M3
 41
0.796813
 50
304.558432
 51
0.000000
 72
   5
 73
   0
 11
336.408174
 21
162.818382
  0
POINT
  8
DEFPOINTS
  6
BYBLOCK
 62
5
 10
324.7064153436
 20
178.0445014346
  0
POINT
  8
DEFPOINTS
  6
BYBLOCK
 62
5
 10
326.4081545928
 20
175.5738570798
  0
LINE
  8
4
  6
BYBLOCK
 62
5
 10
324.7064153436
 20
178.0445014346
 11
335.5846262337
 21
162.2511357126
  0
ENDBLK
  8
0
  0
BLOCK
  8
4
  2
*D13
 70
     1
 10
0.0000000000
 20
0.0000000000
  3
*D13
  0
LINE
  8
4
  6
BYBLOCK
 62
5
 10
344.1560871308
 20
178.5696180151
 11
342.5992006447
 21
180.5256610794
  0
LINE
  8
4
  6
BYBLOCK
 62
5
 10
346.9584828056
 20
175.0487404993
 11
348.5153692917
 21
173.0926974349
  0
SOLID
  8
4
  6
CONTINUOUS
 62
5
 10
342.5480086799
 20
179.7587705267
 11
343.3580265968
 21
180.4034935245
 12
344.1560871308
 22
178.5696180151
 13
344.1560871308
 23
178.5696180151
  0
SOLID
  8
4
  6
CONTINUOUS
 62
5
 10
348.5665612565
 20
173.8595879876
 11
347.7565433396
 21
173.2148649898
 12
346.9584828056
 22
175.0487404993
 13
346.9584828056
 23
175.0487404993
  0
TEXT
  8
4
  6
CONTINUOUS
 62
7
 10
353.582932
 20
168.331675
 40
3.500000
  1
2-φ4.5
 41
0.804598
 50
308.517570
 51
0.000000
 72
   5
 73
   0
 11
361.211676
 21
158.747064
  0
POINT
  8
DEFPOINTS
  6
BYBLOCK
 62
5
 10
344.1560871308
 20
178.5696180151
  0
POINT
  8
DEFPOINTS
  6
BYBLOCK
 62
5
 10
346.9584828056
 20
175.0487404993
  0
LINE
  8
4
  6
BYBLOCK
 62
5
 10
344.1560871308
 20
178.5696180151
 11
360.4292590547
 21
158.1243091490
  0
ENDBLK
  8
0
  0
BLOCK
  8
1
  2
*D14
 70
     1
 10
0.0000000000
 20
0.0000000000
  3
*D14
  0
LINE
  8
1
  6
BYBLOCK
 62
5
 10
366.5572849682
 20
59.8091792572
 11
305.8614186851
 21
59.8091792572
  0
LINE
  8
1
  6
BYBLOCK
 62
5
 10
318.5572849682
 20
64.3091792572
 11
305.8614186851
 21
64.3091792572
  0
LINE
  8
1
  6
BYBLOCK
 62
5
 10
306.8614186851
 20
66.8091792572
 11
306.8614186851
 21
57.3091792572
  0
SOLID
  8
1
  6
CONTINUOUS
 62
5
 10
307.3790567753
 20
57.8773276046
 11
306.3437805949
 21
57.8773276046
 12
306.8614186851
 22
59.8091792572
 13
306.8614186851
 23
59.8091792572
  0
SOLID
  8
1
  6
CONTINUOUS
 62
5
 10
306.3437805949
 20
66.2410309098
 11
307.3790567753
 21
66.2410309098
 12
306.8614186851
 22
64.3091792572
 13
306.8614186851
 23
64.3091792572
  0
TEXT
  8
1
  6
CONTINUOUS
 62
7
 10
305.861419
 20
59.809179
 40
3.000000
  1
4.5
 41
0.815217
 50
90.000000
 51
0.000000
 72
   5
 73
   0
 11
305.861419
 21
64.309179
  0
POINT
  8
DEFPOINTS
  6
BYBLOCK
 62
5
 10
367.0572849682
 20
59.8091792572
  0
POINT
  8
DEFPOINTS
  6
BYBLOCK
 62
5
 10
319.0572849682
 20
64.3091792572
  0
POINT
  8
DEFPOINTS
  6
BYBLOCK
 62
5
 10
306.8614186851
 20
64.3091792572
  0
ENDBLK
  8
0
  0
BLOCK
  8
1
  2
*D15
 70
     1
 10
0.0000000000
 20
0.0000000000
  3
*D15
  0
LINE
  8
1
  6
BYBLOCK
 62
5
 10
318.5572849682
 20
172.3091792572
 11
305.8614186851
 21
172.3091792572
  0
LINE
  8
1
  6
BYBLOCK
 62
5
 10
306.8614186851
 20
172.3091792572
 11
306.8614186851
 21
64.3091792572
  0
SOLID
  8
1
  6
CONTINUOUS
 62
5
 10
306.3437805949
 20
66.2410309098
 11
307.3790567753
 21
66.2410309098
 12
306.8614186851
 22
64.3091792572
 13
306.8614186851
 23
64.3091792572
  0
SOLID
  8
1
  6
CONTINUOUS
 62
5
 10
307.3790567753
 20
170.3773276046
 11
306.3437805949
 21
170.3773276046
 12
306.8614186851
 22
172.3091792572
 13
306.8614186851
 23
172.3091792572
  0
TEXT
  8
1
  6
CONTINUOUS
 62
7
 10
305.861419
 20
115.684179
 40
3.500000
  1
108
 41
0.815217
 50
90.000000
 51
0.000000
 72
   5
 73
   0
 11
305.861419
 21
120.934179
  0
POINT
  8
DEFPOINTS
  6
BYBLOCK
 62
5
 10
319.0572849682
 20
64.3091792572
  0
POINT
  8
DEFPOINTS
  6
BYBLOCK
 62
5
 10
319.0572849682
 20
172.3091792572
  0
POINT
  8
DEFPOINTS
  6
BYBLOCK
 62
5
 10
306.8614186851
 20
172.3091792572
  0
ENDBLK
  8
0
  0
BLOCK
  8
1
  2
*D16
 70
     1
 10
0.0000000000
 20
0.0000000000
  3
*D16
  0
LINE
  8
1
  6
BYBLOCK
 62
5
 10
366.5572849682
 20
176.8091792572
 11
305.8614186851
 21
176.8091792572
  0
LINE
  8
1
  6
BYBLOCK
 62
5
 10
306.8614186851
 20
179.3091792572
 11
306.8614186851
 21
169.8091792572
  0
SOLID
  8
1
  6
CONTINUOUS
 62
5
 10
307.3790567753
 20
170.3773276046
 11
306.3437805949
 21
170.3773276046
 12
306.8614186851
 22
172.3091792572
 13
306.8614186851
 23
172.3091792572
  0
SOLID
  8
1
  6
CONTINUOUS
 62
5
 10
306.3437805949
 20
178.7410309098
 11
307.3790567753
 21
178.7410309098
 12
306.8614186851
 22
176.8091792572
 13
306.8614186851
 23
176.8091792572
  0
TEXT
  8
1
  6
CONTINUOUS
 62
7
 10
304.861419
 20
172.309180
 40
3.000000
  1
4.5
 41
0.815217
 50
90.000000
 51
0.000000
 72
   5
 73
   0
 11
304.861419
 21
176.809180
  0
POINT
  8
DEFPOINTS
  6
BYBLOCK
 62
5
 10
319.0572849682
 20
172.3091792572
  0
POINT
  8
DEFPOINTS
  6
BYBLOCK
 62
5
 10
367.0572849682
 20
176.8091792572
  0
POINT
  8
DEFPOINTS
  6
BYBLOCK
 62
5
 10
306.8614186851
 20
176.8091792572
  0
ENDBLK
  8
0
  0
BLOCK
  8
1
  2
*D17
 70
     1
 10
0.0000000000
 20
0.0000000000
  3
*D17
  0
LINE
  8
1
  6
BYBLOCK
 62
5
 10
305.8614186851
 20
59.8091792572
 11
298.8614186851
 21
59.8091792572
  0
LINE
  8
1
  6
BYBLOCK
 62
5
 10
366.5572849682
 20
176.8091792572
 11
298.8614186851
 21
176.8091792572
  0
LINE
  8
1
  6
BYBLOCK
 62
5
 10
299.8614186851
 20
176.8091792572
 11
299.8614186851
 21
59.8091792572
  0
SOLID
  8
1
  6
CONTINUOUS
 62
5
 10
299.3437805949
 20
61.7410309098
 11
300.3790567753
 21
61.7410309098
 12
299.8614186851
 22
59.8091792572
 13
299.8614186851
 23
59.8091792572
  0
SOLID
  8
1
  6
CONTINUOUS
 62
5
 10
300.3790567753
 20
174.8773276046
 11
299.3437805949
 21
174.8773276046
 12
299.8614186851
 22
176.8091792572
 13
299.8614186851
 23
176.8091792572
  0
TEXT
  8
1
  6
CONTINUOUS
 62
7
 10
298.861419
 20
115.684179
 40
3.500000
  1
117
 41
0.815217
 50
90.000000
 51
0.000000
 72
   5
 73
   0
 11
298.861419
 21
120.934179
  0
POINT
  8
DEFPOINTS
  6
BYBLOCK
 62
5
 10
367.0572849682
 20
59.8091792572
  0
POINT
  8
DEFPOINTS
  6
BYBLOCK
 62
5
 10
367.0572849682
 20
176.8091792572
  0
POINT
  8
DEFPOINTS
  6
BYBLOCK
 62
5
 10
299.8614186851
 20
176.8091792572
  0
ENDBLK
  8
0
  0
BLOCK
  8
1
  2
*D18
 70
     1
 10
0.0000000000
 20
0.0000000000
  3
*D18
  0
LINE
  8
1
  6
BYBLOCK
 62
5
 10
380.5572849682
 20
44.0591792572
 11
388.7005190311
 21
44.0591792572
  0
LINE
  8
1
  6
BYBLOCK
 62
5
 10
372.5572849682
 20
64.3091792572
 11
388.7005190311
 21
64.3091792572
  0
LINE
  8
1
  6
BYBLOCK
 62
5
 10
387.7005190311
 20
64.3091792572
 11
387.7005190311
 21
44.0591792572
  0
SOLID
  8
1
  6
CONTINUOUS
 62
5
 10
387.1828809409
 20
45.9910309098
 11
388.2181571213
 21
45.9910309098
 12
387.7005190311
 22
44.0591792572
 13
387.7005190311
 23
44.0591792572
  0
SOLID
  8
1
  6
CONTINUOUS
 62
5
 10
388.2181571213
 20
62.3773276046
 11
387.1828809409
 21
62.3773276046
 12
387.7005190311
 22
64.3091792572
 13
387.7005190311
 23
64.3091792572
  0
TEXT
  8
1
  6
CONTINUOUS
 62
7
 10
386.700519
 20
49.809179
 40
3.500000
  1
20.25
 41
0.786164
 50
90.000000
 51
0.000000
 72
   5
 73
   0
 11
386.700519
 21
58.559179
  0
POINT
  8
DEFPOINTS
  6
BYBLOCK
 62
5
 10
380.0572849682
 20
44.0591792572
  0
POINT
  8
DEFPOINTS
  6
BYBLOCK
 62
5
 10
372.0572849682
 20
64.3091792572
  0
POINT
  8
DEFPOINTS
  6
BYBLOCK
 62
5
 10
387.7005190311
 20
64.3091792572
  0
ENDBLK
  8
0
  0
BLOCK
  8
1
  2
*D19
 70
     1
 10
0.0000000000
 20
0.0000000000
  3
*D19
  0
LINE
  8
1
  6
BYBLOCK
 62
5
 10
372.5572849682
 20
172.3091792572
 11
388.7005190311
 21
172.3091792572
  0
LINE
  8
1
  6
BYBLOCK
 62
5
 10
387.7005190311
 20
172.3091792572
 11
387.7005190311
 21
64.3091792572
  0
SOLID
  8
1
  6
CONTINUOUS
 62
5
 10
387.1828809409
 20
66.2410309098
 11
388.2181571213
 21
66.2410309098
 12
387.7005190311
 22
64.3091792572
 13
387.7005190311
 23
64.3091792572
  0
SOLID
  8
1
  6
CONTINUOUS
 62
5
 10
388.2181571213
 20
170.3773276046
 11
387.1828809409
 21
170.3773276046
 12
387.7005190311
 22
172.3091792572
 13
387.7005190311
 23
172.3091792572
  0
TEXT
  8
1
  6
CONTINUOUS
 62
7
 10
386.700519
 20
115.684179
 40
3.500000
  1
108
 41
0.815217
 50
90.000000
 51
0.000000
 72
   5
 73
   0
 11
386.700519
 21
120.934179
  0
POINT
  8
DEFPOINTS
  6
BYBLOCK
 62
5
 10
372.0572849682
 20
64.3091792572
  0
POINT
  8
DEFPOINTS
  6
BYBLOCK
 62
5
 10
372.0572849682
 20
172.3091792572
  0
POINT
  8
DEFPOINTS
  6
BYBLOCK
 62
5
 10
387.7005190311
 20
172.3091792572
  0
ENDBLK
  8
0
  0
BLOCK
  8
1
  2
*D20
 70
     1
 10
0.0000000000
 20
0.0000000000
  3
*D20
  0
LINE
  8
1
  6
BYBLOCK
 62
5
 10
380.5572849682
 20
199.5591792572
 11
388.7005190311
 21
199.5591792572
  0
LINE
  8
1
  6
BYBLOCK
 62
5
 10
387.7005190311
 20
199.5591792572
 11
387.7005190311
 21
172.3091792572
  0
SOLID
  8
1
  6
CONTINUOUS
 62
5
 10
387.1828809409
 20
174.2410309098
 11
388.2181571213
 21
174.2410309098
 12
387.7005190311
 22
172.3091792572
 13
387.7005190311
 23
172.3091792572
  0
SOLID
  8
1
  6
CONTINUOUS
 62
5
 10
388.2181571213
 20
197.6273276046
 11
387.1828809409
 21
197.6273276046
 12
387.7005190311
 22
199.5591792572
 13
387.7005190311
 23
199.5591792572
  0
TEXT
  8
1
  6
CONTINUOUS
 62
7
 10
386.700519
 20
181.559179
 40
3.500000
  1
27.25
 41
0.786164
 50
90.000000
 51
0.000000
 72
   5
 73
   0
 11
386.700519
 21
190.309179
  0
POINT
  8
DEFPOINTS
  6
BYBLOCK
 62
5
 10
372.0572849682
 20
172.3091792572
  0
POINT
  8
DEFPOINTS
  6
BYBLOCK
 62
5
 10
380.0572849682
 20
199.5591792572
  0
POINT
  8
DEFPOINTS
  6
BYBLOCK
 62
5
 10
387.7005190311
 20
199.5591792572
  0
ENDBLK
  8
0
  0
BLOCK
  8
1
  2
LTEX1
 70
     0
 10
323.9116262976
 20
44.0591792572
  3
LTEX1
  0
SOLID
  8
1
  6
CONTINUOUS
 62
5
 10
324.7338699055
 20
45.8823400974
 11
325.5352905702
 21
45.2269610561
 12
323.9116262976
 22
44.0591792572
 13
323.9116262976
 23
44.0591792572
  0
TEXT
  8
1
  6
CONTINUOUS
 62
7
 10
328.407128
 20
50.556438
 40
2.500000
  1
製品外形
 41
0.886918
 50
0.000000
 51
0.000000
 72
   5
 73
   0
 11
338.407128
 21
50.556438
  0
LINE
  8
1
  6
BYBLOCK
 62
5
 10
323.9116262976
 20
44.0591792572
 11
328.4071280277
 21
49.5564377255
  0
LINE
  8
1
  6
BYBLOCK
 62
5
 10
328.4071280277
 20
49.5564377255
 11
338.4071280277
 21
49.5564377255
  0
ENDBLK
  8
0
  0
BLOCK
  8
1
  2
BALN8
 70
     0
 10
131.0889601190
 20
214.9344220794
  3
BALN8
  0
SOLID
  8
1
  6
CONTINUOUS
 62
5
 10
130.7284137875
 20
216.9016552488
 11
131.7603344214
 21
216.8183691451
 12
131.0889601190
 22
214.9344220794
 13
131.0889601190
 23
214.9344220794
  0
LINE
  8
1
  6
BYBLOCK
 62
5
 10
131.0889601190
 20
214.9344220794
 11
132.0718297280
 21
227.1122450808
  0
CIRCLE
  8
1
  6
BYBLOCK
 62
5
 10
132.3131743238
 20
230.1025214537
 40
3.0000000000
  0
TEXT
  8
1
  6
CONTINUOUS
 62
7
 10
131.438174
 20
228.352521
 40
3.500000
  1
1
 41
1.000000
 50
0.000000
 51
0.000000
 72
   5
 73
   0
 11
133.188174
 21
228.352521
  0
ENDBLK
  8
0
  0
BLOCK
  8
1
  2
BALN9
 70
     0
 10
112.1348058892
 20
202.0171741535
  3
BALN9
  0
SOLID
  8
1
  6
CONTINUOUS
 62
5
 10
111.2041040570
 20
203.7874267060
 11
112.2139207354
 21
204.0156087511
 12
112.1348058892
 22
202.0171741535
 13
112.1348058892
 23
202.0171741535
  0
LINE
  8
1
  6
BYBLOCK
 62
5
 10
112.1348058892
 20
202.0171741535
 11
106.4497540127
 21
227.1762974252
  0
CIRCLE
  8
1
  6
BYBLOCK
 62
5
 10
105.7885332211
 20
230.1025214537
 40
3.0000000000
  0
TEXT
  8
1
  6
CONTINUOUS
 62
7
 10
104.913533
 20
228.352521
 40
3.500000
  1
2
 41
1.000000
 50
0.000000
 51
0.000000
 72
   5
 73
   0
 11
106.663533
 21
228.352521
  0
ENDBLK
  8
0
  0
BLOCK
  8
1
  2
BALN10
 70
     0
 10
173.9105182328
 20
197.3525214537
  3
BALN10
  0
SOLID
  8
1
  6
CONTINUOUS
 62
5
 10
173.6481267778
 20
199.3352344244
 11
174.6746370524
 21
199.2007969822
 12
173.9105182328
 22
197.3525214537
 13
173.9105182328
 23
197.3525214537
  0
LINE
  8
1
  6
BYBLOCK
 62
5
 10
173.9105182328
 20
197.3525214537
 11
177.8100689110
 21
227.1279230981
  0
CIRCLE
  8
1
  6
BYBLOCK
 62
5
 10
178.1996387033
 20
230.1025214537
 40
3.0000000000
  0
TEXT
  8
1
  6
CONTINUOUS
 62
7
 10
177.324639
 20
228.352521
 40
3.500000
  1
4
 41
1.000000
 50
0.000000
 51
0.000000
 72
   5
 73
   0
 11
179.074639
 21
228.352521
  0
ENDBLK
  8
0
  0
BLOCK
  8
1
  2
BALN11
 70
     0
 10
193.9105182328
 20
201.2525214536
  3
BALN11
  0
SOLID
  8
1
  6
CONTINUOUS
 62
5
 10
193.8067066555
 20
203.2498254256
 11
194.8192667557
 21
203.0341432210
 12
193.9105182328
 22
201.2525214536
 13
193.9105182328
 23
201.2525214536
  0
LINE
  8
1
  6
BYBLOCK
 62
5
 10
193.9105182328
 20
201.2525214536
 11
199.4307658854
 21
227.1683475995
  0
CIRCLE
  8
1
  6
BYBLOCK
 62
5
 10
200.0557649204
 20
230.1025214537
 40
3.0000000000
  0
TEXT
  8
1
  6
CONTINUOUS
 62
7
 10
199.180765
 20
228.352521
 40
3.500000
  1
5
 41
1.000000
 50
0.000000
 51
0.000000
 72
   5
 73
   0
 11
200.930765
 21
228.352521
  0
ENDBLK
  8
0
  0
BLOCK
  8
1
  2
BALN12
 70
     0
 10
210.8775143248
 20
187.5497784381
  3
BALN12
  0
SOLID
  8
1
  6
CONTINUOUS
 62
5
 10
210.7311364663
 20
189.5444146261
 11
211.7480654748
 21
189.3503729775
 12
210.8775143248
 22
187.5497784381
 13
210.8775143248
 23
187.5497784381
  0
LINE
  8
1
  6
BYBLOCK
 62
5
 10
210.8775143248
 20
187.5497784381
 11
218.4347733084
 21
227.1556874753
  0
CIRCLE
  8
1
  6
BYBLOCK
 62
5
 10
218.9970628278
 20
230.1025214537
 40
3.0000000000
  0
TEXT
  8
1
  6
CONTINUOUS
 62
7
 10
218.122063
 20
228.352521
 40
3.500000
  1
8
 41
1.000000
 50
0.000000
 51
0.000000
 72
   5
 73
   0
 11
219.872063
 21
228.352521
  0
ENDBLK
  8
0
  0
BLOCK
  8
1
  2
*X0
 70
     1
 10
263.9510364936
 20
-88.1795996262
  3
*X0
  0
LINE
  8
1
  6
CONTINUOUS
 62
5
 10
261.2916418156
 20
-87.3034603982
 11
263.0748972657
 21
-85.5202049482
  0
LINE
  8
1
  6
CONTINUOUS
 62
5
 10
261.1511822852
 20
-88.1510267099
 11
263.9224635773
 21
-85.3797454178
  0
LINE
  8
1
  6
CONTINUOUS
 62
5
 10
261.2185509721
 20
-88.7907648041
 11
264.5622016716
 21
-85.4471141047
  0
LINE
  8
1
  6
CONTINUOUS
 62
5
 10
261.3946055115
 20
-89.3218170459
 11
265.0932539133
 21
-85.6231686441
  0
LINE
  8
1
  6
CONTINUOUS
 62
5
 10
261.6494071291
 20
-89.7741222095
 11
265.5455590769
 21
-85.8779702617
  0
LINE
  8
1
  6
CONTINUOUS
 62
5
 10
261.9711375063
 20
-90.1594986135
 11
265.9309354809
 21
-86.1997006389
  0
LINE
  8
1
  6
CONTINUOUS
 62
5
 10
262.3565139103
 20
-90.4812289907
 11
266.2526658581
 21
-86.5850770429
  0
LINE
  8
1
  6
CONTINUOUS
 62
5
 10
262.8088190739
 20
-90.7360306083
 11
266.5074674757
 21
-87.0373822065
  0
LINE
  8
1
  6
CONTINUOUS
 62
5
 10
263.3398713157
 20
-90.9120851477
 11
266.6835220151
 21
-87.5684344482
  0
LINE
  8
1
  6
CONTINUOUS
 62
5
 10
263.9796094099
 20
-90.9794538346
 11
266.7508907020
 21
-88.2081725425
  0
LINE
  8
1
  6
CONTINUOUS
 62
5
 10
264.8271757216
 20
-90.8389943042
 11
266.6104311716
 21
-89.0557388541
  0
LINE
  8
1
  6
CONTINUOUS
 62
5
 10
280.2518077574
 20
-87.4351775485
 11
282.2066144159
 21
-85.4803708900
  0
LINE
  8
1
  6
CONTINUOUS
 62
5
 10
280.1517397782
 20
-88.2423523089
 11
283.0137891763
 21
-85.3803029108
  0
LINE
  8
1
  6
CONTINUOUS
 62
5
 10
280.2362160737
 20
-88.8649827946
 11
283.6364196620
 21
-85.4647792063
  0
LINE
  8
1
  6
CONTINUOUS
 62
5
 10
280.4236289023
 20
-89.3846767471
 11
284.1561136146
 21
-85.6521920349
  0
LINE
  8
1
  6
CONTINUOUS
 62
5
 10
280.6875680712
 20
-89.8278443594
 11
284.5992812269
 21
-85.9161312038
  0
LINE
  8
1
  6
CONTINUOUS
 62
5
 10
281.0176121375
 20
-90.2049070743
 11
284.9763439417
 21
-86.2461752701
  0
LINE
  8
1
  6
CONTINUOUS
 62
5
 10
281.4113553692
 20
-90.5182706238
 11
285.2897074912
 21
-86.6399185018
  0
LINE
  8
1
  6
CONTINUOUS
 62
5
 10
281.8729872765
 20
-90.7637454977
 11
285.5351823652
 21
-87.1015504090
  0
LINE
  8
1
  6
CONTINUOUS
 62
5
 10
282.4158609311
 20
-90.9279786243
 11
285.6994154917
 21
-87.6444240637
  0
LINE
  8
1
  6
CONTINUOUS
 62
5
 10
283.0740502260
 20
-90.9768961106
 11
285.7483329780
 21
-88.3026133586
  0
LINE
  8
1
  6
CONTINUOUS
 62
5
 10
283.9707289470
 20
-90.7873241708
 11
285.5587610382
 21
-89.1992920795
  0
ENDBLK
  8
0
  0
BLOCK
  8
1
  2
S2
 70
     0
 10
9.0000000000
 20
262.0000000000
  3
S2
  0
POINT
  8
1
  6
CONTINUOUS
 62
6
 10
9.0000000000
 20
262.0000000000
  0
ENDBLK
  8
0
  0
BLOCK
  8
1
  2
S3
 70
     0
 10
7.7490435001
 20
-51.9655230621
  3
S3
  0
POINT
  8
1
  6
CONTINUOUS
 62
6
 10
7.7490435001
 20
-51.9655230621
  0
ENDBLK
  8
0
  0
BLOCK
  8
1
  2
S4
 70
     0
 10
9.0000000000
 20
267.0000000000
  3
S4
  0
POINT
  8
1
  6
CONTINUOUS
 62
6
 10
9.0000000000
 20
267.0000000000
  0
ENDBLK
  8
0
  0
BLOCK
  8
1
  2
S5
 70
     0
 10
398.0273756505
 20
-219.1716243335
  3
S5
  0
LINE
  8
1
  6
CONTINUOUS
 62
6
 10
400.5273756505
 20
-221.1716243335
 11
395.5273756505
 21
-221.1716243335
  0
TEXT
  8
1
  6
CONTINUOUS
 62
6
 10
396.931776
 20
-221.549952
 40
3.300000
  1
C
 41
1.328000
 50
0.000000
 51
0.000000
 72
   5
 73
   0
 11
399.122976
 21
-221.549952
  0
LINE
  8
1
  6
CONTINUOUS
 62
6
 10
398.0273756505
 20
-217.1716243335
 11
395.5273756505
 21
-221.1716243335
  0
LINE
  8
1
  6
CONTINUOUS
 62
6
 10
398.0273756505
 20
-217.1716243335
 11
400.5273756505
 21
-221.1716243335
  0
POINT
  8
1
  6
CONTINUOUS
 62
6
 10
398.0273756505
 20
-219.1716243335
  0
ENDBLK
  8
0
  0
BLOCK
  8
1
  2
S6
 70
     0
 10
398.0273756505
 20
-224.1716243335
  3
S6
  0
LINE
  8
1
  6
CONTINUOUS
 62
6
 10
400.5273756505
 20
-226.1716243335
 11
395.5273756505
 21
-226.1716243335
  0
TEXT
  8
1
  6
CONTINUOUS
 62
6
 10
396.931776
 20
-226.549952
 40
3.300000
  1
C
 41
1.328000
 50
0.000000
 51
0.000000
 72
   5
 73
   0
 11
399.122976
 21
-226.549952
  0
LINE
  8
1
  6
CONTINUOUS
 62
6
 10
398.0273756505
 20
-222.1716243335
 11
395.5273756505
 21
-226.1716243335
  0
LINE
  8
1
  6
CONTINUOUS
 62
6
 10
398.0273756505
 20
-222.1716243335
 11
400.5273756505
 21
-226.1716243335
  0
POINT
  8
1
  6
CONTINUOUS
 62
6
 10
398.0273756505
 20
-224.1716243335
  0
ENDBLK
  8
0
  0
BLOCK
  8
1
  2
S7
 70
     0
 10
398.0273756505
 20
-241.6716243335
  3
S7
  0
LINE
  8
1
  6
CONTINUOUS
 62
6
 10
400.5273756505
 20
-243.6716243335
 11
395.5273756505
 21
-243.6716243335
  0
TEXT
  8
1
  6
CONTINUOUS
 62
6
 10
396.931776
 20
-244.049952
 40
3.300000
  1
C
 41
1.328000
 50
0.000000
 51
0.000000
 72
   5
 73
   0
 11
399.122976
 21
-244.049952
  0
LINE
  8
1
  6
CONTINUOUS
 62
6
 10
398.0273756505
 20
-239.6716243335
 11
395.5273756505
 21
-243.6716243335
  0
LINE
  8
1
  6
CONTINUOUS
 62
6
 10
398.0273756505
 20
-239.6716243335
 11
400.5273756505
 21
-243.6716243335
  0
POINT
  8
1
  6
CONTINUOUS
 62
6
 10
398.0273756505
 20
-241.6716243335
  0
ENDBLK
  8
0
  0
BLOCK
  8
1
  2
S8
 70
     0
 10
7.7490435001
 20
-46.9655230621
  3
S8
  0
POINT
  8
1
  6
CONTINUOUS
 62
6
 10
7.7490435001
 20
-46.9655230621
  0
ENDBLK
  8
0
  0
BLOCK
  8
1
  2
BALN13
 70
     0
 10
221.4958056346
 20
-102.5368978922
  3
BALN13
  0
SOLID
  8
1
  6
CONTINUOUS
 62
5
 10
222.0134437248
 20
-104.4687495447
 11
220.9781675444
 21
-104.4687495447
 12
221.4958056346
 22
-102.5368978922
 13
221.4958056346
 23
-102.5368978922
  0
LINE
  8
1
  6
BYBLOCK
 62
5
 10
221.4958056346
 20
-102.5368978922
 11
221.4958056346
 21
-114.6746003385
  0
CIRCLE
  8
1
  6
BYBLOCK
 62
5
 10
221.4958056346
 20
-117.6746003385
 40
3.0000000000
  0
TEXT
  8
1
  6
CONTINUOUS
 62
7
 10
219.745806
 20
-119.424600
 40
3.500000
  1
93
 41
0.854701
 50
0.000000
 51
0.000000
 72
   5
 73
   0
 11
223.245806
 21
-119.424600
  0
ENDBLK
  8
0
  0
BLOCK
  8
1
  2
BALN14
 70
     0
 10
273.4510364936
 20
-102.5368978922
  3
BALN14
  0
SOLID
  8
1
  6
CONTINUOUS
 62
5
 10
273.9686745838
 20
-104.4687495447
 11
272.9333984034
 21
-104.4687495447
 12
273.4510364936
 22
-102.5368978922
 13
273.4510364936
 23
-102.5368978922
  0
LINE
  8
1
  6
BYBLOCK
 62
5
 10
273.4510364936
 20
-102.5368978922
 11
273.4510364936
 21
-114.6746003385
  0
CIRCLE
  8
1
  6
BYBLOCK
 62
5
 10
273.4510364936
 20
-117.6746003385
 40
3.0000000000
  0
TEXT
  8
1
  6
CONTINUOUS
 62
7
 10
271.701036
 20
-119.424600
 40
3.500000
  1
95
 41
0.854701
 50
0.000000
 51
0.000000
 72
   5
 73
   0
 11
275.201036
 21
-119.424600
  0
ENDBLK
  8
0
  0
BLOCK
  8
1
  2
LTEX2
 70
     0
 10
221.4958056346
 20
-57.8666360739
  3
LTEX2
  0
SOLID
  8
1
  6
CONTINUOUS
 62
5
 10
221.6356758360
 20
-55.8715329871
 11
222.6144883256
 21
-56.2087612183
 12
221.4958056346
 22
-57.8666360739
 13
221.4958056346
 23
-57.8666360739
  0
TEXT
  8
1
  6
CONTINUOUS
 62
7
 10
224.059840
 20
-49.424470
 40
3.000000
  1
黒色彫刻文字
 41
0.875912
 50
0.000000
 51
0.000000
 72
   5
 73
   0
 11
242.059840
 21
-49.424470
  0
LINE
  8
1
  6
BYBLOCK
 62
5
 10
221.4958056346
 20
-57.8666360739
 11
224.0598397696
 21
-50.4244696028
  0
LINE
  8
1
  6
BYBLOCK
 62
5
 10
224.0598397696
 20
-50.4244696028
 11
242.0598397696
 21
-50.4244696028
  0
ENDBLK
  8
0
  0
BLOCK
  8
1
  2
LTEX3
 70
     0
 10
273.4510364936
 20
-57.8666360739
  3
LTEX3
  0
SOLID
  8
1
  6
CONTINUOUS
 62
5
 10
273.5909066951
 20
-55.8715329871
 11
274.5697191847
 21
-56.2087612183
 12
273.4510364936
 22
-57.8666360739
 13
273.4510364936
 23
-57.8666360739
  0
TEXT
  8
1
  6
CONTINUOUS
 62
7
 10
276.015071
 20
-49.424470
 40
3.000000
  1
黒色彫刻文字
 41
0.875912
 50
0.000000
 51
0.000000
 72
   5
 73
   0
 11
294.015071
 21
-49.424470
  0
LINE
  8
1
  6
BYBLOCK
 62
5
 10
273.4510364936
 20
-57.8666360739
 11
276.0150706287
 21
-50.4244696028
  0
LINE
  8
1
  6
BYBLOCK
 62
5
 10
276.0150706287
 20
-50.4244696028
 11
294.0150706287
 21
-50.4244696028
  0
ENDBLK
  8
0
  0
BLOCK
  8
1
  2
BALN15
 70
     0
 10
228.4412619408
 20
-108.4295996262
  3
BALN15
  0
SOLID
  8
1
  6
CONTINUOUS
 62
5
 10
229.7983410708
 20
-109.8987273384
 11
228.8819630862
 21
-110.3804411114
 12
228.4412619408
 22
-108.4295996262
 13
228.4412619408
 23
-108.4295996262
  0
LINE
  8
1
  6
BYBLOCK
 62
5
 10
228.4412619408
 20
-108.4295996262
 11
231.9051958411
 21
-115.0191408526
  0
CIRCLE
  8
1
  6
BYBLOCK
 62
5
 10
233.3010951637
 20
-117.6746003385
 40
3.0000000000
  0
TEXT
  8
1
  6
CONTINUOUS
 62
7
 10
231.551095
 20
-119.424600
 40
3.500000
  1
92
 41
0.854701
 50
0.000000
 51
0.000000
 72
   5
 73
   0
 11
235.051095
 21
-119.424600
  0
ENDBLK
  8
0
  0
BLOCK
  8
1
  2
BALN16
 70
     0
 10
280.2470648644
 20
-108.4295996262
  3
BALN16
  0
SOLID
  8
1
  6
CONTINUOUS
 62
5
 10
281.6041439944
 20
-109.8987273384
 11
280.6877660099
 21
-110.3804411114
 12
280.2470648644
 22
-108.4295996262
 13
280.2470648644
 23
-108.4295996262
  0
LINE
  8
1
  6
BYBLOCK
 62
5
 10
280.2470648644
 20
-108.4295996262
 11
283.7109987647
 21
-115.0191408526
  0
CIRCLE
  8
1
  6
BYBLOCK
 62
5
 10
285.1068980873
 20
-117.6746003385
 40
3.0000000000
  0
TEXT
  8
1
  6
CONTINUOUS
 62
7
 10
283.356898
 20
-119.424600
 40
3.500000
  1
94
 41
0.854701
 50
0.000000
 51
0.000000
 72
   5
 73
   0
 11
286.856898
 21
-119.424600
  0
ENDBLK
  8
0
  0
BLOCK
  8
1
  2
BALN17
 70
     0
 10
176.4860310817
 20
-108.4295996262
  3
BALN17
  0
SOLID
  8
1
  6
CONTINUOUS
 62
5
 10
177.8431102118
 20
-109.8987273384
 11
176.9267322272
 21
-110.3804411114
 12
176.4860310817
 22
-108.4295996262
 13
176.4860310817
 23
-108.4295996262
  0
LINE
  8
1
  6
BYBLOCK
 62
5
 10
176.4860310817
 20
-108.4295996262
 11
179.9499649821
 21
-115.0191408526
  0
CIRCLE
  8
1
  6
BYBLOCK
 62
5
 10
181.3458643046
 20
-117.6746003385
 40
3.0000000000
  0
TEXT
  8
1
  6
CONTINUOUS
 62
7
 10
179.595864
 20
-119.424600
 40
3.500000
  1
92
 41
0.854701
 50
0.000000
 51
0.000000
 72
   5
 73
   0
 11
183.095864
 21
-119.424600
  0
ENDBLK
  8
0
  0
BLOCK
  8
1
  2
S9
 70
     0
 10
8.9999999999
 20
262.0000000000
  3
S9
  0
POINT
  8
1
  6
CONTINUOUS
 62
6
 10
8.9999999999
 20
262.0000000000
  0
ENDBLK
  8
0
  0
BLOCK
  8
1
  2
S10
 70
     0
 10
8.9999999999
 20
262.0000000000
  3
S10
  0
LINE
  8
1
  6
CONTINUOUS
 62
6
 10
11.4999999999
 20
260.0000000000
 11
6.4999999999
 21
260.0000000000
  0
TEXT
  8
1
  6
CONTINUOUS
 62
6
 10
7.948950
 20
259.621673
 40
3.300000
  1
B
 41
1.274000
 50
0.000000
 51
0.000000
 72
   5
 73
   0
 11
10.051050
 21
259.621673
  0
LINE
  8
1
  6
CONTINUOUS
 62
6
 10
8.9999999999
 20
264.0000000000
 11
6.4999999999
 21
260.0000000000
  0
LINE
  8
1
  6
CONTINUOUS
 62
6
 10
8.9999999999
 20
264.0000000000
 11
11.4999999999
 21
260.0000000000
  0
POINT
  8
1
  6
CONTINUOUS
 62
6
 10
8.9999999999
 20
262.0000000000
  0
ENDBLK
  8
0
  0
BLOCK
  8
1
  2
S11
 70
     0
 10
7.7490435001
 20
-51.9655230621
  3
S11
  0
POINT
  8
1
  6
CONTINUOUS
 62
6
 10
7.7490435001
 20
-51.9655230621
  0
ENDBLK
  8
0
  0
BLOCK
  8
1
  2
S12
 70
     0
 10
7.7490435001
 20
-51.9655230621
  3
S12
  0
POINT
  8
1
  6
CONTINUOUS
 62
6
 10
7.7490435001
 20
-51.9655230621
  0
ENDBLK
  8
0
  0
BLOCK
  8
1
  2
S13
 70
     0
 10
7.7490435001
 20
-51.9655230621
  3
S13
  0
LINE
  8
1
  6
CONTINUOUS
 62
6
 10
10.2490435001
 20
-53.9655230621
 11
5.2490435001
 21
-53.9655230621
  0
TEXT
  8
1
  6
CONTINUOUS
 62
6
 10
6.697994
 20
-54.343850
 40
3.300000
  1
B
 41
1.274000
 50
0.000000
 51
0.000000
 72
   5
 73
   0
 11
8.800094
 21
-54.343850
  0
LINE
  8
1
  6
CONTINUOUS
 62
6
 10
7.7490435001
 20
-49.9655230621
 11
5.2490435001
 21
-53.9655230621
  0
LINE
  8
1
  6
CONTINUOUS
 62
6
 10
7.7490435001
 20
-49.9655230621
 11
10.2490435001
 21
-53.9655230621
  0
POINT
  8
1
  6
CONTINUOUS
 62
6
 10
7.7490435001
 20
-51.9655230621
  0
ENDBLK
  8
0
  0
BLOCK
  8
1
  2
S14
 70
     0
 10
251.4119457554
 20
-147.3526631572
  3
S14
  0
LINE
  8
1
  6
CONTINUOUS
 62
6
 10
253.9119457554
 20
-149.3526631572
 11
248.9119457554
 21
-149.3526631572
  0
TEXT
  8
1
  6
CONTINUOUS
 62
6
 10
250.661946
 20
-149.580990
 40
3.000000
  1
B
 41
1.000000
 50
0.000000
 51
0.000000
 72
   5
 73
   0
 11
252.161946
 21
-149.580990
  0
LINE
  8
1
  6
CONTINUOUS
 62
6
 10
251.4119457554
 20
-145.3526631572
 11
248.9119457554
 21
-149.3526631572
  0
LINE
  8
1
  6
CONTINUOUS
 62
6
 10
251.4119457554
 20
-145.3526631572
 11
253.9119457554
 21
-149.3526631572
  0
POINT
  8
1
  6
CONTINUOUS
 62
6
 10
251.4119457554
 20
-147.3526631572
  0
ENDBLK
  8
0
  0
BLOCK
  8
1
  2
S15
 70
     0
 10
168.6610564351
 20
248.9813479689
  3
S15
  0
LINE
  8
1
  6
CONTINUOUS
 62
6
 10
171.1610564351
 20
246.9813479689
 11
166.1610564351
 21
246.9813479689
  0
TEXT
  8
1
  6
CONTINUOUS
 62
6
 10
167.565456
 20
246.603021
 40
3.300000
  1
C
 41
1.328000
 50
0.000000
 51
0.000000
 72
   5
 73
   0
 11
169.756656
 21
246.603021
  0
LINE
  8
1
  6
CONTINUOUS
 62
6
 10
168.6610564351
 20
250.9813479689
 11
166.1610564351
 21
246.9813479689
  0
LINE
  8
1
  6
CONTINUOUS
 62
6
 10
168.6610564351
 20
250.9813479689
 11
171.1610564351
 21
246.9813479689
  0
POINT
  8
1
  6
CONTINUOUS
 62
6
 10
168.6610564351
 20
248.9813479689
  0
ENDBLK
  8
0
  0
BLOCK
  8
1
  2
S16
 70
     0
 10
7.7490435001
 20
-46.9655230621
  3
S16
  0
POINT
  8
1
  6
CONTINUOUS
 62
6
 10
7.7490435001
 20
-46.9655230621
  0
ENDBLK
  8
0
  0
BLOCK
  8
1
  2
S17
 70
     0
 10
309.3586496777
 20
267.1060627331
  3
S17
  0
LINE
  8
1
  6
CONTINUOUS
 62
6
 10
311.8586496777
 20
265.1060627331
 11
306.8586496777
 21
265.1060627331
  0
TEXT
  8
1
  6
CONTINUOUS
 62
6
 10
308.263050
 20
264.727735
 40
3.300000
  1
C
 41
1.328000
 50
0.000000
 51
0.000000
 72
   5
 73
   0
 11
310.454250
 21
264.727735
  0
LINE
  8
1
  6
CONTINUOUS
 62
6
 10
309.3586496777
 20
269.1060627331
 11
306.8586496777
 21
265.1060627331
  0
LINE
  8
1
  6
CONTINUOUS
 62
6
 10
309.3586496777
 20
269.1060627331
 11
311.8586496777
 21
265.1060627331
  0
POINT
  8
1
  6
CONTINUOUS
 62
6
 10
309.3586496777
 20
267.1060627331
  0
ENDBLK
  8
0
  0
BLOCK
  8
3
  2
LTEX4
 70
     0
 10
134.5962334454
 20
86.7605564293
  3
LTEX4
  0
SOLID
  8
3
  6
CONTINUOUS
 62
5
 10
135.0708243304
 20
84.8176813710
 11
134.0358036791
 21
84.8406818299
 12
134.5962334454
 22
86.7605564293
 13
134.5962334454
 23
86.7605564293
  0
TEXT
  8
3
  6
CONTINUOUS
 62
7
 10
133.340636
 20
31.258654
 40
3.500000
  1
 PBT品はｱｰｽ部(2箇所) 
 41
0.804598
 50
0.000000
 51
0.000000
 72
   5
 73
   0
 11
170.090636
 21
31.258654
  0
TEXT
  8
3
  6
CONTINUOUS
 62
7
 10
133.340636
 20
26.258654
 40
3.500000
  1
%%uは無いです%%u
 41
0.880282
 50
0.000000
 51
0.000000
 72
   5
 73
   0
 11
150.840636
 21
26.258654
  0
LINE
  8
3
  6
BYBLOCK
 62
5
 10
134.5962334454
 20
86.7605564293
 11
133.3406356149
 21
30.2586540591
  0
LINE
  8
3
  6
BYBLOCK
 62
5
 10
133.3406356149
 20
30.2586540591
 11
170.0906356149
 21
30.2586540591
  0
ENDBLK
  8
0
  0
BLOCK
  8
1
  2
S18
 70
     0
 10
137.2868002249
 20
38.5097255163
  3
S18
  0
LINE
  8
1
  6
CONTINUOUS
 62
6
 10
139.7868002249
 20
36.5097255163
 11
134.7868002249
 21
36.5097255163
  0
TEXT
  8
1
  6
CONTINUOUS
 62
6
 10
136.191200
 20
36.131398
 40
3.300000
  1
C
 41
1.328000
 50
0.000000
 51
0.000000
 72
   5
 73
   0
 11
138.382400
 21
36.131398
  0
LINE
  8
1
  6
CONTINUOUS
 62
6
 10
137.2868002249
 20
40.5097255163
 11
134.7868002249
 21
36.5097255163
  0
LINE
  8
1
  6
CONTINUOUS
 62
6
 10
137.2868002249
 20
40.5097255163
 11
139.7868002249
 21
36.5097255163
  0
POINT
  8
1
  6
CONTINUOUS
 62
6
 10
137.2868002249
 20
38.5097255163
  0
ENDBLK
  8
0
  0
BLOCK
  8
3
  2
LTEX5
 70
     0
 10
88.2645106558
 20
17.3439335173
  3
LTEX5
  0
SOLID
  8
3
  6
CONTINUOUS
 62
5
 10
89.9790701192
 20
18.3736353414
 11
90.2642136195
 21
17.3784017236
 12
88.2645106558
 22
17.3439335173
 13
88.2645106558
 23
17.3439335173
  0
TEXT
  8
3
  6
CONTINUOUS
 62
7
 10
133.340636
 20
31.258654
 40
3.500000
  1
 
 41
1.000000
 50
0.000000
 51
0.000000
 72
   5
 73
   0
 11
135.090636
 21
31.258654
  0
LINE
  8
3
  6
BYBLOCK
 62
5
 10
88.2645106558
 20
17.3439335173
 11
133.3406356149
 21
30.2586540591
  0
LINE
  8
3
  6
BYBLOCK
 62
5
 10
133.3406356149
 20
30.2586540591
 11
135.0906356149
 21
30.2586540591
  0
ENDBLK
  8
0
  0
BLOCK
  8
3
  2
LTEX6
 70
     0
 10
39.2645106558
 20
18.7789024664
  3
LTEX6
  0
SOLID
  8
3
  6
CONTINUOUS
 62
5
 10
41.1194376375
 20
19.5267299150
 11
41.2448382684
 21
18.4990765437
 12
39.2645106558
 22
18.7789024664
 13
39.2645106558
 23
18.7789024664
  0
TEXT
  8
3
  6
CONTINUOUS
 62
7
 10
133.340636
 20
31.258654
 40
3.500000
  1
 
 41
1.000000
 50
0.000000
 51
0.000000
 72
   5
 73
   0
 11
135.090636
 21
31.258654
  0
LINE
  8
3
  6
BYBLOCK
 62
5
 10
39.2645106558
 20
18.7789024664
 11
133.3406356149
 21
30.2586540591
  0
LINE
  8
3
  6
BYBLOCK
 62
5
 10
133.3406356149
 20
30.2586540591
 11
135.0906356149
 21
30.2586540591
  0
ENDBLK
  8
0
  0
BLOCK
  8
1
  2
S19
 70
     0
 10
8.5919831057
 20
-94.0041141853
  3
S19
  0
LINE
  8
1
  6
CONTINUOUS
 62
6
 10
11.0919831057
 20
-96.0041141853
 11
6.0919831057
 21
-96.0041141853
  0
TEXT
  8
1
  6
CONTINUOUS
 62
6
 10
7.496383
 20
-96.382442
 40
3.300000
  1
C
 41
1.328000
 50
0.000000
 51
0.000000
 72
   5
 73
   0
 11
9.687583
 21
-96.382442
  0
LINE
  8
1
  6
CONTINUOUS
 62
6
 10
8.5919831057
 20
-92.0041141853
 11
6.0919831057
 21
-96.0041141853
  0
LINE
  8
1
  6
CONTINUOUS
 62
6
 10
8.5919831057
 20
-92.0041141853
 11
11.0919831057
 21
-96.0041141853
  0
POINT
  8
1
  6
CONTINUOUS
 62
6
 10
8.5919831057
 20
-94.0041141853
  0
ENDBLK
  8
0
  0
ENDSEC
  0
SECTION
  2
ENTITIES
  0
LINE
  8
1
  6
CONTINUOUS
 62
7
 10
95.7645106558
 20
65.6025214537
 11
95.7645106558
 21
209.4775214537
  0
LINE
  8
1
  6
CONTINUOUS
 62
7
 10
28.7645106558
 20
209.4775214537
 11
28.7645106558
 21
65.6025214537
  0
LINE
  8
1
  6
CONTINUOUS
 62
7
 10
96.7645106558
 20
64.6025214537
 11
96.7645106558
 21
220.1025214537
  0
LINE
  8
1
  6
CONTINUOUS
 62
7
 10
27.7645106558
 20
220.1025214537
 11
27.7645106558
 21
64.6025214537
  0
LINE
  8
1
  6
DASHDOT
 62
1
 10
101.7645106558
 20
213.1025214537
 11
22.7645106558
 21
213.1025214537
  0
LINE
  8
1
  6
CONTINUOUS
 62
7
 10
96.7645106558
 20
64.6025214537
 11
76.7270138153
 21
64.6025214537
  0
LINE
  8
1
  6
CONTINUOUS
 62
7
 10
47.8020074964
 20
64.6025214537
 11
27.7645106558
 21
64.6025214537
  0
LINE
  8
1
  6
CONTINUOUS
 62
7
 10
28.7645106558
 20
65.6025214537
 11
45.5659395189
 21
65.6025214537
  0
LINE
  8
1
  6
CONTINUOUS
 62
7
 10
78.9630817928
 20
65.6025214537
 11
95.7645106558
 21
65.6025214537
  0
LINE
  8
1
  6
CONTINUOUS
 62
7
 10
124.4661466639
 20
207.1025214537
 11
124.4661466639
 21
65.6025214537
  0
CIRCLE
  8
1
  6
CONTINUOUS
 62
7
 10
121.4661466639
 20
213.1025214537
 40
2.0000000000
  0
ARC
  8
1
  6
CONTINUOUS
 62
7
 10
121.4661466639
 20
213.1025214537
 40
6.0000000000
 50
90.0000000000
 51
270.0000000000
  0
LINE
  8
1
  6
CONTINUOUS
 62
7
 10
124.4661466639
 20
207.1025214537
 11
121.4661466639
 21
207.1025214537
  0
LINE
  8
1
  6
CONTINUOUS
 62
7
 10
124.4661466639
 20
219.1025214537
 11
121.4661466639
 21
219.1025214537
  0
LINE
  8
1
  6
CONTINUOUS
 62
7
 10
133.4661466639
 20
220.1025214537
 11
133.4661466639
 21
64.6025214537
  0
LINE
  8
1
  6
CONTINUOUS
 62
7
 10
28.7645106558
 20
207.1025214537
 11
28.7645106558
 21
219.1025214537
  0
LINE
  8
1
  6
CONTINUOUS
 62
7
 10
28.7645106558
 20
219.1025214537
 11
33.7645106558
 21
219.1025214537
  0
LINE
  8
1
  6
CONTINUOUS
 62
7
 10
33.7645106558
 20
219.1025214537
 11
33.7645106558
 21
207.1025214537
  0
LINE
  8
1
  6
CONTINUOUS
 62
7
 10
33.7645106558
 20
207.1025214537
 11
28.7645106558
 21
207.1025214537
  0
LINE
  8
1
  6
CONTINUOUS
 62
7
 10
95.7645106558
 20
219.1025214537
 11
90.7645106558
 21
219.1025214537
  0
LINE
  8
1
  6
CONTINUOUS
 62
7
 10
90.7645106558
 20
219.1025214537
 11
90.7645106558
 21
207.1025214537
  0
LINE
  8
1
  6
CONTINUOUS
 62
7
 10
90.7645106558
 20
207.1025214537
 11
95.7645106558
 21
207.1025214537
  0
LINE
  8
1
  6
CONTINUOUS
 62
7
 10
95.7645106558
 20
207.1025214537
 11
95.7645106558
 21
219.1025214537
  0
LINE
  8
1
  6
CONTINUOUS
 62
7
 10
90.7645106558
 20
207.1025214537
 11
90.7645106558
 21
206.1025214537
  0
LINE
  8
1
  6
CONTINUOUS
 62
7
 10
33.7645106558
 20
206.1025214537
 11
33.7645106558
 21
207.1025214537
  0
LINE
  8
1
  6
CONTINUOUS
 62
7
 10
96.7645106558
 20
220.1025214537
 11
27.7645106558
 21
220.1025214537
  0
LINE
  8
1
  6
CONTINUOUS
 62
7
 10
96.7645106558
 20
21.2716424853
 11
27.7645106558
 21
21.2716424853
  0
LINE
  8
1
  6
CONTINUOUS
 62
7
 10
28.7645106558
 20
30.2716424853
 11
95.7645106558
 21
30.2716424853
  0
LINE
  8
1
  6
CONTINUOUS
 62
7
 10
133.4661466639
 20
64.6025214537
 11
124.4661466639
 21
65.6025214537
  0
LINE
  8
1
  6
CONTINUOUS
 62
7
 10
133.4661466639
 20
220.1025214537
 11
124.4661466639
 21
219.1025214537
  0
LINE
  8
1
  6
CONTINUOUS
 62
7
 10
28.7645106558
 20
30.2716424853
 11
27.7645106558
 21
21.2716424853
  0
LINE
  8
1
  6
CONTINUOUS
 62
7
 10
95.7645106558
 20
30.2716424853
 11
96.7645106558
 21
21.2716424853
  0
LINE
  8
1
  6
HIDDEN
 62
7
 10
124.4661466639
 20
206.1025214537
 11
127.9661466639
 21
206.1025214537
  0
LINE
  8
1
  6
HIDDEN
 62
7
 10
127.9661466639
 20
206.1025214537
 11
127.9661466639
 21
219.4914103426
  0
LINE
  8
1
  6
HIDDEN
 62
7
 10
34.7645106558
 20
27.2716424853
 11
34.7645106558
 21
30.2716424853
  0
LINE
  8
1
  6
HIDDEN
 62
7
 10
89.7645106558
 20
27.2716424852
 11
34.7645106558
 21
27.2716424853
  0
LINE
  8
1
  6
HIDDEN
 62
7
 10
89.7645106558
 20
27.2716424853
 11
89.7645106558
 21
30.2716424853
  0
LINE
  8
1
  6
HIDDEN
 62
7
 10
85.5145106558
 20
27.2716424852
 11
85.5145106558
 21
23.2716424852
  0
LINE
  8
1
  6
HIDDEN
 62
7
 10
85.5145106558
 20
23.2716424852
 11
84.0145106559
 21
23.2716424852
  0
LINE
  8
1
  6
HIDDEN
 62
7
 10
80.5145106559
 20
23.2716424852
 11
79.0145106558
 21
23.2716424852
  0
LINE
  8
1
  6
HIDDEN
 62
7
 10
79.0145106558
 20
23.2716424852
 11
79.0145106558
 21
27.2716424852
  0
LINE
  8
1
  6
HIDDEN
 62
7
 10
80.5145106559
 20
23.2716424852
 11
80.5145106556
 21
21.2716424852
  0
LINE
  8
1
  6
HIDDEN
 62
7
 10
84.0145106559
 20
23.2716424852
 11
84.0145106558
 21
21.2716424852
  0
LINE
  8
1
  6
HIDDEN
 62
7
 10
39.0145106558
 20
27.2716424852
 11
39.0145106558
 21
23.2716424852
  0
LINE
  8
1
  6
HIDDEN
 62
7
 10
39.0145106558
 20
23.2716424852
 11
40.5145106558
 21
23.2716424852
  0
LINE
  8
1
  6
HIDDEN
 62
7
 10
44.0145106558
 20
23.2716424852
 11
45.5145106558
 21
23.2716424852
  0
LINE
  8
1
  6
HIDDEN
 62
7
 10
45.5145106558
 20
23.2716424852
 11
45.5145106558
 21
27.2716424852
  0
LINE
  8
1
  6
HIDDEN
 62
7
 10
44.0145106558
 20
23.2716424852
 11
44.0145106561
 21
21.2716424852
  0
LINE
  8
1
  6
HIDDEN
 62
7
 10
40.5145106558
 20
23.2716424852
 11
40.5145106559
 21
21.2716424852
  0
LINE
  8
1
  6
HIDDEN
 62
7
 10
60.2645106558
 20
27.2716424853
 11
60.2645106558
 21
21.2716424852
  0
LINE
  8
1
  6
HIDDEN
 62
7
 10
64.2645106558
 20
27.2716424853
 11
64.2645106558
 21
21.2716424852
  0
LINE
  8
1
  6
HIDDEN
 62
7
 10
63.9145106558
 20
27.2716424853
 11
63.9145106558
 21
21.2716424852
  0
LINE
  8
1
  6
HIDDEN
 62
7
 10
60.6145106558
 20
27.2716424853
 11
60.6145106558
 21
21.2716424852
  0
LINE
  8
1
  6
HIDDEN
 62
7
 10
124.4661466639
 20
201.1025214537
 11
127.9661466639
 21
201.1025214537
  0
LINE
  8
1
  6
HIDDEN
 62
7
 10
127.9661466639
 20
200.4775214537
 11
127.9661466639
 21
76.6025214537
  0
LINE
  8
1
  6
HIDDEN
 62
7
 10
127.9661466639
 20
76.6025214537
 11
124.4661466639
 21
76.6025214537
  0
LINE
  8
1
  6
HIDDEN
 62
7
 10
127.9661466639
 20
85.3525214537
 11
133.4661466639
 21
85.3525214537
  0
LINE
  8
1
  6
HIDDEN
 62
7
 10
127.9661466639
 20
192.3525214537
 11
133.4661466639
 21
192.3525214537
  0
LINE
  8
1
  6
HIDDEN
 62
7
 10
127.9661466639
 20
83.6025214537
 11
131.9661466639
 21
83.6025214537
  0
LINE
  8
1
  6
HIDDEN
 62
7
 10
131.9661466639
 20
83.6025214537
 11
131.9661466639
 21
82.1025214537
  0
LINE
  8
1
  6
HIDDEN
 62
7
 10
131.9661466639
 20
78.6025214537
 11
131.9661466639
 21
77.1025214537
  0
LINE
  8
1
  6
HIDDEN
 62
7
 10
131.9661466639
 20
77.1025214537
 11
127.9661466639
 21
77.1025214537
  0
LINE
  8
1
  6
HIDDEN
 62
7
 10
131.9661466639
 20
78.6025214537
 11
133.4661466639
 21
78.6025214535
  0
LINE
  8
1
  6
HIDDEN
 62
7
 10
131.9661466639
 20
82.1025214537
 11
133.4661466639
 21
82.1025214648
  0
LINE
  8
1
  6
HIDDEN
 62
7
 10
127.9661466639
 20
194.1025214537
 11
131.9661466639
 21
194.1025214537
  0
LINE
  8
1
  6
HIDDEN
 62
7
 10
131.9661466639
 20
194.1025214537
 11
131.9661466639
 21
195.6025214537
  0
LINE
  8
1
  6
HIDDEN
 62
7
 10
131.9661466639
 20
199.1025214537
 11
131.9661466639
 21
200.6025214537
  0
LINE
  8
1
  6
HIDDEN
 62
7
 10
131.9661466639
 20
200.6025214537
 11
127.9661466639
 21
200.6025214537
  0
LINE
  8
1
  6
HIDDEN
 62
7
 10
131.9661466639
 20
199.1025214537
 11
133.4661466639
 21
199.1025214539
  0
LINE
  8
1
  6
HIDDEN
 62
7
 10
131.9661466639
 20
195.6025214537
 11
133.4661466639
 21
195.6025214425
  0
ARC
  8
2
  6
HIDDEN
 62
5
 10
121.4661466639
 20
213.1025214537
 40
6.0000000000
 50
294.6243183522
 51
164.1092389898
  0
LINE
  8
2
  6
HIDDEN
 62
5
 10
123.9661466639
 20
207.6481653964
 11
123.9661466639
 21
207.1025214537
  0
LINE
  8
2
  6
CONTINUOUS
 62
5
 10
123.9661466639
 20
207.1025214537
 11
123.9661466639
 21
65.6025214537
  0
LINE
  8
2
  6
CONTINUOUS
 62
5
 10
115.8202125868
 20
65.6025214537
 11
123.9661466639
 21
65.6025214537
  0
LINE
  8
2
  6
CONTINUOUS
 62
5
 10
109.4661466639
 20
61.6025214537
 11
109.4661466639
 21
192.4775214537
  0
LINE
  8
2
  6
CONTINUOUS
 62
5
 10
123.9661466639
 20
206.1025214537
 11
113.2892089437
 21
206.1025214537
  0
CIRCLE
  8
2
  6
CONTINUOUS
 62
5
 10
121.4661466639
 20
213.1025214537
 40
2.0000000000
  0
LINE
  8
2
  6
CONTINUOUS
 62
5
 10
29.7645106558
 20
206.1025214537
 11
33.9645106558
 21
206.1025214537
  0
LINE
  8
2
  6
CONTINUOUS
 62
5
 10
33.9645106558
 20
206.1025214537
 11
33.9645106558
 21
219.1025214537
  0
LINE
  8
2
  6
CONTINUOUS
 62
5
 10
33.9645106558
 20
219.1025214537
 11
90.5645106558
 21
219.1025214537
  0
LINE
  8
2
  6
CONTINUOUS
 62
5
 10
90.5645106558
 20
219.1025214537
 11
90.5645106558
 21
206.1025214537
  0
LINE
  8
2
  6
CONTINUOUS
 62
5
 10
90.5645106558
 20
206.1025214537
 11
94.7645106558
 21
206.1025214537
  0
LINE
  8
2
  6
CONTINUOUS
 62
5
 10
94.7645106558
 20
206.1025214537
 11
94.7645106558
 21
65.6025214537
  0
LINE
  8
2
  6
CONTINUOUS
 62
5
 10
78.9630817928
 20
65.6025214537
 11
94.7645106558
 21
65.6025214537
  0
LINE
  8
2
  6
CONTINUOUS
 62
5
 10
45.5659395189
 20
65.6025214537
 11
29.7645106558
 21
65.6025214537
  0
LINE
  8
2
  6
CONTINUOUS
 62
5
 10
29.7645106558
 20
65.6025214537
 11
29.7645106558
 21
206.1025214537
  0
LINE
  8
2
  6
CONTINUOUS
 62
5
 10
49.3906030156
 20
62.0590341874
 11
48.1384182961
 21
64.1460087200
  0
LINE
  8
2
  6
CONTINUOUS
 62
5
 10
72.5659395189
 20
60.6025214537
 11
51.9630817928
 21
60.6025214537
  0
ARC
  8
2
  6
CONTINUOUS
 62
5
 10
45.5659395189
 20
62.6025214537
 40
3.0000000000
 50
30.9637565321
 51
90.0000000000
  0
ARC
  8
2
  6
CONTINUOUS
 62
5
 10
51.9630817928
 20
63.6025214537
 40
3.0000000000
 50
210.9637565321
 51
270.0000000000
  0
LINE
  8
2
  6
CONTINUOUS
 62
5
 10
75.1384182961
 20
62.0590341874
 11
76.3906030156
 21
64.1460087200
  0
ARC
  8
2
  6
CONTINUOUS
 62
5
 10
78.9630817928
 20
62.6025214537
 40
3.0000000000
 50
90.0000000000
 51
149.0362434679
  0
ARC
  8
2
  6
CONTINUOUS
 62
5
 10
72.5659395189
 20
63.6025214537
 40
3.0000000000
 50
270.0000000000
 51
329.0362434679
  0
LINE
  8
2
  6
HIDDEN
 62
5
 10
109.4661466639
 20
70.7525214537
 11
111.4661466639
 21
70.7525214537
  0
LINE
  8
2
  6
HIDDEN
 62
5
 10
111.4661466639
 20
71.1025214537
 11
109.4661466639
 21
71.1025214537
  0
LINE
  8
2
  6
HIDDEN
 62
5
 10
111.4661466639
 20
71.3525214537
 11
123.9661466639
 21
71.3525214537
  0
LINE
  8
2
  6
HIDDEN
 62
5
 10
109.4661466639
 20
67.4525214537
 11
111.4661466639
 21
67.4525214537
  0
LINE
  8
2
  6
HIDDEN
 62
5
 10
111.4661466639
 20
67.1025214537
 11
109.4661466639
 21
67.1025214537
  0
LINE
  8
2
  6
HIDDEN
 62
5
 10
111.4661466639
 20
66.8525214537
 11
123.9661466639
 21
66.8525214537
  0
LINE
  8
2
  6
HIDDEN
 62
5
 10
111.4661466639
 20
71.3525214537
 11
111.4661466639
 21
66.8525214537
  0
LINE
  8
1
  6
HIDDEN
 62
7
 10
124.4661466639
 20
71.1025214537
 11
133.4661466639
 21
71.1025214537
  0
LINE
  8
1
  6
HIDDEN
 62
7
 10
124.4661466639
 20
70.7525214537
 11
133.4661466639
 21
70.7525214537
  0
LINE
  8
1
  6
HIDDEN
 62
7
 10
124.4661466639
 20
67.4525214537
 11
133.4661466639
 21
67.4525214537
  0
LINE
  8
1
  6
HIDDEN
 62
7
 10
124.4661466639
 20
67.1025214537
 11
133.4661466639
 21
67.1025214537
  0
LINE
  8
2
  6
CONTINUOUS
 62
5
 10
113.9632592050
 20
64.3453028064
 11
112.7175903934
 21
61.2311307773
  0
LINE
  8
2
  6
CONTINUOUS
 62
5
 10
111.7891137025
 20
60.6025214537
 11
110.4661466639
 21
60.6025214537
  0
LINE
  8
2
  6
CONTINUOUS
 62
5
 10
36.2645106558
 20
45.2716424853
 11
88.2645106558
 21
45.2716424853
  0
LINE
  8
2
  6
CONTINUOUS
 62
5
 10
94.7645106558
 20
37.2716424853
 11
94.7645106558
 21
30.7716424853
  0
LINE
  8
2
  6
CONTINUOUS
 62
5
 10
94.7645106558
 20
30.7716424853
 11
29.7645106558
 21
30.7716424853
  0
LINE
  8
2
  6
CONTINUOUS
 62
5
 10
29.7645106558
 20
30.7716424853
 11
29.7645106558
 21
37.2716424853
  0
LINE
  8
2
  6
CONTINUOUS
 62
5
 10
94.7645106558
 20
37.2716424853
 11
88.2645106558
 21
45.2716424853
  0
LINE
  8
2
  6
CONTINUOUS
 62
5
 10
36.2645106558
 20
45.2716424853
 11
29.7645106558
 21
37.2716424853
  0
LINE
  8
2
  6
CONTINUOUS
 62
5
 10
33.8539337328
 20
206.1025214537
 11
36.2645106558
 21
192.4775214537
  0
LINE
  8
2
  6
CONTINUOUS
 62
5
 10
36.2645106558
 20
192.4775214537
 11
88.2645106558
 21
192.4775214537
  0
LINE
  8
2
  6
CONTINUOUS
 62
5
 10
88.2645106558
 20
192.4775214537
 11
90.6750875789
 21
206.1025214537
  0
LINE
  8
2
  6
CONTINUOUS
 62
5
 10
88.2645106558
 20
192.4775214537
 11
88.2645106558
 21
65.6025214537
  0
LINE
  8
2
  6
CONTINUOUS
 62
5
 10
36.2645106558
 20
65.6025214537
 11
36.2645106558
 21
192.4775214537
  0
LINE
  8
2
  6
CONTINUOUS
 62
5
 10
45.5659395189
 20
45.2716424853
 11
45.5659395189
 21
40.2716424853
  0
LINE
  8
2
  6
CONTINUOUS
 62
5
 10
45.5659395189
 20
40.2716424853
 11
51.9630817928
 21
42.2716424853
  0
LINE
  8
2
  6
CONTINUOUS
 62
5
 10
51.9630817928
 20
42.2716424853
 11
72.5659395189
 21
42.2716424853
  0
LINE
  8
2
  6
CONTINUOUS
 62
5
 10
72.5659395189
 20
42.2716424853
 11
78.9630817928
 21
40.2716424853
  0
LINE
  8
2
  6
CONTINUOUS
 62
5
 10
78.9630817928
 20
40.2716424853
 11
78.9630817928
 21
45.2716424853
  0
LINE
  8
2
  6
CONTINUOUS
 62
5
 10
51.9630817928
 20
45.2716424853
 11
51.9630817928
 21
42.2716424853
  0
LINE
  8
2
  6
CONTINUOUS
 62
5
 10
72.5659395189
 20
45.2716424853
 11
72.5659395189
 21
42.2716424853
  0
LINE
  8
2
  6
CONTINUOUS
 62
5
 10
45.5659395189
 20
40.2716424853
 11
78.9630817928
 21
40.2716424853
  0
ARC
  8
2
  6
CONTINUOUS
 62
5
 10
110.4661466639
 20
61.6025214537
 40
1.0000000000
 50
180.0000000000
 51
270.0000000000
  0
ARC
  8
2
  6
CONTINUOUS
 62
5
 10
111.7891137025
 20
61.6025214537
 40
1.0000000000
 50
270.0000000000
 51
338.1985905136
  0
ARC
  8
2
  6
CONTINUOUS
 62
5
 10
115.8202125868
 20
63.6025214537
 40
2.0000000000
 50
90.0000000000
 51
158.1985905136
  0
LINE
  8
1
  6
CONTINUOUS
 62
7
 10
96.7645106558
 20
21.2716424853
 11
27.7645106558
 21
21.2716424853
  0
LINE
  8
2
  6
CONTINUOUS
 62
5
 10
124.9661466639
 20
204.3525214537
 11
123.9661466639
 21
204.3525214537
  0
LINE
  8
2
  6
CONTINUOUS
 62
5
 10
124.9661466639
 20
204.3525214537
 11
124.9661466639
 21
203.8525214537
  0
LINE
  8
2
  6
CONTINUOUS
 62
5
 10
124.9661466639
 20
203.8525214537
 11
123.9661466639
 21
203.8525214537
  0
LINE
  8
2
  6
HIDDEN
 62
5
 10
123.9661466639
 20
203.8525214537
 11
114.7351177630
 21
203.8525214537
  0
LINE
  8
2
  6
CONTINUOUS
 62
5
 10
123.9661466639
 20
73.3525214537
 11
124.9661466639
 21
73.3525214537
  0
LINE
  8
2
  6
CONTINUOUS
 62
5
 10
124.9661466639
 20
73.3525214537
 11
124.9661466639
 21
73.8525214537
  0
LINE
  8
2
  6
CONTINUOUS
 62
5
 10
124.9661466639
 20
73.8525214537
 11
123.9661466639
 21
73.8525214537
  0
LINE
  8
2
  6
HIDDEN
 62
5
 10
123.9661466639
 20
73.8525214537
 11
111.4661466639
 21
73.8525214537
  0
LINE
  8
1
  6
CONTINUOUS
 62
7
 10
219.9105182328
 20
201.1025214537
 11
167.9105182328
 21
201.1025214537
  0
LINE
  8
1
  6
CONTINUOUS
 62
7
 10
221.4105182328
 20
78.1025214537
 11
221.4105182328
 21
199.6025214537
  0
LINE
  8
1
  6
CONTINUOUS
 62
7
 10
167.9105182328
 20
76.6025214537
 11
219.9105182328
 21
76.6025214537
  0
LINE
  8
1
  6
CONTINUOUS
 62
7
 10
166.4105182328
 20
78.1025214537
 11
166.4105182328
 21
199.6025214537
  0
LINE
  8
1
  6
CONTINUOUS
 62
7
 10
223.4105182328
 20
75.6025214537
 11
223.4105182328
 21
202.1025214537
  0
LINE
  8
1
  6
CONTINUOUS
 62
7
 10
222.4105182328
 20
203.1025214537
 11
165.4105182328
 21
203.1025214537
  0
LINE
  8
1
  6
CONTINUOUS
 62
7
 10
164.4105182328
 20
75.6025214537
 11
164.4105182328
 21
202.1025214537
  0
LINE
  8
1
  6
CONTINUOUS
 62
7
 10
165.4105182328
 20
74.6025214537
 11
222.4105182328
 21
74.6025214537
  0
ARC
  8
1
  6
CONTINUOUS
 62
7
 10
167.9105182328
 20
199.6025214537
 40
1.5000000000
 50
90.0000000000
 51
180.0000000000
  0
ARC
  8
1
  6
CONTINUOUS
 62
7
 10
219.9105182328
 20
199.6025214537
 40
1.5000000000
 50
0.0000000000
 51
90.0000000000
  0
ARC
  8
1
  6
CONTINUOUS
 62
7
 10
219.9105182328
 20
78.1025214537
 40
1.5000000000
 50
270.0000000000
 51
0.0000000000
  0
ARC
  8
1
  6
CONTINUOUS
 62
7
 10
167.9105182328
 20
78.1025214537
 40
1.5000000000
 50
180.0000000000
 51
270.0000000000
  0
CIRCLE
  8
1
  6
HIDDEN
 62
3
 10
173.9105182328
 20
197.3525214537
 40
1.7500000000
  0
CIRCLE
  8
1
  6
HIDDEN
 62
3
 10
173.9105182328
 20
197.3525214537
 40
3.2500000000
  0
CIRCLE
  8
1
  6
HIDDEN
 62
3
 10
213.9105182328
 20
197.3525214537
 40
1.7500000000
  0
CIRCLE
  8
1
  6
HIDDEN
 62
3
 10
213.9105182328
 20
197.3525214537
 40
3.2500000000
  0
LINE
  8
1
  6
HIDDEN
 62
3
 10
216.9105182328
 20
192.3525214537
 11
219.9105182328
 21
192.3525214537
  0
LINE
  8
1
  6
HIDDEN
 62
3
 10
168.9105182328
 20
192.3525214537
 11
216.9105182328
 21
192.3525214537
  0
CIRCLE
  8
1
  6
HIDDEN
 62
3
 10
173.9105182328
 20
80.3525214537
 40
1.7500000000
  0
CIRCLE
  8
1
  6
HIDDEN
 62
3
 10
173.9105182328
 20
80.3525214537
 40
3.2500000000
  0
CIRCLE
  8
1
  6
HIDDEN
 62
3
 10
213.9105182328
 20
80.3525214537
 40
1.7500000000
  0
CIRCLE
  8
1
  6
HIDDEN
 62
3
 10
213.9105182328
 20
80.3525214537
 40
3.2500000000
  0
CIRCLE
  8
1
  6
HIDDEN
 62
3
 10
193.9105182328
 20
197.3525214537
 40
2.0000000000
  0
LINE
  8
1
  6
CONTINUOUS
 62
7
 10
225.4105182328
 20
75.6025214537
 11
225.4105182328
 21
202.1025214537
  0
LINE
  8
1
  6
CONTINUOUS
 62
7
 10
222.4105182328
 20
205.1025214537
 11
165.4105182328
 21
205.1025214537
  0
LINE
  8
1
  6
CONTINUOUS
 62
7
 10
162.4105182328
 20
75.6025214537
 11
162.4105182328
 21
202.1025214537
  0
LINE
  8
1
  6
CONTINUOUS
 62
7
 10
165.4105182328
 20
72.6025214537
 11
222.4105182328
 21
72.6025214537
  0
LINE
  8
1
  6
CONTINUOUS
 62
7
 10
227.4105182328
 20
65.6025214537
 11
227.4105182328
 21
209.4775214537
  0
LINE
  8
1
  6
CONTINUOUS
 62
7
 10
160.4105182328
 20
209.4775214537
 11
160.4105182328
 21
65.6025214537
  0
LINE
  8
1
  6
CONTINUOUS
 62
7
 10
228.4105182328
 20
64.6025214537
 11
228.4105182328
 21
220.1025214537
  0
LINE
  8
1
  6
CONTINUOUS
 62
7
 10
159.4105182328
 20
220.1025214537
 11
159.4105182328
 21
64.6025214537
  0
ARC
  8
1
  6
CONTINUOUS
 62
7
 10
165.4105182328
 20
202.1025214537
 40
1.0000000000
 50
90.0000000000
 51
180.0000000000
  0
ARC
  8
1
  6
CONTINUOUS
 62
7
 10
222.4105182328
 20
202.1025214537
 40
1.0000000000
 50
0.0000000000
 51
90.0000000000
  0
ARC
  8
1
  6
CONTINUOUS
 62
7
 10
222.4105182328
 20
75.6025214537
 40
1.0000000000
 50
270.0000000000
 51
0.0000000000
  0
ARC
  8
1
  6
CONTINUOUS
 62
7
 10
165.4105182328
 20
75.6025214537
 40
1.0000000000
 50
180.0000000000
 51
270.0000000000
  0
LINE
  8
1
  6
HIDDEN
 62
3
 10
219.9105182328
 20
182.3525214537
 11
219.9105182328
 21
192.3525214537
  0
ARC
  8
1
  6
CONTINUOUS
 62
7
 10
165.4105182328
 20
202.1025214537
 40
3.0000000000
 50
90.0000000000
 51
180.0000000000
  0
ARC
  8
1
  6
CONTINUOUS
 62
7
 10
222.4105182328
 20
202.1025214537
 40
3.0000000000
 50
0.0000000000
 51
90.0000000000
  0
ARC
  8
1
  6
CONTINUOUS
 62
7
 10
222.4105182328
 20
75.6025214537
 40
3.0000000000
 50
270.0000000000
 51
0.0000000000
  0
ARC
  8
1
  6
CONTINUOUS
 62
7
 10
165.4105182328
 20
75.6025214537
 40
3.0000000000
 50
180.0000000000
 51
270.0000000000
  0
LINE
  8
1
  6
DASHDOT
 62
1
 10
230.4105182328
 20
213.1025214537
 11
157.4105182328
 21
213.1025214537
  0
LINE
  8
1
  6
CONTINUOUS
 62
7
 10
228.4105182328
 20
64.6025214537
 11
159.4105182328
 21
64.6025214537
  0
LINE
  8
1
  6
CONTINUOUS
 62
7
 10
160.4105182328
 20
65.6025214537
 11
227.4105182328
 21
65.6025214537
  0
LINE
  8
1
  6
CONTINUOUS
 62
7
 10
160.4105182328
 20
207.1025214537
 11
160.4105182328
 21
219.1025214537
  0
LINE
  8
1
  6
CONTINUOUS
 62
7
 10
160.4105182328
 20
219.1025214537
 11
165.4105182328
 21
219.1025214537
  0
LINE
  8
1
  6
CONTINUOUS
 62
7
 10
165.4105182328
 20
219.1025214537
 11
165.4105182328
 21
207.1025214537
  0
LINE
  8
1
  6
CONTINUOUS
 62
7
 10
165.4105182328
 20
207.1025214537
 11
160.4105182328
 21
207.1025214537
  0
LINE
  8
1
  6
CONTINUOUS
 62
7
 10
227.4105182328
 20
219.1025214537
 11
222.4105182328
 21
219.1025214537
  0
LINE
  8
1
  6
CONTINUOUS
 62
7
 10
222.4105182328
 20
219.1025214537
 11
222.4105182328
 21
207.1025214537
  0
LINE
  8
1
  6
CONTINUOUS
 62
7
 10
222.4105182328
 20
207.1025214537
 11
227.4105182328
 21
207.1025214537
  0
LINE
  8
1
  6
CONTINUOUS
 62
7
 10
227.4105182328
 20
207.1025214537
 11
227.4105182328
 21
219.1025214537
  0
LINE
  8
1
  6
CONTINUOUS
 62
7
 10
222.4105182328
 20
207.1025214537
 11
222.4105182328
 21
206.1025214537
  0
LINE
  8
1
  6
CONTINUOUS
 62
7
 10
222.4105182328
 20
206.1025214537
 11
165.4105182328
 21
206.1025214537
  0
LINE
  8
1
  6
CONTINUOUS
 62
7
 10
165.4105182328
 20
206.1025214537
 11
165.4105182328
 21
207.1025214537
  0
LINE
  8
1
  6
CONTINUOUS
 62
7
 10
228.4105182328
 20
220.1025214537
 11
159.4105182328
 21
220.1025214537
  0
CIRCLE
  8
1
  6
HIDDEN
 62
3
 10
193.9105182328
 20
197.3525214537
 40
1.6500000000
  0
CIRCLE
  8
1
  6
HIDDEN
 62
3
 10
193.9105182328
 20
80.3525214537
 40
2.0000000000
  0
CIRCLE
  8
1
  6
HIDDEN
 62
3
 10
193.9105182328
 20
80.3525214537
 40
1.6500000000
  0
CIRCLE
  8
1
  6
HIDDEN
 62
7
 10
193.9105182328
 20
69.1025214537
 40
2.0000000000
  0
CIRCLE
  8
1
  6
CONTINUOUS
 62
7
 10
193.9105182328
 20
69.1025214537
 40
1.6500000000
  0
INSERT
  8
5
  6
CONTINUOUS
 62
7
  2
S0
 10
0.0000000000
 20
0.0000000000
  0
TEXT
  8
5
  6
CONTINUOUS
 62
7
 10
349.684277
 20
5.000000
 40
6.000000
  1
M0051A056C
 41
0.765697
 50
0.000000
 51
0.000000
 72
   5
 73
   0
 11
379.684277
 21
5.000000
  0
TEXT
  8
5
  6
CONTINUOUS
 62
7
 10
293.500000
 20
10.750000
 40
3.000000
  1
Yamada
 41
0.779221
 50
0.000000
 51
0.000000
 72
   5
 73
   0
 11
302.500000
 21
10.750000
  0
TEXT
  8
5
  6
CONTINUOUS
 62
7
 10
304.500000
 20
10.750000
 40
3.000000
  1
Yamada
 41
0.779221
 50
0.000000
 51
0.000000
 72
   5
 73
   0
 11
313.500000
 21
10.750000
  0
TEXT
  8
1
  6
CONTINUOUS
 62
7
 10
178.408984
 20
56.344007
 40
4.000000
  1
内 部 図
 41
0.854701
 50
0.000000
 51
0.000000
 72
   5
 73
   0
 11
194.408984
 21
56.344007
  0
DIMENSION
  8
1
  6
CONTINUOUS
 62
5
  2
*D0
 10
111.4661466639
 20
98.7193009011
 11
119.7161466639
 21
101.4693009011
  70
0
 13
127.9661466639
 23
93.8244525436
 14
111.4661466639
 24
93.8244525436
 50
0.000000
  0
CIRCLE
  8
1
  6
CONTINUOUS
 62
5
 10
137.4661466639
 20
187.3525214537
 40
2.0000000000
  0
LINE
  8
1
  6
CONTINUOUS
 62
5
 10
135.9661466638
 20
187.3525214537
 11
138.9661466638
 21
187.3525214537
  0
LINE
  8
1
  6
CONTINUOUS
 62
5
 10
136.4661466638
 20
186.6025214537
 11
138.4661466638
 21
186.6025214537
  0
LINE
  8
1
  6
CONTINUOUS
 62
5
 10
136.9661466638
 20
185.8525214537
 11
137.9661466638
 21
185.8525214537
  0
LINE
  8
1
  6
CONTINUOUS
 62
5
 10
137.4661466639
 20
187.3525214537
 11
137.4661466638
 21
188.8525214537
  0
LINE
  8
1
  6
HIDDEN
 62
3
 10
219.9105182328
 20
182.3525214537
 11
216.9105182328
 21
182.3525214537
  0
LINE
  8
1
  6
HIDDEN
 62
3
 10
216.9105182328
 20
182.3525214537
 11
216.9105182328
 21
192.3525214537
  0
LINE
  8
1
  6
CONTINUOUS
 62
7
 10
133.4661466639
 20
192.3525214537
 11
148.4661466639
 21
192.3525214537
  0
LINE
  8
1
  6
CONTINUOUS
 62
7
 10
148.4661466639
 20
192.3525214537
 11
148.4661466639
 21
182.3525214537
  0
LINE
  8
1
  6
CONTINUOUS
 62
7
 10
148.4661466639
 20
182.3525214537
 11
133.4661466639
 21
182.3525214537
  0
CIRCLE
  8
1
  6
CONTINUOUS
 62
7
 10
143.4661466639
 20
187.3525214537
 40
2.0000000000
  0
CIRCLE
  8
1
  6
HIDDEN
 62
7
 10
143.4661466639
 20
187.3525214537
 40
2.5000000000
  0
CIRCLE
  8
1
  6
HIDDEN
 62
5
 10
137.4661466639
 20
90.3525214537
 40
2.0000000000
  0
LINE
  8
1
  6
HIDDEN
 62
5
 10
135.9661466638
 20
90.3525214537
 11
138.9661466638
 21
90.3525214537
  0
LINE
  8
1
  6
HIDDEN
 62
5
 10
136.4661466638
 20
89.6025214537
 11
138.4661466638
 21
89.6025214537
  0
LINE
  8
1
  6
HIDDEN
 62
5
 10
136.9661466638
 20
88.8525214537
 11
137.9661466638
 21
88.8525214537
  0
LINE
  8
1
  6
HIDDEN
 62
5
 10
137.4661466639
 20
90.3525214537
 11
137.4661466638
 21
91.8525214537
  0
LINE
  8
1
  6
CONTINUOUS
 62
7
 10
133.4661466639
 20
95.3525214537
 11
148.4661466639
 21
95.3525214537
  0
LINE
  8
1
  6
CONTINUOUS
 62
7
 10
148.4661466639
 20
95.3525214537
 11
148.4661466639
 21
85.3525214537
  0
LINE
  8
1
  6
CONTINUOUS
 62
7
 10
148.4661466639
 20
85.3525214537
 11
133.4661466639
 21
85.3525214537
  0
CIRCLE
  8
1
  6
CONTINUOUS
 62
7
 10
143.4661466639
 20
90.3525214537
 40
2.0000000000
  0
CIRCLE
  8
1
  6
HIDDEN
 62
7
 10
143.4661466639
 20
90.3525214537
 40
2.5000000000
  0
DIMENSION
  8
1
  6
CONTINUOUS
 62
5
  2
*D1
 10
20.9779016700
 20
30.2716424853
 11
18.2279016700
 21
25.7716424853
  70
0
 13
27.7645106558
 23
21.2716424853
 14
28.7645106558
 24
30.2716424853
 50
90.000000
  0
DIMENSION
  8
1
  6
CONTINUOUS
 62
5
  2
*D2
 10
20.7383253733
 20
45.2716424853
 11
17.9883253733
 21
38.0216424853
  70
0
 13
29.7645106558
 23
30.7716424853
 14
36.2645106558
 24
45.2716424853
 50
90.000000
  0
DIMENSION
  8
1
  6
CONTINUOUS
 62
5
  2
*D3
 10
13.2316014101
 20
45.2716424853
 11
10.4816014101
 21
33.2716424853
  70
0
 13
27.7645106558
 23
21.2716424853
 14
36.2645106558
 24
45.2716424853
 50
90.000000
  0
LINE
  8
1
  6
CONTINUOUS
 62
7
 10
36.2645106558
 20
21.2716424853
 11
36.2645106558
 21
6.2716424853
  0
LINE
  8
1
  6
CONTINUOUS
 62
7
 10
36.2645106558
 20
6.2716424853
 11
39.2645106558
 21
6.2716424853
  0
LINE
  8
1
  6
CONTINUOUS
 62
7
 10
39.2645106558
 20
6.2716424853
 11
39.2645106558
 21
21.2716424853
  0
LINE
  8
1
  6
CONTINUOUS
 62
7
 10
88.2645106558
 20
21.2716424853
 11
88.2645106558
 21
6.2716424853
  0
LINE
  8
1
  6
CONTINUOUS
 62
7
 10
88.2645106558
 20
6.2716424853
 11
85.2645106558
 21
6.2716424853
  0
LINE
  8
1
  6
CONTINUOUS
 62
7
 10
85.2645106558
 20
6.2716424853
 11
85.2645106558
 21
21.2716424853
  0
LINE
  8
1
  6
HIDDEN
 62
3
 10
167.9105182328
 20
85.3525214537
 11
170.9105182328
 21
85.3525214537
  0
LINE
  8
1
  6
HIDDEN
 62
3
 10
218.9105182328
 20
85.3525214537
 11
170.9105182328
 21
85.3525214537
  0
LINE
  8
1
  6
HIDDEN
 62
3
 10
167.9105182328
 20
95.3525214537
 11
170.9105182328
 21
95.3525214537
  0
LINE
  8
3
  6
HIDDEN
 62
3
 10
170.9105182328
 20
95.3525214537
 11
170.9105182328
 21
85.3525214537
  0
LINE
  8
1
  6
HIDDEN
 62
3
 10
167.9105182328
 20
95.3525214537
 11
167.9105182328
 21
85.3525214537
  0
LINE
  8
1
  6
HIDDEN
 62
3
 10
219.9105182328
 20
86.3525214537
 11
219.9105182328
 21
182.3525214537
  0
LINE
  8
1
  6
HIDDEN
 62
3
 10
167.9105182328
 20
191.3525214537
 11
167.9105182328
 21
95.3525214537
  0
LINE
  8
2
  6
CONTINUOUS
 62
5
 10
115.6954338248
 20
214.7453462552
 11
109.4661466639
 21
192.4775214537
  0
LINE
  8
2
  6
HIDDEN
 62
5
 10
114.7351177630
 20
203.8525214537
 11
111.4661466639
 21
192.2022453229
  0
LINE
  8
2
  6
HIDDEN
 62
5
 10
111.4661466639
 20
192.2022453229
 11
111.4661466639
 21
73.8525214537
  0
DIMENSION
  8
1
  6
CONTINUOUS
 62
5
  2
*D4
 10
17.2916228022
 20
64.6025214537
 11
13.7916228022
 21
142.3525214537
  70
0
 13
27.7645106558
 23
220.1025214537
 14
27.7645106558
 24
64.6025214537
 50
90.000000
  0
DIMENSION
  8
1
  6
CONTINUOUS
 62
5
  2
*D5
 10
96.7645106558
 20
224.0648547044
 11
62.2645106558
 21
227.5648547044
  70
0
 13
27.7645106558
 23
220.1025214537
 14
96.7645106558
 24
220.1025214537
 50
0.000000
  0
LINE
  8
2
  6
CONTINUOUS
 62
5
 10
31.5145106558
 20
30.7716424853
 11
31.5145106558
 21
29.7716424853
  0
LINE
  8
2
  6
CONTINUOUS
 62
5
 10
31.5145106558
 20
29.7716424853
 11
32.0145106558
 21
29.7716424853
  0
LINE
  8
2
  6
CONTINUOUS
 62
5
 10
32.0145106558
 20
29.7716424853
 11
32.0145106558
 21
30.7716424853
  0
LINE
  8
2
  6
CONTINUOUS
 62
5
 10
93.0145106558
 20
30.7716424853
 11
93.0145106558
 21
29.7716424853
  0
LINE
  8
2
  6
CONTINUOUS
 62
5
 10
93.0145106558
 20
29.7716424853
 11
92.5145106558
 21
29.7716424853
  0
LINE
  8
2
  6
CONTINUOUS
 62
5
 10
92.5145106558
 20
29.7716424853
 11
92.5145106558
 21
30.7716424853
  0
ARC
  8
1
  6
HIDDEN
 62
3
 10
168.9105182328
 20
191.3525214537
 40
1.0000000000
 50
90.0000000000
 51
180.0000000000
  0
ARC
  8
1
  6
HIDDEN
 62
3
 10
218.9105182328
 20
86.3525214537
 40
1.0000000000
 50
270.0000000000
 51
0.0000000000
  0
LINE
  8
7
  6
CONTINUOUS
 62
7
 10
221.1605182328
 20
77.8525214539
 11
221.1605182328
 21
199.8525214535
  0
LINE
  8
7
  6
CONTINUOUS
 62
7
 10
220.1605182328
 20
200.8525214535
 11
167.6605182328
 21
200.8525214539
  0
LINE
  8
7
  6
CONTINUOUS
 62
7
 10
166.6605182328
 20
77.8525214535
 11
166.6605182328
 21
199.8525214539
  0
LINE
  8
7
  6
CONTINUOUS
 62
7
 10
220.1605182328
 20
76.8525214539
 11
167.6605182328
 21
76.8525214535
  0
LINE
  8
7
  6
CONTINUOUS
 62
7
 10
167.6605182328
 20
200.8525214539
 11
166.6605182328
 21
199.8525214539
  0
LINE
  8
7
  6
CONTINUOUS
 62
7
 10
221.1605182328
 20
199.8525214535
 11
220.1605182328
 21
200.8525214535
  0
LINE
  8
7
  6
CONTINUOUS
 62
7
 10
221.1605182328
 20
77.8525214539
 11
220.1605182328
 21
76.8525214539
  0
LINE
  8
7
  6
CONTINUOUS
 62
7
 10
167.6605182328
 20
76.8525214535
 11
166.6605182328
 21
77.8525214535
  0
CIRCLE
  8
3
  6
CONTINUOUS
 62
6
 10
193.9105182328
 20
197.3525214536
 40
3.9000000000
  0
LINE
  8
3
  6
CONTINUOUS
 62
6
 10
192.1869454536
 20
199.0760942328
 11
195.6340910119
 21
195.6289486745
  0
LINE
  8
3
  6
CONTINUOUS
 62
6
 10
192.1869454536
 20
195.6289486745
 11
195.6340910119
 21
199.0760942328
  0
CIRCLE
  8
3
  6
CONTINUOUS
 62
6
 10
193.9105182328
 20
197.3525214536
 40
3.4125000000
  0
CIRCLE
  8
3
  6
CONTINUOUS
 62
6
 10
193.9105182328
 20
80.3525214537
 40
3.9000000000
  0
LINE
  8
3
  6
CONTINUOUS
 62
6
 10
192.1869454536
 20
82.0760942328
 11
195.6340910119
 21
78.6289486745
  0
LINE
  8
3
  6
CONTINUOUS
 62
6
 10
192.1869454536
 20
78.6289486745
 11
195.6340910119
 21
82.0760942328
  0
CIRCLE
  8
3
  6
CONTINUOUS
 62
6
 10
193.9105182328
 20
80.3525214537
 40
3.4125000000
  0
LINE
  8
5
  6
CONTINUOUS
 62
6
 10
312.9235759729
 20
271.9463679840
 11
312.9235759729
 21
276.9463679840
  0
LINE
  8
5
  6
CONTINUOUS
 62
6
 10
312.9235759729
 20
276.9463679840
 11
317.9235759729
 21
276.9463679840
  0
LINE
  8
5
  6
CONTINUOUS
 62
6
 10
317.9235759729
 20
276.9463679840
 11
337.9235759729
 21
276.9463679840
  0
LINE
  8
5
  6
CONTINUOUS
 62
6
 10
337.9235759729
 20
276.9463679840
 11
377.9235759729
 21
276.9463679840
  0
LINE
  8
5
  6
CONTINUOUS
 62
6
 10
377.9235759729
 20
276.9463679840
 11
392.9235759729
 21
276.9463679840
  0
LINE
  8
5
  6
CONTINUOUS
 62
6
 10
392.9235759729
 20
276.9463679840
 11
397.9235759729
 21
276.9463679840
  0
LINE
  8
5
  6
CONTINUOUS
 62
6
 10
397.9235759729
 20
276.9463679840
 11
397.9235759729
 21
271.9463679840
  0
LINE
  8
5
  6
CONTINUOUS
 62
6
 10
397.9235759729
 20
271.9463679840
 11
392.9235759729
 21
271.9463679840
  0
LINE
  8
5
  6
CONTINUOUS
 62
6
 10
392.9235759729
 20
271.9463679840
 11
377.9235759729
 21
271.9463679840
  0
LINE
  8
5
  6
CONTINUOUS
 62
6
 10
377.9235759729
 20
271.9463679840
 11
337.9235759729
 21
271.9463679840
  0
LINE
  8
5
  6
CONTINUOUS
 62
6
 10
337.9235759729
 20
271.9463679840
 11
317.9235759729
 21
271.9463679840
  0
LINE
  8
5
  6
CONTINUOUS
 62
6
 10
317.9235759729
 20
271.9463679840
 11
312.9235759729
 21
271.9463679840
  0
LINE
  8
5
  6
CONTINUOUS
 62
6
 10
317.9235759729
 20
276.9463679840
 11
317.9235759729
 21
271.9463679840
  0
LINE
  8
5
  6
CONTINUOUS
 62
6
 10
337.9235759729
 20
276.9463679840
 11
337.9235759729
 21
271.9463679840
  0
LINE
  8
5
  6
CONTINUOUS
 62
6
 10
377.9235759729
 20
276.9463679840
 11
377.9235759729
 21
271.9463679840
  0
LINE
  8
5
  6
CONTINUOUS
 62
6
 10
392.9235759729
 20
276.9463679840
 11
392.9235759729
 21
271.9463679840
  0
TEXT
  8
5
  6
CONTINUOUS
 62
7
 10
313.123576
 20
273.296368
 40
2.300000
  1
項番
 41
0.921659
 50
0.000000
 51
0.000000
 72
   5
 73
   0
 11
317.723576
 21
273.296368
  0
TEXT
  8
5
  6
CONTINUOUS
 62
7
 10
322.931576
 20
272.946368
 40
3.000000
  1
品　　名
 41
0.737916
 50
0.000000
 51
0.000000
 72
   5
 73
   0
 11
332.915576
 21
272.946368
  0
TEXT
  8
5
  6
CONTINUOUS
 62
7
 10
342.770576
 20
272.946368
 40
3.000000
  1
定  格 / 型  番 / 材　質
 41
0.686277
 50
0.000000
 51
0.000000
 72
   5
 73
   0
 11
373.076576
 21
272.946368
  0
TEXT
  8
5
  6
CONTINUOUS
 62
7
 10
380.226076
 20
272.946368
 40
3.000000
  1
メーカー
 41
0.768293
 50
0.000000
 51
0.000000
 72
   5
 73
   0
 11
390.621076
 21
272.946368
  0
TEXT
  8
5
  6
CONTINUOUS
 62
7
 10
393.123576
 20
273.296368
 40
2.300000
  1
数量
 41
0.921659
 50
0.000000
 51
0.000000
 72
   5
 73
   0
 11
397.723576
 21
273.296368
  0
LINE
  8
5
  6
CONTINUOUS
 62
6
 10
312.9235759729
 20
266.9463679840
 11
312.9235759729
 21
271.9463679840
  0
LINE
  8
5
  6
CONTINUOUS
 62
6
 10
312.9235759729
 20
271.9463679840
 11
317.9235759729
 21
271.9463679840
  0
LINE
  8
5
  6
CONTINUOUS
 62
6
 10
317.9235759729
 20
271.9463679840
 11
337.9235759729
 21
271.9463679840
  0
LINE
  8
5
  6
CONTINUOUS
 62
6
 10
337.9235759729
 20
271.9463679840
 11
377.9235759729
 21
271.9463679840
  0
LINE
  8
5
  6
CONTINUOUS
 62
6
 10
377.9235759729
 20
271.9463679840
 11
392.9235759729
 21
271.9463679840
  0
LINE
  8
5
  6
CONTINUOUS
 62
6
 10
392.9235759729
 20
271.9463679840
 11
397.9235759729
 21
271.9463679840
  0
LINE
  8
5
  6
CONTINUOUS
 62
6
 10
397.9235759729
 20
271.9463679840
 11
397.9235759729
 21
266.9463679840
  0
LINE
  8
5
  6
CONTINUOUS
 62
6
 10
397.9235759729
 20
266.9463679840
 11
392.9235759729
 21
266.9463679840
  0
LINE
  8
5
  6
CONTINUOUS
 62
6
 10
392.9235759729
 20
266.9463679840
 11
377.9235759729
 21
266.9463679840
  0
LINE
  8
5
  6
CONTINUOUS
 62
6
 10
337.9235759729
 20
266.9463679840
 11
317.9235759729
 21
266.9463679840
  0
LINE
  8
5
  6
CONTINUOUS
 62
6
 10
317.9235759729
 20
266.9463679840
 11
312.9235759729
 21
266.9463679840
  0
LINE
  8
5
  6
CONTINUOUS
 62
6
 10
317.9235759729
 20
271.9463679840
 11
317.9235759729
 21
266.9463679840
  0
LINE
  8
5
  6
CONTINUOUS
 62
6
 10
337.9235759729
 20
271.9463679840
 11
337.9235759729
 21
266.9463679840
  0
LINE
  8
5
  6
CONTINUOUS
 62
6
 10
377.9235759729
 20
271.9463679840
 11
377.9235759729
 21
266.9463679840
  0
LINE
  8
5
  6
CONTINUOUS
 62
6
 10
392.9235759729
 20
271.9463679840
 11
392.9235759729
 21
266.9463679840
  0
TEXT
  8
5
  6
CONTINUOUS
 62
7
 10
314.548576
 20
267.696368
 40
3.500000
  1
1
 41
1.000000
 50
0.000000
 51
0.000000
 72
   5
 73
   0
 11
316.298576
 21
267.696368
  0
TEXT
  8
5
  6
CONTINUOUS
 62
7
 10
318.923576
 20
267.946368
 40
3.000000
  1
ベース
 41
0.841018
 50
0.000000
 51
0.000000
 72
   5
 73
   0
 11
327.350576
 21
267.946368
  0
TEXT
  8
5
  6
CONTINUOUS
 62
7
 10
394.548576
 20
267.696368
 40
3.500000
  1
1
 41
1.000000
 50
0.000000
 51
0.000000
 72
   5
 73
   0
 11
396.298576
 21
267.696368
  0
LINE
  8
5
  6
CONTINUOUS
 62
6
 10
397.9235759729
 20
261.9463679840
 11
392.9235759729
 21
261.9463679840
  0
LINE
  8
5
  6
CONTINUOUS
 62
6
 10
397.9235759729
 20
256.9463679840
 11
392.9235759729
 21
256.9463679840
  0
LINE
  8
5
  6
CONTINUOUS
 62
6
 10
397.9235759729
 20
251.9463679840
 11
392.9235759729
 21
251.9463679840
  0
LINE
  8
5
  6
CONTINUOUS
 62
6
 10
397.9235759729
 20
246.9463679840
 11
392.9235759729
 21
246.9463679840
  0
LINE
  8
5
  6
CONTINUOUS
 62
6
 10
397.9235759729
 20
241.9463679840
 11
392.9235759729
 21
241.9463679840
  0
LINE
  8
5
  6
CONTINUOUS
 62
6
 10
397.9235759729
 20
236.9463679840
 11
392.9235759729
 21
236.9463679840
  0
LINE
  8
5
  6
CONTINUOUS
 62
6
 10
397.9235759729
 20
231.9463679840
 11
392.9235759729
 21
231.9463679840
  0
LINE
  8
5
  6
CONTINUOUS
 62
6
 10
392.9235759729
 20
261.9463679840
 11
377.9235759729
 21
261.9463679840
  0
LINE
  8
5
  6
CONTINUOUS
 62
6
 10
392.9235759729
 20
256.9463679840
 11
377.9235759729
 21
256.9463679840
  0
LINE
  8
5
  6
CONTINUOUS
 62
6
 10
392.9235759729
 20
251.9463679840
 11
377.9235759729
 21
251.9463679840
  0
LINE
  8
5
  6
CONTINUOUS
 62
6
 10
392.9235759729
 20
246.9463679840
 11
377.9235759729
 21
246.9463679840
  0
LINE
  8
5
  6
CONTINUOUS
 62
6
 10
392.9235759729
 20
241.9463679840
 11
377.9235759729
 21
241.9463679840
  0
LINE
  8
5
  6
CONTINUOUS
 62
6
 10
392.9235759729
 20
236.9463679840
 11
377.9235759729
 21
236.9463679840
  0
LINE
  8
5
  6
CONTINUOUS
 62
6
 10
392.9235759729
 20
231.9463679840
 11
377.9235759729
 21
231.9463679840
  0
LINE
  8
5
  6
CONTINUOUS
 62
6
 10
377.9235759729
 20
261.9463679840
 11
337.9235759729
 21
261.9463679840
  0
LINE
  8
5
  6
CONTINUOUS
 62
6
 10
377.9235759729
 20
256.9463679840
 11
337.9235759729
 21
256.9463679840
  0
LINE
  8
5
  6
CONTINUOUS
 62
6
 10
377.9235759729
 20
251.9463679840
 11
337.9235759729
 21
251.9463679840
  0
LINE
  8
5
  6
CONTINUOUS
 62
6
 10
377.9235759729
 20
246.9463679840
 11
337.9235759729
 21
246.9463679840
  0
LINE
  8
5
  6
CONTINUOUS
 62
6
 10
377.9235759729
 20
241.9463679840
 11
337.9235759729
 21
241.9463679840
  0
LINE
  8
5
  6
CONTINUOUS
 62
6
 10
377.9235759729
 20
236.9463679840
 11
337.9235759729
 21
236.9463679840
  0
LINE
  8
5
  6
CONTINUOUS
 62
6
 10
377.9235759729
 20
231.9463679840
 11
337.9235759729
 21
231.9463679840
  0
LINE
  8
5
  6
CONTINUOUS
 62
6
 10
337.9235759729
 20
261.9463679840
 11
317.9235759729
 21
261.9463679840
  0
LINE
  8
5
  6
CONTINUOUS
 62
6
 10
337.9235759729
 20
256.9463679840
 11
317.9235759729
 21
256.9463679840
  0
LINE
  8
5
  6
CONTINUOUS
 62
6
 10
337.9235759729
 20
251.9463679840
 11
317.9235759729
 21
251.9463679840
  0
LINE
  8
5
  6
CONTINUOUS
 62
6
 10
337.9235759729
 20
246.9463679840
 11
317.9235759729
 21
246.9463679840
  0
LINE
  8
5
  6
CONTINUOUS
 62
6
 10
337.9235759729
 20
241.9463679840
 11
317.9235759729
 21
241.9463679840
  0
LINE
  8
5
  6
CONTINUOUS
 62
6
 10
337.9235759729
 20
236.9463679840
 11
317.9235759729
 21
236.9463679840
  0
LINE
  8
5
  6
CONTINUOUS
 62
6
 10
337.9235759729
 20
231.9463679840
 11
317.9235759729
 21
231.9463679840
  0
LINE
  8
5
  6
CONTINUOUS
 62
6
 10
317.9235759729
 20
261.9463679840
 11
312.9235759729
 21
261.9463679840
  0
LINE
  8
5
  6
CONTINUOUS
 62
6
 10
317.9235759729
 20
256.9463679840
 11
312.9235759729
 21
256.9463679840
  0
LINE
  8
5
  6
CONTINUOUS
 62
6
 10
317.9235759729
 20
251.9463679840
 11
312.9235759729
 21
251.9463679840
  0
LINE
  8
5
  6
CONTINUOUS
 62
6
 10
317.9235759729
 20
246.9463679840
 11
312.9235759729
 21
246.9463679840
  0
LINE
  8
5
  6
CONTINUOUS
 62
6
 10
317.9235759729
 20
241.9463679840
 11
312.9235759729
 21
241.9463679840
  0
LINE
  8
5
  6
CONTINUOUS
 62
6
 10
317.9235759729
 20
236.9463679840
 11
312.9235759729
 21
236.9463679840
  0
LINE
  8
5
  6
CONTINUOUS
 62
6
 10
317.9235759729
 20
231.9463679840
 11
312.9235759729
 21
231.9463679840
  0
TEXT
  8
5
  6
CONTINUOUS
 62
7
 10
314.548576
 20
262.696368
 40
3.500000
  1
2
 41
1.000000
 50
0.000000
 51
0.000000
 72
   5
 73
   0
 11
316.298576
 21
262.696368
  0
TEXT
  8
5
  6
CONTINUOUS
 62
7
 10
314.548576
 20
257.696368
 40
3.500000
  1
3
 41
1.000000
 50
0.000000
 51
0.000000
 72
   5
 73
   0
 11
316.298576
 21
257.696368
  0
TEXT
  8
5
  6
CONTINUOUS
 62
7
 10
314.548576
 20
252.696368
 40
3.500000
  1
4
 41
1.000000
 50
0.000000
 51
0.000000
 72
   5
 73
   0
 11
316.298576
 21
252.696368
  0
TEXT
  8
5
  6
CONTINUOUS
 62
7
 10
314.548576
 20
247.696368
 40
3.500000
  1
5
 41
1.000000
 50
0.000000
 51
0.000000
 72
   5
 73
   0
 11
316.298576
 21
247.696368
  0
TEXT
  8
5
  6
CONTINUOUS
 62
7
 10
314.548576
 20
242.696368
 40
3.500000
  1
6
 41
1.000000
 50
0.000000
 51
0.000000
 72
   5
 73
   0
 11
316.298576
 21
242.696368
  0
TEXT
  8
5
  6
CONTINUOUS
 62
7
 10
314.548576
 20
237.696368
 40
3.500000
  1
7
 41
1.000000
 50
0.000000
 51
0.000000
 72
   5
 73
   0
 11
316.298576
 21
237.696368
  0
TEXT
  8
5
  6
CONTINUOUS
 62
7
 10
314.548576
 20
232.696368
 40
3.500000
  1
8
 41
1.000000
 50
0.000000
 51
0.000000
 72
   5
 73
   0
 11
316.298576
 21
232.696368
  0
TEXT
  8
5
  6
CONTINUOUS
 62
7
 10
318.923576
 20
262.946368
 40
3.000000
  1
カバー
 41
0.833832
 50
0.000000
 51
0.000000
 72
   5
 73
   0
 11
327.278576
 21
262.946368
  0
TEXT
  8
5
  6
CONTINUOUS
 62
7
 10
318.923576
 20
257.946368
 40
3.000000
  1
ﾛｰﾚｯﾄﾋﾞｽ
 41
0.795568
 50
0.000000
 51
0.000000
 72
   5
 73
   0
 11
331.310576
 21
257.946368
  0
TEXT
  8
5
  6
CONTINUOUS
 62
7
 10
318.923576
 20
252.946368
 40
3.000000
  1
添付品ﾋﾞｽ
 41
0.822804
 50
0.000000
 51
0.000000
 72
   5
 73
   0
 11
332.129576
 21
252.946368
  0
TEXT
  8
5
  6
CONTINUOUS
 62
7
 10
318.923576
 20
242.946368
 40
3.000000
  1
添付品ﾋﾞｽ
 41
0.822804
 50
0.000000
 51
0.000000
 72
   5
 73
   0
 11
332.129576
 21
242.946368
  0
TEXT
  8
5
  6
CONTINUOUS
 62
7
 10
318.923576
 20
237.946368
 40
3.000000
  1
添付品ﾋﾞｽ
 41
0.822804
 50
0.000000
 51
0.000000
 72
   5
 73
   0
 11
332.129576
 21
237.946368
  0
TEXT
  8
5
  6
CONTINUOUS
 62
7
 10
338.923576
 20
257.946368
 40
3.000000
  1
A-1176-20
 41
0.790614
 50
0.000000
 51
0.000000
 72
   5
 73
   0
 11
352.822576
 21
257.946368
  0
TEXT
  8
5
  6
CONTINUOUS
 62
7
 10
338.923576
 20
252.946368
 40
3.000000
  1
M3×8小ワｾﾑｽ(ﾍﾞｰｽ固定用)
 41
0.831095
 50
0.000000
 51
0.000000
 72
   5
 73
   0
 11
376.048576
 21
252.946368
  0
TEXT
  8
5
  6
CONTINUOUS
 62
7
 10
338.923576
 20
242.946368
 40
3.000000
  1
M5×10ｱﾌﾞｾｯﾄ
 41
0.813247
 50
0.000000
 51
0.000000
 72
   5
 73
   0
 11
357.709576
 21
242.946368
  0
TEXT
  8
5
  6
CONTINUOUS
 62
7
 10
338.923576
 20
237.946368
 40
3.000000
  1
M5 内歯菊座金
 41
0.851365
 50
0.000000
 51
0.000000
 72
   5
 73
   0
 11
358.564576
 21
237.946368
  0
TEXT
  8
5
  6
CONTINUOUS
 62
7
 10
394.548576
 20
262.696368
 40
3.500000
  1
1
 41
1.000000
 50
0.000000
 51
0.000000
 72
   5
 73
   0
 11
396.298576
 21
262.696368
  0
TEXT
  8
5
  6
CONTINUOUS
 62
7
 10
394.548576
 20
257.696368
 40
3.500000
  1
1
 41
1.000000
 50
0.000000
 51
0.000000
 72
   5
 73
   0
 11
396.298576
 21
257.696368
  0
TEXT
  8
5
  6
CONTINUOUS
 62
7
 10
394.548576
 20
252.696368
 40
3.500000
  1
4
 41
1.000000
 50
0.000000
 51
0.000000
 72
   5
 73
   0
 11
396.298576
 21
252.696368
  0
TEXT
  8
5
  6
CONTINUOUS
 62
7
 10
394.548576
 20
242.696368
 40
3.500000
  1
1
 41
1.000000
 50
0.000000
 51
0.000000
 72
   5
 73
   0
 11
396.298576
 21
242.696368
  0
TEXT
  8
5
  6
CONTINUOUS
 62
7
 10
394.548576
 20
237.696368
 40
3.500000
  1
1
 41
1.000000
 50
0.000000
 51
0.000000
 72
   5
 73
   0
 11
396.298576
 21
237.696368
  0
LINE
  8
5
  6
CONTINUOUS
 62
6
 10
312.9235759729
 20
261.9463679840
 11
312.9235759729
 21
266.9463679840
  0
LINE
  8
5
  6
CONTINUOUS
 62
6
 10
312.9235759729
 20
256.9463679840
 11
312.9235759729
 21
261.9463679840
  0
LINE
  8
5
  6
CONTINUOUS
 62
6
 10
312.9235759729
 20
251.9463679840
 11
312.9235759729
 21
256.9463679840
  0
LINE
  8
5
  6
CONTINUOUS
 62
6
 10
312.9235759729
 20
246.9463679840
 11
312.9235759729
 21
251.9463679840
  0
LINE
  8
5
  6
CONTINUOUS
 62
6
 10
312.9235759729
 20
241.9463679840
 11
312.9235759729
 21
246.9463679840
  0
LINE
  8
5
  6
CONTINUOUS
 62
6
 10
312.9235759729
 20
236.9463679840
 11
312.9235759729
 21
241.9463679840
  0
LINE
  8
5
  6
CONTINUOUS
 62
6
 10
317.9235759729
 20
266.9463679840
 11
317.9235759729
 21
261.9463679840
  0
LINE
  8
5
  6
CONTINUOUS
 62
6
 10
317.9235759729
 20
261.9463679840
 11
317.9235759729
 21
256.9463679840
  0
LINE
  8
5
  6
CONTINUOUS
 62
6
 10
317.9235759729
 20
256.9463679840
 11
317.9235759729
 21
251.9463679840
  0
LINE
  8
5
  6
CONTINUOUS
 62
6
 10
317.9235759729
 20
251.9463679840
 11
317.9235759729
 21
246.9463679840
  0
LINE
  8
5
  6
CONTINUOUS
 62
6
 10
317.9235759729
 20
246.9463679840
 11
317.9235759729
 21
241.9463679840
  0
LINE
  8
5
  6
CONTINUOUS
 62
6
 10
317.9235759729
 20
241.9463679840
 11
317.9235759729
 21
236.9463679840
  0
LINE
  8
5
  6
CONTINUOUS
 62
6
 10
317.9235759729
 20
236.9463679840
 11
317.9235759729
 21
231.9463679840
  0
LINE
  8
5
  6
CONTINUOUS
 62
6
 10
337.9235759729
 20
266.9463679840
 11
337.9235759729
 21
261.9463679840
  0
LINE
  8
5
  6
CONTINUOUS
 62
6
 10
337.9235759729
 20
261.9463679840
 11
337.9235759729
 21
256.9463679840
  0
LINE
  8
5
  6
CONTINUOUS
 62
6
 10
337.9235759729
 20
256.9463679840
 11
337.9235759729
 21
251.9463679840
  0
LINE
  8
5
  6
CONTINUOUS
 62
6
 10
337.9235759729
 20
251.9463679840
 11
337.9235759729
 21
246.9463679840
  0
LINE
  8
5
  6
CONTINUOUS
 62
6
 10
337.9235759729
 20
246.9463679840
 11
337.9235759729
 21
241.9463679840
  0
LINE
  8
5
  6
CONTINUOUS
 62
6
 10
337.9235759729
 20
241.9463679840
 11
337.9235759729
 21
236.9463679840
  0
LINE
  8
5
  6
CONTINUOUS
 62
6
 10
337.9235759729
 20
236.9463679840
 11
337.9235759729
 21
231.9463679840
  0
LINE
  8
5
  6
CONTINUOUS
 62
6
 10
377.9235759729
 20
266.9463679840
 11
377.9235759729
 21
261.9463679840
  0
LINE
  8
5
  6
CONTINUOUS
 62
6
 10
377.9235759729
 20
261.9463679840
 11
377.9235759729
 21
256.9463679840
  0
LINE
  8
5
  6
CONTINUOUS
 62
6
 10
377.9235759729
 20
251.9463679840
 11
377.9235759729
 21
246.9463679840
  0
LINE
  8
5
  6
CONTINUOUS
 62
6
 10
377.9235759729
 20
246.9463679840
 11
377.9235759729
 21
241.9463679840
  0
LINE
  8
5
  6
CONTINUOUS
 62
6
 10
377.9235759729
 20
241.9463679840
 11
377.9235759729
 21
236.9463679840
  0
LINE
  8
5
  6
CONTINUOUS
 62
6
 10
377.9235759729
 20
236.9463679840
 11
377.9235759729
 21
231.9463679840
  0
LINE
  8
5
  6
CONTINUOUS
 62
6
 10
392.9235759729
 20
266.9463679840
 11
392.9235759729
 21
261.9463679840
  0
LINE
  8
5
  6
CONTINUOUS
 62
6
 10
392.9235759729
 20
261.9463679840
 11
392.9235759729
 21
256.9463679840
  0
LINE
  8
5
  6
CONTINUOUS
 62
6
 10
392.9235759729
 20
256.9463679840
 11
392.9235759729
 21
251.9463679840
  0
LINE
  8
5
  6
CONTINUOUS
 62
6
 10
392.9235759729
 20
251.9463679840
 11
392.9235759729
 21
246.9463679840
  0
LINE
  8
5
  6
CONTINUOUS
 62
6
 10
392.9235759729
 20
246.9463679840
 11
392.9235759729
 21
241.9463679840
  0
LINE
  8
5
  6
CONTINUOUS
 62
6
 10
392.9235759729
 20
241.9463679840
 11
392.9235759729
 21
236.9463679840
  0
LINE
  8
5
  6
CONTINUOUS
 62
6
 10
392.9235759729
 20
236.9463679840
 11
392.9235759729
 21
231.9463679840
  0
LINE
  8
5
  6
CONTINUOUS
 62
6
 10
397.9235759729
 20
266.9463679840
 11
397.9235759729
 21
261.9463679840
  0
LINE
  8
5
  6
CONTINUOUS
 62
6
 10
397.9235759729
 20
261.9463679840
 11
397.9235759729
 21
256.9463679840
  0
LINE
  8
5
  6
CONTINUOUS
 62
6
 10
397.9235759729
 20
256.9463679840
 11
397.9235759729
 21
251.9463679840
  0
LINE
  8
5
  6
CONTINUOUS
 62
6
 10
397.9235759729
 20
251.9463679840
 11
397.9235759729
 21
246.9463679840
  0
LINE
  8
5
  6
CONTINUOUS
 62
6
 10
397.9235759729
 20
246.9463679840
 11
397.9235759729
 21
241.9463679840
  0
LINE
  8
5
  6
CONTINUOUS
 62
6
 10
397.9235759729
 20
241.9463679840
 11
397.9235759729
 21
236.9463679840
  0
LINE
  8
5
  6
CONTINUOUS
 62
6
 10
397.9235759729
 20
236.9463679840
 11
397.9235759729
 21
231.9463679840
  0
LINE
  8
5
  6
CONTINUOUS
 62
6
 10
13.5000000000
 20
254.5000000000
 11
13.5000000000
 21
279.5000000000
  0
LINE
  8
5
  6
CONTINUOUS
 62
6
 10
25.5000000000
 20
254.5000000000
 11
25.5000000000
 21
279.5000000000
  0
LINE
  8
5
  6
CONTINUOUS
 62
6
 10
90.0000000000
 20
254.5000000000
 11
90.0000000000
 21
279.5000000000
  0
LINE
  8
5
  6
CONTINUOUS
 62
6
 10
99.0000000000
 20
279.5000000000
 11
99.0000000000
 21
254.5000000000
  0
TEXT
  8
5
  6
CONTINUOUS
 62
6
 10
16.534500
 20
255.500000
 40
3.000000
  1
Date
 41
0.787649
 50
0.000000
 51
0.000000
 72
   5
 73
   0
 11
22.465500
 21
255.500000
  0
TEXT
  8
5
  6
CONTINUOUS
 62
6
 10
6.292500
 20
255.500000
 40
3.000000
  1
Rev.
 41
0.719124
 50
0.000000
 51
0.000000
 72
   5
 73
   0
 11
11.707500
 21
255.500000
  0
TEXT
  8
5
  6
CONTINUOUS
 62
6
 10
27.000000
 20
255.500000
 40
3.000000
  1
Content
 41
0.746681
 50
0.000000
 51
0.000000
 72
   5
 73
   0
 11
37.125000
 21
255.500000
  0
TEXT
  8
5
  6
CONTINUOUS
 62
6
 10
90.972000
 20
255.500000
 40
3.000000
  1
Name
 41
0.937052
 50
0.000000
 51
0.000000
 72
   5
 73
   0
 11
98.028000
 21
255.500000
  0
LINE
  8
5
  6
CONTINUOUS
 62
6
 10
4.5000000000
 20
259.5000000000
 11
99.0000000000
 21
259.5000000000
  0
LINE
  8
5
  6
CONTINUOUS
 62
6
 10
4.5000000000
 20
264.5000000000
 11
99.0000000000
 21
264.5000000000
  0
LINE
  8
5
  6
CONTINUOUS
 62
6
 10
4.5000000000
 20
269.5000000000
 11
99.0000000000
 21
269.5000000000
  0
LINE
  8
5
  6
CONTINUOUS
 62
6
 10
4.5000000000
 20
274.5000000000
 11
99.0000000000
 21
274.5000000000
  0
LINE
  8
5
  6
CONTINUOUS
 62
6
 10
4.5000000000
 20
254.5000000000
 11
99.0000000000
 21
254.5000000000
  0
POINT
  8
5
  6
CONTINUOUS
 62
6
 10
9.0000000000
 20
262.0000000000
  0
POINT
  8
5
  6
CONTINUOUS
 62
6
 10
9.0000000000
 20
267.0000000000
  0
POINT
  8
5
  6
CONTINUOUS
 62
6
 10
9.0000000000
 20
272.0000000000
  0
POINT
  8
5
  6
CONTINUOUS
 62
6
 10
9.0000000000
 20
277.0000000000
  0
POINT
  8
5
  6
CONTINUOUS
 62
6
 10
19.5000000000
 20
277.0000000000
  0
POINT
  8
5
  6
CONTINUOUS
 62
6
 10
19.5000000000
 20
272.0000000000
  0
POINT
  8
5
  6
CONTINUOUS
 62
6
 10
19.5000000000
 20
267.0000000000
  0
POINT
  8
5
  6
CONTINUOUS
 62
6
 10
19.5000000000
 20
262.0000000000
  0
POINT
  8
5
  6
CONTINUOUS
 62
6
 10
94.5000000000
 20
262.0000000000
  0
POINT
  8
5
  6
CONTINUOUS
 62
6
 10
94.5000000000
 20
267.0000000000
  0
POINT
  8
5
  6
CONTINUOUS
 62
6
 10
94.5000000000
 20
272.0000000000
  0
POINT
  8
5
  6
CONTINUOUS
 62
6
 10
94.5000000000
 20
277.0000000000
  0
POINT
  8
5
  6
CONTINUOUS
 62
6
 10
25.5000000000
 20
277.0000000000
  0
POINT
  8
5
  6
CONTINUOUS
 62
6
 10
25.5000000000
 20
272.0000000000
  0
POINT
  8
5
  6
CONTINUOUS
 62
6
 10
25.5000000000
 20
267.0000000000
  0
POINT
  8
5
  6
CONTINUOUS
 62
6
 10
25.5000000000
 20
262.0000000000
  0
INSERT
  8
1
  6
CONTINUOUS
 62
5
  2
BALN0
 10
65.1092980532
 20
67.0636039311
  0
TEXT
  8
5
  6
CONTINUOUS
 62
7
 10
338.923576
 20
247.946368
 40
3.000000
  1
M4×8小ワｾﾑｽ(ﾊﾟﾈﾙ固定用)
 41
0.833177
 50
0.000000
 51
0.000000
 72
   5
 73
   0
 11
376.141576
 21
247.946368
  0
TEXT
  8
5
  6
CONTINUOUS
 62
7
 10
318.923576
 20
247.946368
 40
3.000000
  1
添付品ﾋﾞｽ
 41
0.822804
 50
0.000000
 51
0.000000
 72
   5
 73
   0
 11
332.129576
 21
247.946368
  0
TEXT
  8
5
  6
CONTINUOUS
 62
7
 10
394.548576
 20
247.696368
 40
3.500000
  1
2
 41
1.000000
 50
0.000000
 51
0.000000
 72
   5
 73
   0
 11
396.298576
 21
247.696368
  0
LINE
  8
5
  6
CONTINUOUS
 62
6
 10
377.9235759729
 20
256.9463679840
 11
377.9235759729
 21
251.9463679840
  0
LINE
  8
3
  6
CONTINUOUS
 62
7
 10
221.1605182328
 20
77.8525214539
 11
221.1605182328
 21
199.8525214535
  0
LINE
  8
3
  6
CONTINUOUS
 62
7
 10
221.1605182328
 20
199.8525214535
 11
220.1605182328
 21
200.8525214535
  0
LINE
  8
3
  6
CONTINUOUS
 62
7
 10
220.1605182328
 20
200.8525214535
 11
167.6605182328
 21
200.8525214539
  0
LINE
  8
3
  6
CONTINUOUS
 62
7
 10
167.6605182328
 20
200.8525214539
 11
166.6605182328
 21
199.8525214539
  0
LINE
  8
3
  6
CONTINUOUS
 62
7
 10
166.6605182328
 20
77.8525214535
 11
166.6605182328
 21
199.8525214539
  0
LINE
  8
3
  6
CONTINUOUS
 62
7
 10
167.6605182328
 20
76.8525214535
 11
166.6605182328
 21
77.8525214535
  0
LINE
  8
3
  6
CONTINUOUS
 62
7
 10
220.1605182328
 20
76.8525214539
 11
167.6605182328
 21
76.8525214535
  0
LINE
  8
3
  6
CONTINUOUS
 62
7
 10
221.1605182328
 20
77.8525214539
 11
220.1605182328
 21
76.8525214539
  0
DIMENSION
  8
1
  6
CONTINUOUS
 62
5
  2
*D6
 10
142.4822443727
 20
88.0542751045
 11
140.9380756799
 21
91.4348139740
  70
3
 15
144.4500489552
 25
92.6507678028
  0
TEXT
  8
5
  6
CONTINUOUS
 62
7
 10
318.923576
 20
232.946368
 40
3.000000
  1
パネル
 41
0.877246
 50
0.000000
 51
0.000000
 72
   5
 73
   0
 11
327.713576
 21
232.946368
  0
TEXT
  8
5
  6
CONTINUOUS
 62
7
 10
338.923576
 20
232.696368
 40
3.500000
  1
仕様書2/2参照
 41
0.845254
 50
0.000000
 51
0.000000
 72
   5
 73
   0
 11
361.673576
 21
232.696368
  0
TEXT
  8
5
  6
CONTINUOUS
 62
7
 10
394.548576
 20
232.696368
 40
3.500000
  1
1
 41
1.000000
 50
0.000000
 51
0.000000
 72
   5
 73
   0
 11
396.298576
 21
232.696368
  0
TEXT
  8
5
  6
CONTINUOUS
 62
7
 10
378.923576
 20
267.946368
 40
3.000000
  1
MADOKA
 41
1.028831
 50
0.000000
 51
0.000000
 72
   5
 73
   0
 11
390.806576
 21
267.946368
  0
TEXT
  8
5
  6
CONTINUOUS
 62
7
 10
378.923576
 20
262.946368
 40
3.000000
  1
MADOKA
 41
1.028831
 50
0.000000
 51
0.000000
 72
   5
 73
   0
 11
390.806576
 21
262.946368
  0
TEXT
  8
5
  6
CONTINUOUS
 62
7
 10
378.923576
 20
232.946368
 40
3.000000
  1
MADOKA
 41
1.028831
 50
0.000000
 51
0.000000
 72
   5
 73
   0
 11
390.806576
 21
232.946368
  0
TEXT
  8
5
  6
CONTINUOUS
 62
7
 10
378.923576
 20
237.946368
 40
3.000000
  1
--
 41
0.854701
 50
0.000000
 51
0.000000
 72
   5
 73
   0
 11
381.923576
 21
237.946368
  0
TEXT
  8
5
  6
CONTINUOUS
 62
7
 10
378.923576
 20
242.946368
 40
3.000000
  1
--
 41
0.854701
 50
0.000000
 51
0.000000
 72
   5
 73
   0
 11
381.923576
 21
242.946368
  0
TEXT
  8
5
  6
CONTINUOUS
 62
7
 10
378.923576
 20
247.946368
 40
3.000000
  1
--
 41
0.854701
 50
0.000000
 51
0.000000
 72
   5
 73
   0
 11
381.923576
 21
247.946368
  0
TEXT
  8
5
  6
CONTINUOUS
 62
7
 10
378.923576
 20
252.946368
 40
3.000000
  1
--
 41
0.854701
 50
0.000000
 51
0.000000
 72
   5
 73
   0
 11
381.923576
 21
252.946368
  0
TEXT
  8
5
  6
CONTINUOUS
 62
7
 10
378.923576
 20
257.946368
 40
3.000000
  1
TAKIGEN
 41
0.874558
 50
0.000000
 51
0.000000
 72
   5
 73
   0
 11
390.782576
 21
257.946368
  0
INSERT
  8
5
  6
CONTINUOUS
 62
7
  2
S1
 10
-1.2509564999
 20
-313.9655230621
  0
TEXT
  8
5
  6
CONTINUOUS
 62
7
 10
347.402112
 20
-291.222966
 40
4.200000
  1
Panel Interface
 41
0.759109
 50
0.000000
 51
0.000000
 72
   5
 73
   0
 11
378.902112
 21
-291.222966
  0
TEXT
  8
5
  6
CONTINUOUS
 62
7
 10
347.402112
 20
-295.422966
 40
4.200000
  1
Type:MCON-001-056A*****
 41
0.754593
 50
0.000000
 51
0.000000
 72
   5
 73
   0
 11
395.702112
 21
-295.422966
  0
TEXT
  8
5
  6
CONTINUOUS
 62
7
 10
347.402112
 20
-299.622966
 40
4.200000
  1
            仕様図　2/2
 41
0.789835
 50
0.000000
 51
0.000000
 72
   5
 73
   0
 11
395.702112
 21
-299.622966
  0
TEXT
  8
5
  6
CONTINUOUS
 62
7
 10
291.874044
 20
-303.215523
 40
3.000000
  1
Yamada
 41
0.844156
 50
0.000000
 51
0.000000
 72
   5
 73
   0
 11
301.624044
 21
-303.215523
  0
TEXT
  8
5
  6
CONTINUOUS
 62
7
 10
302.874044
 20
-303.215523
 40
3.000000
  1
Yamada
 41
0.844156
 50
0.000000
 51
0.000000
 72
   5
 73
   0
 11
312.624044
 21
-303.215523
  0
LINE
  8
5
  6
CONTINUOUS
 62
6
 10
309.6567742348
 20
-52.9016144488
 11
309.6567742348
 21
-47.9016144488
  0
LINE
  8
5
  6
CONTINUOUS
 62
6
 10
309.6567742348
 20
-47.9016144488
 11
314.6567742348
 21
-47.9016144488
  0
LINE
  8
5
  6
CONTINUOUS
 62
6
 10
314.6567742348
 20
-47.9016144488
 11
334.6567742348
 21
-47.9016144488
  0
LINE
  8
5
  6
CONTINUOUS
 62
6
 10
334.6567742348
 20
-47.9016144488
 11
374.6567742348
 21
-47.9016144488
  0
LINE
  8
5
  6
CONTINUOUS
 62
6
 10
374.6567742348
 20
-47.9016144488
 11
389.6567742348
 21
-47.9016144488
  0
LINE
  8
5
  6
CONTINUOUS
 62
6
 10
389.6567742348
 20
-47.9016144488
 11
394.6567742348
 21
-47.9016144488
  0
LINE
  8
5
  6
CONTINUOUS
 62
6
 10
394.6567742348
 20
-47.9016144488
 11
394.6567742348
 21
-52.9016144488
  0
LINE
  8
5
  6
CONTINUOUS
 62
6
 10
394.6567742348
 20
-52.9016144488
 11
389.6567742348
 21
-52.9016144488
  0
LINE
  8
5
  6
CONTINUOUS
 62
6
 10
389.6567742348
 20
-52.9016144488
 11
374.6567742348
 21
-52.9016144488
  0
LINE
  8
5
  6
CONTINUOUS
 62
6
 10
374.6567742348
 20
-52.9016144488
 11
334.6567742348
 21
-52.9016144488
  0
LINE
  8
5
  6
CONTINUOUS
 62
6
 10
334.6567742348
 20
-52.9016144488
 11
314.6567742348
 21
-52.9016144488
  0
LINE
  8
5
  6
CONTINUOUS
 62
6
 10
314.6567742348
 20
-52.9016144488
 11
309.6567742348
 21
-52.9016144488
  0
LINE
  8
5
  6
CONTINUOUS
 62
6
 10
314.6567742348
 20
-47.9016144488
 11
314.6567742348
 21
-52.9016144488
  0
LINE
  8
5
  6
CONTINUOUS
 62
6
 10
334.6567742348
 20
-47.9016144488
 11
334.6567742348
 21
-52.9016144488
  0
LINE
  8
5
  6
CONTINUOUS
 62
6
 10
374.6567742348
 20
-47.9016144488
 11
374.6567742348
 21
-52.9016144488
  0
LINE
  8
5
  6
CONTINUOUS
 62
6
 10
389.6567742348
 20
-47.9016144488
 11
389.6567742348
 21
-52.9016144488
  0
TEXT
  8
5
  6
CONTINUOUS
 62
7
 10
309.856774
 20
-51.551614
 40
2.300000
  1
項番
 41
0.921659
 50
0.000000
 51
0.000000
 72
   5
 73
   0
 11
314.456774
 21
-51.551614
  0
TEXT
  8
5
  6
CONTINUOUS
 62
7
 10
319.664774
 20
-51.901614
 40
3.000000
  1
品　　名
 41
0.737916
 50
0.000000
 51
0.000000
 72
   5
 73
   0
 11
329.648774
 21
-51.901614
  0
TEXT
  8
5
  6
CONTINUOUS
 62
7
 10
339.503774
 20
-51.901614
 40
3.000000
  1
定  格 / 型  番 / 材　質
 41
0.686277
 50
0.000000
 51
0.000000
 72
   5
 73
   0
 11
369.809774
 21
-51.901614
  0
TEXT
  8
5
  6
CONTINUOUS
 62
7
 10
376.959274
 20
-51.901614
 40
3.000000
  1
メーカー
 41
0.768293
 50
0.000000
 51
0.000000
 72
   5
 73
   0
 11
387.354274
 21
-51.901614
  0
TEXT
  8
5
  6
CONTINUOUS
 62
7
 10
389.856774
 20
-51.551614
 40
2.300000
  1
数量
 41
0.921659
 50
0.000000
 51
0.000000
 72
   5
 73
   0
 11
394.456774
 21
-51.551614
  0
LINE
  8
5
  6
CONTINUOUS
 62
6
 10
309.6567742348
 20
-57.9016144488
 11
309.6567742348
 21
-52.9016144488
  0
LINE
  8
5
  6
CONTINUOUS
 62
6
 10
309.6567742348
 20
-52.9016144488
 11
314.6567742348
 21
-52.9016144488
  0
LINE
  8
5
  6
CONTINUOUS
 62
6
 10
314.6567742348
 20
-52.9016144488
 11
334.6567742348
 21
-52.9016144488
  0
LINE
  8
5
  6
CONTINUOUS
 62
6
 10
334.6567742348
 20
-52.9016144488
 11
374.6567742348
 21
-52.9016144488
  0
LINE
  8
5
  6
CONTINUOUS
 62
6
 10
374.6567742348
 20
-52.9016144488
 11
389.6567742348
 21
-52.9016144488
  0
LINE
  8
5
  6
CONTINUOUS
 62
6
 10
389.6567742348
 20
-52.9016144488
 11
394.6567742348
 21
-52.9016144488
  0
LINE
  8
5
  6
CONTINUOUS
 62
6
 10
394.6567742348
 20
-52.9016144488
 11
394.6567742348
 21
-57.9016144488
  0
LINE
  8
5
  6
CONTINUOUS
 62
6
 10
394.6567742348
 20
-57.9016144488
 11
389.6567742348
 21
-57.9016144488
  0
LINE
  8
5
  6
CONTINUOUS
 62
6
 10
389.6567742348
 20
-57.9016144488
 11
374.6567742348
 21
-57.9016144488
  0
LINE
  8
5
  6
CONTINUOUS
 62
6
 10
334.6567742348
 20
-57.9016144488
 11
314.6567742348
 21
-57.9016144488
  0
LINE
  8
5
  6
CONTINUOUS
 62
6
 10
314.6567742348
 20
-57.9016144488
 11
309.6567742348
 21
-57.9016144488
  0
LINE
  8
5
  6
CONTINUOUS
 62
6
 10
314.6567742348
 20
-52.9016144488
 11
314.6567742348
 21
-57.9016144488
  0
LINE
  8
5
  6
CONTINUOUS
 62
6
 10
334.6567742348
 20
-52.9016144488
 11
334.6567742348
 21
-57.9016144488
  0
LINE
  8
5
  6
CONTINUOUS
 62
6
 10
374.6567742348
 20
-52.9016144488
 11
374.6567742348
 21
-57.9016144488
  0
LINE
  8
5
  6
CONTINUOUS
 62
6
 10
389.6567742348
 20
-52.9016144488
 11
389.6567742348
 21
-57.9016144488
  0
TEXT
  8
5
  6
CONTINUOUS
 62
7
 10
310.656774
 20
-56.901614
 40
3.000000
  1
91
 41
0.854701
 50
0.000000
 51
0.000000
 72
   5
 73
   0
 11
313.656774
 21
-56.901614
  0
TEXT
  8
5
  6
CONTINUOUS
 62
7
 10
315.656774
 20
-56.901614
 40
3.000000
  1
ﾊﾟﾈﾙ
 41
0.865339
 50
0.000000
 51
0.000000
 72
   5
 73
   0
 11
322.172774
 21
-56.901614
  0
TEXT
  8
5
  6
CONTINUOUS
 62
7
 10
335.656774
 20
-57.151614
 40
3.500000
  1
M0051B0562A (AC穴無)
 41
0.775795
 50
0.000000
 51
0.000000
 72
   5
 73
   0
 11
370.656774
 21
-57.151614
  0
TEXT
  8
5
  6
CONTINUOUS
 62
7
 10
391.281774
 20
-57.151614
 40
3.500000
  1
1
 41
1.000000
 50
0.000000
 51
0.000000
 72
   5
 73
   0
 11
393.031774
 21
-57.151614
  0
LINE
  8
5
  6
CONTINUOUS
 62
6
 10
394.6567742348
 20
-62.9016144488
 11
389.6567742348
 21
-62.9016144488
  0
LINE
  8
5
  6
CONTINUOUS
 62
6
 10
389.6567742348
 20
-62.9016144488
 11
374.6567742348
 21
-62.9016144488
  0
LINE
  8
5
  6
CONTINUOUS
 62
6
 10
374.6567742348
 20
-62.9016144488
 11
334.6567742348
 21
-62.9016144488
  0
LINE
  8
5
  6
CONTINUOUS
 62
6
 10
334.6567742348
 20
-62.9016144488
 11
314.6567742348
 21
-62.9016144488
  0
LINE
  8
5
  6
CONTINUOUS
 62
6
 10
314.6567742348
 20
-62.9016144488
 11
309.6567742348
 21
-62.9016144488
  0
LINE
  8
5
  6
CONTINUOUS
 62
6
 10
309.6567742348
 20
-62.9016144488
 11
309.6567742348
 21
-57.9016144488
  0
LINE
  8
5
  6
CONTINUOUS
 62
6
 10
309.6567742348
 20
-67.9016144488
 11
309.6567742348
 21
-62.9016144488
  0
LINE
  8
5
  6
CONTINUOUS
 62
6
 10
314.6567742348
 20
-57.9016144488
 11
314.6567742348
 21
-62.9016144488
  0
LINE
  8
5
  6
CONTINUOUS
 62
6
 10
314.6567742348
 20
-62.9016144488
 11
314.6567742348
 21
-67.9016144488
  0
LINE
  8
5
  6
CONTINUOUS
 62
6
 10
334.6567742348
 20
-57.9016144488
 11
334.6567742348
 21
-62.9016144488
  0
LINE
  8
5
  6
CONTINUOUS
 62
6
 10
334.6567742348
 20
-62.9016144488
 11
334.6567742348
 21
-67.9016144488
  0
LINE
  8
5
  6
CONTINUOUS
 62
6
 10
374.6567742348
 20
-57.9016144488
 11
374.6567742348
 21
-62.9016144488
  0
LINE
  8
5
  6
CONTINUOUS
 62
6
 10
374.6567742348
 20
-62.9016144488
 11
374.6567742348
 21
-67.9016144488
  0
LINE
  8
5
  6
CONTINUOUS
 62
6
 10
389.6567742348
 20
-57.9016144488
 11
389.6567742348
 21
-62.9016144488
  0
LINE
  8
5
  6
CONTINUOUS
 62
6
 10
389.6567742348
 20
-62.9016144488
 11
389.6567742348
 21
-67.9016144488
  0
LINE
  8
5
  6
CONTINUOUS
 62
6
 10
394.6567742348
 20
-57.9016144488
 11
394.6567742348
 21
-62.9016144488
  0
LINE
  8
5
  6
CONTINUOUS
 62
6
 10
394.6567742348
 20
-62.9016144488
 11
394.6567742348
 21
-67.9016144488
  0
LINE
  8
5
  6
CONTINUOUS
 62
6
 10
12.2490435001
 20
-59.4655230621
 11
12.2490435001
 21
-34.4655230621
  0
LINE
  8
5
  6
CONTINUOUS
 62
6
 10
24.2490435001
 20
-59.4655230621
 11
24.2490435001
 21
-34.4655230621
  0
LINE
  8
5
  6
CONTINUOUS
 62
6
 10
88.7490435001
 20
-59.4655230621
 11
88.7490435001
 21
-34.4655230621
  0
LINE
  8
5
  6
CONTINUOUS
 62
6
 10
97.7490435001
 20
-34.4655230621
 11
97.7490435001
 21
-59.4655230621
  0
TEXT
  8
5
  6
CONTINUOUS
 62
6
 10
15.283544
 20
-58.465523
 40
3.000000
  1
Date
 41
0.787649
 50
0.000000
 51
0.000000
 72
   5
 73
   0
 11
21.214544
 21
-58.465523
  0
TEXT
  8
5
  6
CONTINUOUS
 62
6
 10
5.041544
 20
-58.465523
 40
3.000000
  1
Rev.
 41
0.719124
 50
0.000000
 51
0.000000
 72
   5
 73
   0
 11
10.456544
 21
-58.465523
  0
TEXT
  8
5
  6
CONTINUOUS
 62
6
 10
25.749044
 20
-58.465523
 40
3.000000
  1
Content
 41
0.746681
 50
0.000000
 51
0.000000
 72
   5
 73
   0
 11
35.874044
 21
-58.465523
  0
TEXT
  8
5
  6
CONTINUOUS
 62
6
 10
89.721044
 20
-58.465523
 40
3.000000
  1
Name
 41
0.937052
 50
0.000000
 51
0.000000
 72
   5
 73
   0
 11
96.777044
 21
-58.465523
  0
LINE
  8
5
  6
CONTINUOUS
 62
6
 10
3.2490435001
 20
-54.4655230621
 11
97.7490435001
 21
-54.4655230621
  0
LINE
  8
5
  6
CONTINUOUS
 62
6
 10
3.2490435001
 20
-49.4655230621
 11
97.7490435001
 21
-49.4655230621
  0
LINE
  8
5
  6
CONTINUOUS
 62
6
 10
3.2490435001
 20
-44.4655230621
 11
97.7490435001
 21
-44.4655230621
  0
LINE
  8
5
  6
CONTINUOUS
 62
6
 10
3.2490435001
 20
-39.4655230621
 11
97.7490435001
 21
-39.4655230621
  0
LINE
  8
5
  6
CONTINUOUS
 62
6
 10
3.2490435001
 20
-59.4655230621
 11
97.7490435001
 21
-59.4655230621
  0
POINT
  8
5
  6
CONTINUOUS
 62
6
 10
7.7490435001
 20
-51.9655230621
  0
POINT
  8
5
  6
CONTINUOUS
 62
6
 10
7.7490435001
 20
-46.9655230621
  0
POINT
  8
5
  6
CONTINUOUS
 62
6
 10
7.7490435001
 20
-41.9655230621
  0
POINT
  8
5
  6
CONTINUOUS
 62
6
 10
7.7490435001
 20
-36.9655230621
  0
POINT
  8
5
  6
CONTINUOUS
 62
6
 10
18.2490435001
 20
-36.9655230621
  0
POINT
  8
5
  6
CONTINUOUS
 62
6
 10
18.2490435001
 20
-41.9655230621
  0
POINT
  8
5
  6
CONTINUOUS
 62
6
 10
18.2490435001
 20
-46.9655230621
  0
POINT
  8
5
  6
CONTINUOUS
 62
6
 10
18.2490435001
 20
-51.9655230621
  0
POINT
  8
5
  6
CONTINUOUS
 62
6
 10
93.2490435001
 20
-51.9655230621
  0
POINT
  8
5
  6
CONTINUOUS
 62
6
 10
93.2490435001
 20
-46.9655230621
  0
POINT
  8
5
  6
CONTINUOUS
 62
6
 10
93.2490435001
 20
-41.9655230621
  0
POINT
  8
5
  6
CONTINUOUS
 62
6
 10
93.2490435001
 20
-36.9655230621
  0
POINT
  8
5
  6
CONTINUOUS
 62
6
 10
24.2490435001
 20
-36.9655230621
  0
POINT
  8
5
  6
CONTINUOUS
 62
6
 10
24.2490435001
 20
-41.9655230621
  0
POINT
  8
5
  6
CONTINUOUS
 62
6
 10
24.2490435001
 20
-46.9655230621
  0
POINT
  8
5
  6
CONTINUOUS
 62
6
 10
24.2490435001
 20
-51.9655230621
  0
LINE
  8
5
  6
CONTINUOUS
 62
6
 10
299.6567742348
 20
-52.9016144488
 11
299.6567742348
 21
-47.9016144488
  0
LINE
  8
5
  6
CONTINUOUS
 62
6
 10
299.6567742348
 20
-47.9016144488
 11
309.6567742348
 21
-47.9016144488
  0
LINE
  8
5
  6
CONTINUOUS
 62
6
 10
309.6567742348
 20
-52.9016144488
 11
304.6567742348
 21
-52.9016144488
  0
LINE
  8
5
  6
CONTINUOUS
 62
6
 10
309.6567742348
 20
-47.9016144488
 11
309.6567742348
 21
-52.9016144488
  0
TEXT
  8
5
  6
CONTINUOUS
 62
7
 10
302.194993
 20
-51.901614
 40
3.000000
  1
型番
 41
0.921659
 50
0.000000
 51
0.000000
 72
   5
 73
   0
 11
308.194993
 21
-51.901614
  0
LINE
  8
5
  6
CONTINUOUS
 62
6
 10
299.6567742348
 20
-57.9016144488
 11
299.6567742348
 21
-52.9016144488
  0
LINE
  8
5
  6
CONTINUOUS
 62
6
 10
299.6567742348
 20
-52.9016144488
 11
309.6567742348
 21
-52.9016144488
  0
LINE
  8
5
  6
CONTINUOUS
 62
6
 10
309.6567742348
 20
-52.9016144488
 11
309.6567742348
 21
-57.9016144488
  0
TEXT
  8
5
  6
CONTINUOUS
 62
7
 10
303.194993
 20
-57.401614
 40
4.000000
  1
A2
 41
0.854701
 50
0.000000
 51
0.000000
 72
   5
 73
   0
 11
307.194993
 21
-57.401614
  0
LINE
  8
5
  6
CONTINUOUS
 62
6
 10
299.6567742348
 20
-62.9016144488
 11
299.6567742348
 21
-57.9016144488
  0
LINE
  8
5
  6
CONTINUOUS
 62
6
 10
299.6567742348
 20
-67.9016144488
 11
299.6567742348
 21
-62.9016144488
  0
LINE
  8
5
  6
CONTINUOUS
 62
6
 10
309.6567742348
 20
-57.9016144488
 11
309.6567742348
 21
-62.9016144488
  0
LINE
  8
5
  6
CONTINUOUS
 62
6
 10
309.6567742348
 20
-62.9016144488
 11
309.6567742348
 21
-67.9016144488
  0
LINE
  8
5
  6
CONTINUOUS
 62
6
 10
394.6567742348
 20
-67.9016144488
 11
389.6567742348
 21
-67.9016144488
  0
LINE
  8
5
  6
CONTINUOUS
 62
6
 10
389.6567742348
 20
-67.9016144488
 11
374.6567742348
 21
-67.9016144488
  0
LINE
  8
5
  6
CONTINUOUS
 62
6
 10
374.6567742348
 20
-67.9016144488
 11
334.6567742348
 21
-67.9016144488
  0
LINE
  8
5
  6
CONTINUOUS
 62
6
 10
334.6567742348
 20
-67.9016144488
 11
314.6567742348
 21
-67.9016144488
  0
LINE
  8
5
  6
CONTINUOUS
 62
6
 10
314.6567742348
 20
-67.9016144488
 11
309.6567742348
 21
-67.9016144488
  0
LINE
  8
5
  6
CONTINUOUS
 62
6
 10
309.6567742348
 20
-67.9016144488
 11
299.6567742348
 21
-67.9016144488
  0
TEXT
  8
5
  6
CONTINUOUS
 62
7
 10
375.656774
 20
-56.901614
 40
3.000000
  1
MADOKA
 41
1.028831
 50
0.000000
 51
0.000000
 72
   5
 73
   0
 11
387.539774
 21
-56.901614
  0
LINE
  8
5
  6
CONTINUOUS
 62
6
 10
309.6567742348
 20
-154.3107273405
 11
309.6567742348
 21
-149.3107273405
  0
LINE
  8
5
  6
CONTINUOUS
 62
6
 10
309.6567742348
 20
-149.3107273405
 11
314.6567742348
 21
-149.3107273405
  0
LINE
  8
5
  6
CONTINUOUS
 62
6
 10
314.6567742348
 20
-149.3107273405
 11
334.6567742348
 21
-149.3107273405
  0
LINE
  8
5
  6
CONTINUOUS
 62
6
 10
334.6567742348
 20
-149.3107273405
 11
374.6567742348
 21
-149.3107273405
  0
LINE
  8
5
  6
CONTINUOUS
 62
6
 10
374.6567742348
 20
-149.3107273405
 11
389.6567742348
 21
-149.3107273405
  0
LINE
  8
5
  6
CONTINUOUS
 62
6
 10
389.6567742348
 20
-149.3107273405
 11
394.6567742348
 21
-149.3107273405
  0
LINE
  8
5
  6
CONTINUOUS
 62
6
 10
394.6567742348
 20
-149.3107273405
 11
394.6567742348
 21
-154.3107273405
  0
LINE
  8
5
  6
CONTINUOUS
 62
6
 10
394.6567742348
 20
-154.3107273405
 11
389.6567742348
 21
-154.3107273405
  0
LINE
  8
5
  6
CONTINUOUS
 62
6
 10
389.6567742348
 20
-154.3107273405
 11
374.6567742348
 21
-154.3107273405
  0
LINE
  8
5
  6
CONTINUOUS
 62
6
 10
374.6567742348
 20
-154.3107273405
 11
334.6567742348
 21
-154.3107273405
  0
LINE
  8
5
  6
CONTINUOUS
 62
6
 10
334.6567742348
 20
-154.3107273405
 11
314.6567742348
 21
-154.3107273405
  0
LINE
  8
5
  6
CONTINUOUS
 62
6
 10
314.6567742348
 20
-154.3107273405
 11
309.6567742348
 21
-154.3107273405
  0
LINE
  8
5
  6
CONTINUOUS
 62
6
 10
314.6567742348
 20
-149.3107273405
 11
314.6567742348
 21
-154.3107273405
  0
LINE
  8
5
  6
CONTINUOUS
 62
6
 10
334.6567742348
 20
-149.3107273405
 11
334.6567742348
 21
-154.3107273405
  0
LINE
  8
5
  6
CONTINUOUS
 62
6
 10
374.6567742348
 20
-149.3107273405
 11
374.6567742348
 21
-154.3107273405
  0
LINE
  8
5
  6
CONTINUOUS
 62
6
 10
389.6567742348
 20
-149.3107273405
 11
389.6567742348
 21
-154.3107273405
  0
TEXT
  8
5
  6
CONTINUOUS
 62
7
 10
309.856774
 20
-152.960727
 40
2.300000
  1
項番
 41
0.921659
 50
0.000000
 51
0.000000
 72
   5
 73
   0
 11
314.456774
 21
-152.960727
  0
TEXT
  8
5
  6
CONTINUOUS
 62
7
 10
319.664774
 20
-153.310727
 40
3.000000
  1
品　　名
 41
0.737916
 50
0.000000
 51
0.000000
 72
   5
 73
   0
 11
329.648774
 21
-153.310727
  0
TEXT
  8
5
  6
CONTINUOUS
 62
7
 10
339.503774
 20
-153.310727
 40
3.000000
  1
定  格 / 型  番 / 材　質
 41
0.686277
 50
0.000000
 51
0.000000
 72
   5
 73
   0
 11
369.809774
 21
-153.310727
  0
TEXT
  8
5
  6
CONTINUOUS
 62
7
 10
376.959274
 20
-153.310727
 40
3.000000
  1
メーカー
 41
0.768293
 50
0.000000
 51
0.000000
 72
   5
 73
   0
 11
387.354274
 21
-153.310727
  0
TEXT
  8
5
  6
CONTINUOUS
 62
7
 10
389.856774
 20
-152.960727
 40
2.300000
  1
数量
 41
0.921659
 50
0.000000
 51
0.000000
 72
   5
 73
   0
 11
394.456774
 21
-152.960727
  0
LINE
  8
5
  6
CONTINUOUS
 62
6
 10
309.6567742348
 20
-159.3107273405
 11
309.6567742348
 21
-154.3107273405
  0
LINE
  8
5
  6
CONTINUOUS
 62
6
 10
309.6567742348
 20
-154.3107273405
 11
314.6567742348
 21
-154.3107273405
  0
LINE
  8
5
  6
CONTINUOUS
 62
6
 10
314.6567742348
 20
-154.3107273405
 11
334.6567742348
 21
-154.3107273405
  0
LINE
  8
5
  6
CONTINUOUS
 62
6
 10
334.6567742348
 20
-154.3107273405
 11
374.6567742348
 21
-154.3107273405
  0
LINE
  8
5
  6
CONTINUOUS
 62
6
 10
374.6567742348
 20
-154.3107273405
 11
389.6567742348
 21
-154.3107273405
  0
LINE
  8
5
  6
CONTINUOUS
 62
6
 10
389.6567742348
 20
-154.3107273405
 11
394.6567742348
 21
-154.3107273405
  0
LINE
  8
5
  6
CONTINUOUS
 62
6
 10
394.6567742348
 20
-154.3107273405
 11
394.6567742348
 21
-159.3107273405
  0
LINE
  8
5
  6
CONTINUOUS
 62
6
 10
394.6567742348
 20
-159.3107273405
 11
389.6567742348
 21
-159.3107273405
  0
LINE
  8
5
  6
CONTINUOUS
 62
6
 10
389.6567742348
 20
-159.3107273405
 11
374.6567742348
 21
-159.3107273405
  0
LINE
  8
5
  6
CONTINUOUS
 62
6
 10
374.6567742348
 20
-159.3107273405
 11
334.6567742348
 21
-159.3107273405
  0
LINE
  8
5
  6
CONTINUOUS
 62
6
 10
334.6567742348
 20
-159.3107273405
 11
314.6567742348
 21
-159.3107273405
  0
LINE
  8
5
  6
CONTINUOUS
 62
6
 10
314.6567742348
 20
-159.3107273405
 11
309.6567742348
 21
-159.3107273405
  0
LINE
  8
5
  6
CONTINUOUS
 62
6
 10
314.6567742348
 20
-154.3107273405
 11
314.6567742348
 21
-159.3107273405
  0
LINE
  8
5
  6
CONTINUOUS
 62
6
 10
334.6567742348
 20
-154.3107273405
 11
334.6567742348
 21
-159.3107273405
  0
LINE
  8
5
  6
CONTINUOUS
 62
6
 10
374.6567742348
 20
-154.3107273405
 11
374.6567742348
 21
-159.3107273405
  0
LINE
  8
5
  6
CONTINUOUS
 62
6
 10
389.6567742348
 20
-154.3107273405
 11
389.6567742348
 21
-159.3107273405
  0
TEXT
  8
5
  6
CONTINUOUS
 62
7
 10
309.906774
 20
-158.310727
 40
3.000000
  1
101
 41
0.815217
 50
0.000000
 51
0.000000
 72
   5
 73
   0
 11
314.406774
 21
-158.310727
  0
TEXT
  8
5
  6
CONTINUOUS
 62
7
 10
315.656774
 20
-158.310727
 40
3.000000
  1
ﾌﾞﾗﾝｸﾍﾞｾﾞﾙ
 41
0.745942
 50
0.000000
 51
0.000000
 72
   5
 73
   0
 11
330.269774
 21
-158.310727
  0
TEXT
  8
5
  6
CONTINUOUS
 62
7
 10
335.656774
 20
-158.810727
 40
4.000000
  1
NW-073-FBK-IV
 41
0.761124
 50
0.000000
 51
0.000000
 72
   5
 73
   0
 11
361.656774
 21
-158.810727
  0
TEXT
  8
5
  6
CONTINUOUS
 62
7
 10
391.281774
 20
-158.560727
 40
3.500000
  1
1
 41
1.000000
 50
0.000000
 51
0.000000
 72
   5
 73
   0
 11
393.031774
 21
-158.560727
  0
LINE
  8
5
  6
CONTINUOUS
 62
6
 10
394.6567742348
 20
-164.3107273405
 11
389.6567742348
 21
-164.3107273405
  0
LINE
  8
5
  6
CONTINUOUS
 62
6
 10
389.6567742348
 20
-164.3107273405
 11
374.6567742348
 21
-164.3107273405
  0
LINE
  8
5
  6
CONTINUOUS
 62
6
 10
374.6567742348
 20
-164.3107273405
 11
334.6567742348
 21
-164.3107273405
  0
LINE
  8
5
  6
CONTINUOUS
 62
6
 10
334.6567742348
 20
-164.3107273405
 11
314.6567742348
 21
-164.3107273405
  0
LINE
  8
5
  6
CONTINUOUS
 62
6
 10
314.6567742348
 20
-164.3107273405
 11
309.6567742348
 21
-164.3107273405
  0
TEXT
  8
5
  6
CONTINUOUS
 62
7
 10
310.656774
 20
-163.310727
 40
3.000000
  1
--
 41
0.854701
 50
0.000000
 51
0.000000
 72
   5
 73
   0
 11
313.656774
 21
-163.310727
  0
TEXT
  8
5
  6
CONTINUOUS
 62
7
 10
310.656774
 20
-168.310727
 40
3.000000
  1
--
 41
0.854701
 50
0.000000
 51
0.000000
 72
   5
 73
   0
 11
313.656774
 21
-168.310727
  0
TEXT
  8
5
  6
CONTINUOUS
 62
7
 10
315.656774
 20
-163.060727
 40
2.500000
  1
--
 41
0.854701
 50
0.000000
 51
0.000000
 72
   5
 73
   0
 11
318.156774
 21
-163.060727
  0
TEXT
  8
5
  6
CONTINUOUS
 62
7
 10
315.656774
 20
-168.310727
 40
3.000000
  1
--
 41
0.854701
 50
0.000000
 51
0.000000
 72
   5
 73
   0
 11
318.656774
 21
-168.310727
  0
TEXT
  8
5
  6
CONTINUOUS
 62
7
 10
335.656774
 20
-168.310727
 40
3.000000
  1
--
 41
0.854701
 50
0.000000
 51
0.000000
 72
   5
 73
   0
 11
338.656774
 21
-168.310727
  0
TEXT
  8
5
  6
CONTINUOUS
 62
7
 10
390.406774
 20
-163.560727
 40
3.500000
  1
--
 41
0.854701
 50
0.000000
 51
0.000000
 72
   5
 73
   0
 11
393.906774
 21
-163.560727
  0
TEXT
  8
5
  6
CONTINUOUS
 62
7
 10
390.406774
 20
-168.560727
 40
3.500000
  1
--
 41
0.854701
 50
0.000000
 51
0.000000
 72
   5
 73
   0
 11
393.906774
 21
-168.560727
  0
LINE
  8
5
  6
CONTINUOUS
 62
6
 10
309.6567742348
 20
-164.3107273405
 11
309.6567742348
 21
-159.3107273405
  0
LINE
  8
5
  6
CONTINUOUS
 62
6
 10
309.6567742348
 20
-169.3107273405
 11
309.6567742348
 21
-164.3107273405
  0
LINE
  8
5
  6
CONTINUOUS
 62
6
 10
314.6567742348
 20
-159.3107273405
 11
314.6567742348
 21
-164.3107273405
  0
LINE
  8
5
  6
CONTINUOUS
 62
6
 10
314.6567742348
 20
-164.3107273405
 11
314.6567742348
 21
-169.3107273405
  0
LINE
  8
5
  6
CONTINUOUS
 62
6
 10
334.6567742348
 20
-159.3107273405
 11
334.6567742348
 21
-164.3107273405
  0
LINE
  8
5
  6
CONTINUOUS
 62
6
 10
334.6567742348
 20
-164.3107273405
 11
334.6567742348
 21
-169.3107273405
  0
LINE
  8
5
  6
CONTINUOUS
 62
6
 10
374.6567742348
 20
-159.3107273405
 11
374.6567742348
 21
-164.3107273405
  0
LINE
  8
5
  6
CONTINUOUS
 62
6
 10
374.6567742348
 20
-164.3107273405
 11
374.6567742348
 21
-169.3107273405
  0
LINE
  8
5
  6
CONTINUOUS
 62
6
 10
389.6567742348
 20
-159.3107273405
 11
389.6567742348
 21
-164.3107273405
  0
LINE
  8
5
  6
CONTINUOUS
 62
6
 10
389.6567742348
 20
-164.3107273405
 11
389.6567742348
 21
-169.3107273405
  0
LINE
  8
5
  6
CONTINUOUS
 62
6
 10
394.6567742348
 20
-159.3107273405
 11
394.6567742348
 21
-164.3107273405
  0
LINE
  8
5
  6
CONTINUOUS
 62
6
 10
394.6567742348
 20
-164.3107273405
 11
394.6567742348
 21
-169.3107273405
  0
TEXT
  8
5
  6
CONTINUOUS
 62
7
 10
335.656774
 20
-163.810727
 40
4.000000
  1
--
 41
0.854701
 50
0.000000
 51
0.000000
 72
   5
 73
   0
 11
339.656774
 21
-163.810727
  0
LINE
  8
5
  6
CONTINUOUS
 62
6
 10
299.6567742348
 20
-154.3107273405
 11
299.6567742348
 21
-149.3107273406
  0
LINE
  8
5
  6
CONTINUOUS
 62
6
 10
299.6567742348
 20
-149.3107273406
 11
309.6567742348
 21
-149.3107273405
  0
LINE
  8
5
  6
CONTINUOUS
 62
6
 10
309.6567742348
 20
-154.3107273405
 11
304.6567742348
 21
-154.3107273405
  0
LINE
  8
5
  6
CONTINUOUS
 62
6
 10
309.6567742348
 20
-149.3107273405
 11
309.6567742348
 21
-154.3107273405
  0
TEXT
  8
5
  6
CONTINUOUS
 62
7
 10
302.194993
 20
-153.310727
 40
3.000000
  1
型番
 41
0.921659
 50
0.000000
 51
0.000000
 72
   5
 73
   0
 11
308.194993
 21
-153.310727
  0
LINE
  8
5
  6
CONTINUOUS
 62
6
 10
299.6567742348
 20
-159.3107273405
 11
299.6567742348
 21
-154.3107273405
  0
LINE
  8
5
  6
CONTINUOUS
 62
6
 10
299.6567742348
 20
-154.3107273405
 11
309.6567742348
 21
-154.3107273405
  0
LINE
  8
5
  6
CONTINUOUS
 62
6
 10
309.6567742348
 20
-154.3107273405
 11
309.6567742348
 21
-159.3107273405
  0
TEXT
  8
5
  6
CONTINUOUS
 62
7
 10
302.944993
 20
-158.810727
 40
4.000000
  1
R0
 41
0.961538
 50
0.000000
 51
0.000000
 72
   5
 73
   0
 11
307.444993
 21
-158.810727
  0
LINE
  8
5
  6
CONTINUOUS
 62
6
 10
299.6567742348
 20
-164.3107273405
 11
299.6567742348
 21
-159.3107273405
  0
LINE
  8
5
  6
CONTINUOUS
 62
6
 10
299.6567742348
 20
-169.3107273405
 11
299.6567742348
 21
-164.3107273405
  0
LINE
  8
5
  6
CONTINUOUS
 62
6
 10
309.6567742348
 20
-159.3107273405
 11
309.6567742348
 21
-164.3107273405
  0
LINE
  8
5
  6
CONTINUOUS
 62
6
 10
309.6567742348
 20
-164.3107273405
 11
309.6567742348
 21
-169.3107273405
  0
LINE
  8
5
  6
CONTINUOUS
 62
6
 10
394.6567742348
 20
-169.3107273405
 11
389.6567742348
 21
-169.3107273405
  0
LINE
  8
5
  6
CONTINUOUS
 62
6
 10
389.6567742348
 20
-169.3107273405
 11
374.6567742348
 21
-169.3107273405
  0
LINE
  8
5
  6
CONTINUOUS
 62
6
 10
374.6567742348
 20
-169.3107273405
 11
334.6567742348
 21
-169.3107273405
  0
LINE
  8
5
  6
CONTINUOUS
 62
6
 10
334.6567742348
 20
-169.3107273405
 11
314.6567742348
 21
-169.3107273405
  0
LINE
  8
5
  6
CONTINUOUS
 62
6
 10
314.6567742348
 20
-169.3107273405
 11
309.6567742348
 21
-169.3107273405
  0
LINE
  8
5
  6
CONTINUOUS
 62
6
 10
309.6567742348
 20
-169.3107273405
 11
299.6567742348
 21
-169.3107273405
  0
LINE
  8
5
  6
CONTINUOUS
 62
6
 10
309.6567742348
 20
-176.8107273405
 11
309.6567742348
 21
-171.8107273405
  0
LINE
  8
5
  6
CONTINUOUS
 62
6
 10
309.6567742348
 20
-171.8107273405
 11
314.6567742348
 21
-171.8107273405
  0
LINE
  8
5
  6
CONTINUOUS
 62
6
 10
314.6567742348
 20
-171.8107273405
 11
334.6567742348
 21
-171.8107273405
  0
LINE
  8
5
  6
CONTINUOUS
 62
6
 10
334.6567742348
 20
-171.8107273405
 11
374.6567742348
 21
-171.8107273405
  0
LINE
  8
5
  6
CONTINUOUS
 62
6
 10
374.6567742348
 20
-171.8107273405
 11
389.6567742348
 21
-171.8107273405
  0
LINE
  8
5
  6
CONTINUOUS
 62
6
 10
389.6567742348
 20
-171.8107273405
 11
394.6567742348
 21
-171.8107273405
  0
LINE
  8
5
  6
CONTINUOUS
 62
6
 10
394.6567742348
 20
-171.8107273405
 11
394.6567742348
 21
-176.8107273405
  0
LINE
  8
5
  6
CONTINUOUS
 62
6
 10
394.6567742348
 20
-176.8107273405
 11
389.6567742348
 21
-176.8107273405
  0
LINE
  8
5
  6
CONTINUOUS
 62
6
 10
389.6567742348
 20
-176.8107273405
 11
374.6567742348
 21
-176.8107273405
  0
LINE
  8
5
  6
CONTINUOUS
 62
6
 10
374.6567742348
 20
-176.8107273405
 11
334.6567742348
 21
-176.8107273405
  0
LINE
  8
5
  6
CONTINUOUS
 62
6
 10
334.6567742348
 20
-176.8107273405
 11
314.6567742348
 21
-176.8107273405
  0
LINE
  8
5
  6
CONTINUOUS
 62
6
 10
314.6567742348
 20
-176.8107273405
 11
309.6567742348
 21
-176.8107273405
  0
LINE
  8
5
  6
CONTINUOUS
 62
6
 10
314.6567742348
 20
-171.8107273405
 11
314.6567742348
 21
-176.8107273405
  0
LINE
  8
5
  6
CONTINUOUS
 62
6
 10
334.6567742348
 20
-171.8107273405
 11
334.6567742348
 21
-176.8107273405
  0
LINE
  8
5
  6
CONTINUOUS
 62
6
 10
374.6567742348
 20
-171.8107273405
 11
374.6567742348
 21
-176.8107273405
  0
LINE
  8
5
  6
CONTINUOUS
 62
6
 10
389.6567742348
 20
-171.8107273405
 11
389.6567742348
 21
-176.8107273405
  0
TEXT
  8
5
  6
CONTINUOUS
 62
7
 10
309.856774
 20
-175.460727
 40
2.300000
  1
項番
 41
0.921659
 50
0.000000
 51
0.000000
 72
   5
 73
   0
 11
314.456774
 21
-175.460727
  0
TEXT
  8
5
  6
CONTINUOUS
 62
7
 10
319.664774
 20
-175.810727
 40
3.000000
  1
品　　名
 41
0.737916
 50
0.000000
 51
0.000000
 72
   5
 73
   0
 11
329.648774
 21
-175.810727
  0
TEXT
  8
5
  6
CONTINUOUS
 62
7
 10
339.503774
 20
-175.810727
 40
3.000000
  1
定  格 / 型  番 / 材　質
 41
0.686277
 50
0.000000
 51
0.000000
 72
   5
 73
   0
 11
369.809774
 21
-175.810727
  0
TEXT
  8
5
  6
CONTINUOUS
 62
7
 10
376.959274
 20
-175.810727
 40
3.000000
  1
メーカー
 41
0.768293
 50
0.000000
 51
0.000000
 72
   5
 73
   0
 11
387.354274
 21
-175.810727
  0
TEXT
  8
5
  6
CONTINUOUS
 62
7
 10
389.856774
 20
-175.460727
 40
2.300000
  1
数量
 41
0.921659
 50
0.000000
 51
0.000000
 72
   5
 73
   0
 11
394.456774
 21
-175.460727
  0
LINE
  8
5
  6
CONTINUOUS
 62
6
 10
309.6567742348
 20
-181.8107273405
 11
309.6567742348
 21
-176.8107273405
  0
LINE
  8
5
  6
CONTINUOUS
 62
6
 10
309.6567742348
 20
-176.8107273405
 11
314.6567742348
 21
-176.8107273405
  0
LINE
  8
5
  6
CONTINUOUS
 62
6
 10
314.6567742348
 20
-176.8107273405
 11
334.6567742348
 21
-176.8107273405
  0
LINE
  8
5
  6
CONTINUOUS
 62
6
 10
334.6567742348
 20
-176.8107273405
 11
374.6567742348
 21
-176.8107273405
  0
LINE
  8
5
  6
CONTINUOUS
 62
6
 10
374.6567742348
 20
-176.8107273405
 11
389.6567742348
 21
-176.8107273405
  0
LINE
  8
5
  6
CONTINUOUS
 62
6
 10
389.6567742348
 20
-176.8107273405
 11
394.6567742348
 21
-176.8107273405
  0
LINE
  8
5
  6
CONTINUOUS
 62
6
 10
394.6567742348
 20
-176.8107273405
 11
394.6567742348
 21
-181.8107273405
  0
LINE
  8
5
  6
CONTINUOUS
 62
6
 10
394.6567742348
 20
-181.8107273405
 11
389.6567742348
 21
-181.8107273405
  0
LINE
  8
5
  6
CONTINUOUS
 62
6
 10
389.6567742348
 20
-181.8107273405
 11
374.6567742348
 21
-181.8107273405
  0
LINE
  8
5
  6
CONTINUOUS
 62
6
 10
374.6567742348
 20
-181.8107273405
 11
334.6567742348
 21
-181.8107273405
  0
LINE
  8
5
  6
CONTINUOUS
 62
6
 10
334.6567742348
 20
-181.8107273405
 11
314.6567742348
 21
-181.8107273405
  0
LINE
  8
5
  6
CONTINUOUS
 62
6
 10
314.6567742348
 20
-181.8107273405
 11
309.6567742348
 21
-181.8107273405
  0
LINE
  8
5
  6
CONTINUOUS
 62
6
 10
314.6567742348
 20
-176.8107273405
 11
314.6567742348
 21
-181.8107273405
  0
LINE
  8
5
  6
CONTINUOUS
 62
6
 10
334.6567742348
 20
-176.8107273405
 11
334.6567742348
 21
-181.8107273405
  0
LINE
  8
5
  6
CONTINUOUS
 62
6
 10
374.6567742348
 20
-176.8107273405
 11
374.6567742348
 21
-181.8107273405
  0
LINE
  8
5
  6
CONTINUOUS
 62
6
 10
389.6567742348
 20
-176.8107273405
 11
389.6567742348
 21
-181.8107273405
  0
TEXT
  8
5
  6
CONTINUOUS
 62
7
 10
309.906774
 20
-180.810727
 40
3.000000
  1
102
 41
0.815217
 50
0.000000
 51
0.000000
 72
   5
 73
   0
 11
314.406774
 21
-180.810727
  0
TEXT
  8
5
  6
CONTINUOUS
 62
7
 10
315.656774
 20
-180.810727
 40
3.000000
  1
ﾍﾞｾﾞﾙ
 41
0.759119
 50
0.000000
 51
0.000000
 72
   5
 73
   0
 11
322.898774
 21
-180.810727
  0
TEXT
  8
5
  6
CONTINUOUS
 62
7
 10
335.656774
 20
-181.310727
 40
4.000000
  1
NW073-FSM-IV
 41
0.762389
 50
0.000000
 51
0.000000
 72
   5
 73
   0
 11
359.656774
 21
-181.310727
  0
TEXT
  8
5
  6
CONTINUOUS
 62
7
 10
391.281774
 20
-181.060727
 40
3.500000
  1
1
 41
1.000000
 50
0.000000
 51
0.000000
 72
   5
 73
   0
 11
393.031774
 21
-181.060727
  0
LINE
  8
5
  6
CONTINUOUS
 62
6
 10
394.6567742348
 20
-186.8107273405
 11
389.6567742348
 21
-186.8107273405
  0
LINE
  8
5
  6
CONTINUOUS
 62
6
 10
389.6567742348
 20
-186.8107273405
 11
374.6567742348
 21
-186.8107273405
  0
LINE
  8
5
  6
CONTINUOUS
 62
6
 10
374.6567742348
 20
-186.8107273405
 11
334.6567742348
 21
-186.8107273405
  0
LINE
  8
5
  6
CONTINUOUS
 62
6
 10
334.6567742348
 20
-186.8107273405
 11
314.6567742348
 21
-186.8107273405
  0
LINE
  8
5
  6
CONTINUOUS
 62
6
 10
314.6567742348
 20
-186.8107273405
 11
309.6567742348
 21
-186.8107273405
  0
TEXT
  8
5
  6
CONTINUOUS
 62
7
 10
309.906774
 20
-185.810727
 40
3.000000
  1
103
 41
0.815217
 50
0.000000
 51
0.000000
 72
   5
 73
   0
 11
314.406774
 21
-185.810727
  0
TEXT
  8
5
  6
CONTINUOUS
 62
7
 10
310.656774
 20
-190.810727
 40
3.000000
  1
--
 41
0.854701
 50
0.000000
 51
0.000000
 72
   5
 73
   0
 11
313.656774
 21
-190.810727
  0
TEXT
  8
5
  6
CONTINUOUS
 62
7
 10
315.656774
 20
-185.560727
 40
2.500000
  1
RJ45(CAT6)
 41
0.790812
 50
0.000000
 51
0.000000
 72
   5
 73
   0
 11
328.566774
 21
-185.560727
  0
TEXT
  8
5
  6
CONTINUOUS
 62
7
 10
315.656774
 20
-190.810727
 40
3.000000
  1
--
 41
0.854701
 50
0.000000
 51
0.000000
 72
   5
 73
   0
 11
318.656774
 21
-190.810727
  0
TEXT
  8
5
  6
CONTINUOUS
 62
7
 10
335.656774
 20
-190.810727
 40
3.000000
  1
--
 41
0.854701
 50
0.000000
 51
0.000000
 72
   5
 73
   0
 11
338.656774
 21
-190.810727
  0
TEXT
  8
5
  6
CONTINUOUS
 62
7
 10
391.281774
 20
-186.060727
 40
3.500000
  1
1
 41
1.000000
 50
0.000000
 51
0.000000
 72
   5
 73
   0
 11
393.031774
 21
-186.060727
  0
TEXT
  8
5
  6
CONTINUOUS
 62
7
 10
390.406774
 20
-191.060727
 40
3.500000
  1
--
 41
0.854701
 50
0.000000
 51
0.000000
 72
   5
 73
   0
 11
393.906774
 21
-191.060727
  0
LINE
  8
5
  6
CONTINUOUS
 62
6
 10
309.6567742348
 20
-186.8107273405
 11
309.6567742348
 21
-181.8107273405
  0
LINE
  8
5
  6
CONTINUOUS
 62
6
 10
309.6567742348
 20
-191.8107273405
 11
309.6567742348
 21
-186.8107273405
  0
LINE
  8
5
  6
CONTINUOUS
 62
6
 10
314.6567742348
 20
-181.8107273405
 11
314.6567742348
 21
-186.8107273405
  0
LINE
  8
5
  6
CONTINUOUS
 62
6
 10
314.6567742348
 20
-186.8107273405
 11
314.6567742348
 21
-191.8107273405
  0
LINE
  8
5
  6
CONTINUOUS
 62
6
 10
334.6567742348
 20
-181.8107273405
 11
334.6567742348
 21
-186.8107273405
  0
LINE
  8
5
  6
CONTINUOUS
 62
6
 10
334.6567742348
 20
-186.8107273405
 11
334.6567742348
 21
-191.8107273405
  0
LINE
  8
5
  6
CONTINUOUS
 62
6
 10
374.6567742348
 20
-181.8107273405
 11
374.6567742348
 21
-186.8107273405
  0
LINE
  8
5
  6
CONTINUOUS
 62
6
 10
374.6567742348
 20
-186.8107273405
 11
374.6567742348
 21
-191.8107273405
  0
LINE
  8
5
  6
CONTINUOUS
 62
6
 10
389.6567742348
 20
-181.8107273405
 11
389.6567742348
 21
-186.8107273405
  0
LINE
  8
5
  6
CONTINUOUS
 62
6
 10
389.6567742348
 20
-186.8107273405
 11
389.6567742348
 21
-191.8107273405
  0
LINE
  8
5
  6
CONTINUOUS
 62
6
 10
394.6567742348
 20
-181.8107273405
 11
394.6567742348
 21
-186.8107273405
  0
LINE
  8
5
  6
CONTINUOUS
 62
6
 10
394.6567742348
 20
-186.8107273405
 11
394.6567742348
 21
-191.8107273405
  0
TEXT
  8
5
  6
CONTINUOUS
 62
7
 10
335.656774
 20
-186.310727
 40
4.000000
  1
NW080-88S-SI-C6-SH
 41
0.756939
 50
0.000000
 51
0.000000
 72
   5
 73
   0
 11
371.656774
 21
-186.310727
  0
LINE
  8
5
  6
CONTINUOUS
 62
6
 10
299.6567742348
 20
-176.8107273405
 11
299.6567742348
 21
-171.8107273405
  0
LINE
  8
5
  6
CONTINUOUS
 62
6
 10
299.6567742348
 20
-171.8107273405
 11
309.6567742348
 21
-171.8107273405
  0
LINE
  8
5
  6
CONTINUOUS
 62
6
 10
309.6567742348
 20
-176.8107273405
 11
304.6567742348
 21
-176.8107273405
  0
LINE
  8
5
  6
CONTINUOUS
 62
6
 10
309.6567742348
 20
-171.8107273405
 11
309.6567742348
 21
-176.8107273405
  0
TEXT
  8
5
  6
CONTINUOUS
 62
7
 10
302.194993
 20
-175.810727
 40
3.000000
  1
型番
 41
0.921659
 50
0.000000
 51
0.000000
 72
   5
 73
   0
 11
308.194993
 21
-175.810727
  0
LINE
  8
5
  6
CONTINUOUS
 62
6
 10
299.6567742348
 20
-181.8107273405
 11
299.6567742348
 21
-176.8107273405
  0
LINE
  8
5
  6
CONTINUOUS
 62
6
 10
299.6567742348
 20
-176.8107273405
 11
309.6567742348
 21
-176.8107273405
  0
LINE
  8
5
  6
CONTINUOUS
 62
6
 10
309.6567742348
 20
-176.8107273405
 11
309.6567742348
 21
-181.8107273405
  0
TEXT
  8
5
  6
CONTINUOUS
 62
7
 10
302.944993
 20
-181.310727
 40
4.000000
  1
R1
 41
0.961538
 50
0.000000
 51
0.000000
 72
   5
 73
   0
 11
307.444993
 21
-181.310727
  0
LINE
  8
5
  6
CONTINUOUS
 62
6
 10
299.6567742348
 20
-186.8107273405
 11
299.6567742348
 21
-181.8107273405
  0
LINE
  8
5
  6
CONTINUOUS
 62
6
 10
299.6567742348
 20
-191.8107273405
 11
299.6567742348
 21
-186.8107273405
  0
LINE
  8
5
  6
CONTINUOUS
 62
6
 10
309.6567742348
 20
-181.8107273405
 11
309.6567742348
 21
-186.8107273405
  0
LINE
  8
5
  6
CONTINUOUS
 62
6
 10
309.6567742348
 20
-186.8107273405
 11
309.6567742348
 21
-191.8107273405
  0
LINE
  8
5
  6
CONTINUOUS
 62
6
 10
394.6567742348
 20
-191.8107273405
 11
389.6567742348
 21
-191.8107273405
  0
LINE
  8
5
  6
CONTINUOUS
 62
6
 10
389.6567742348
 20
-191.8107273405
 11
374.6567742348
 21
-191.8107273405
  0
LINE
  8
5
  6
CONTINUOUS
 62
6
 10
374.6567742348
 20
-191.8107273405
 11
334.6567742348
 21
-191.8107273405
  0
LINE
  8
5
  6
CONTINUOUS
 62
6
 10
334.6567742348
 20
-191.8107273405
 11
314.6567742348
 21
-191.8107273405
  0
LINE
  8
5
  6
CONTINUOUS
 62
6
 10
314.6567742348
 20
-191.8107273405
 11
309.6567742348
 21
-191.8107273405
  0
LINE
  8
5
  6
CONTINUOUS
 62
6
 10
309.6567742348
 20
-191.8107273405
 11
299.6567742348
 21
-191.8107273405
  0
TEXT
  8
5
  6
CONTINUOUS
 62
7
 10
375.656774
 20
-158.310727
 40
3.000000
  1
MISUMI
 41
0.836104
 50
0.000000
 51
0.000000
 72
   5
 73
   0
 11
385.313774
 21
-158.310727
  0
TEXT
  8
5
  6
CONTINUOUS
 62
7
 10
375.656774
 20
-168.310727
 40
3.000000
  1
--
 41
0.854701
 50
0.000000
 51
0.000000
 72
   5
 73
   0
 11
378.656774
 21
-168.310727
  0
TEXT
  8
5
  6
CONTINUOUS
 62
7
 10
375.656774
 20
-180.810727
 40
3.000000
  1
MISUMI
 41
0.836104
 50
0.000000
 51
0.000000
 72
   5
 73
   0
 11
385.313774
 21
-180.810727
  0
TEXT
  8
5
  6
CONTINUOUS
 62
7
 10
375.656774
 20
-190.810727
 40
3.000000
  1
--
 41
0.854701
 50
0.000000
 51
0.000000
 72
   5
 73
   0
 11
378.656774
 21
-190.810727
  0
TEXT
  8
5
  6
CONTINUOUS
 62
7
 10
375.656774
 20
-163.310727
 40
3.000000
  1
--
 41
0.854701
 50
0.000000
 51
0.000000
 72
   5
 73
   0
 11
378.656774
 21
-163.310727
  0
TEXT
  8
5
  6
CONTINUOUS
 62
7
 10
375.656774
 20
-185.810727
 40
3.000000
  1
MISUMI
 41
0.836104
 50
0.000000
 51
0.000000
 72
   5
 73
   0
 11
385.313774
 21
-185.810727
  0
LINE
  8
5
  6
CONTINUOUS
 62
6
 10
309.6567742347
 20
-216.8107273403
 11
309.6567742347
 21
-211.8107273403
  0
LINE
  8
5
  6
CONTINUOUS
 62
6
 10
309.6567742347
 20
-211.8107273403
 11
314.6567742347
 21
-211.8107273403
  0
LINE
  8
5
  6
CONTINUOUS
 62
6
 10
314.6567742347
 20
-211.8107273403
 11
334.6567742347
 21
-211.8107273403
  0
LINE
  8
5
  6
CONTINUOUS
 62
6
 10
334.6567742347
 20
-211.8107273403
 11
374.6567742347
 21
-211.8107273403
  0
LINE
  8
5
  6
CONTINUOUS
 62
6
 10
374.6567742347
 20
-211.8107273403
 11
389.6567742347
 21
-211.8107273403
  0
LINE
  8
5
  6
CONTINUOUS
 62
6
 10
389.6567742347
 20
-211.8107273403
 11
394.6567742347
 21
-211.8107273403
  0
LINE
  8
5
  6
CONTINUOUS
 62
6
 10
394.6567742347
 20
-211.8107273403
 11
394.6567742347
 21
-216.8107273403
  0
LINE
  8
5
  6
CONTINUOUS
 62
6
 10
394.6567742347
 20
-216.8107273403
 11
389.6567742347
 21
-216.8107273403
  0
LINE
  8
5
  6
CONTINUOUS
 62
6
 10
389.6567742347
 20
-216.8107273403
 11
374.6567742347
 21
-216.8107273403
  0
LINE
  8
5
  6
CONTINUOUS
 62
6
 10
374.6567742347
 20
-216.8107273403
 11
334.6567742347
 21
-216.8107273403
  0
LINE
  8
5
  6
CONTINUOUS
 62
6
 10
334.6567742347
 20
-216.8107273403
 11
314.6567742347
 21
-216.8107273403
  0
LINE
  8
5
  6
CONTINUOUS
 62
6
 10
314.6567742347
 20
-216.8107273403
 11
309.6567742347
 21
-216.8107273403
  0
LINE
  8
5
  6
CONTINUOUS
 62
6
 10
314.6567742347
 20
-211.8107273403
 11
314.6567742347
 21
-216.8107273403
  0
LINE
  8
5
  6
CONTINUOUS
 62
6
 10
334.6567742347
 20
-211.8107273403
 11
334.6567742347
 21
-216.8107273403
  0
LINE
  8
5
  6
CONTINUOUS
 62
6
 10
374.6567742347
 20
-211.8107273403
 11
374.6567742347
 21
-216.8107273403
  0
LINE
  8
5
  6
CONTINUOUS
 62
6
 10
389.6567742347
 20
-211.8107273403
 11
389.6567742347
 21
-216.8107273403
  0
TEXT
  8
5
  6
CONTINUOUS
 62
7
 10
309.856774
 20
-215.460727
 40
2.300000
  1
項番
 41
0.921659
 50
0.000000
 51
0.000000
 72
   5
 73
   0
 11
314.456774
 21
-215.460727
  0
TEXT
  8
5
  6
CONTINUOUS
 62
7
 10
319.664774
 20
-215.810727
 40
3.000000
  1
品　　名
 41
0.737916
 50
0.000000
 51
0.000000
 72
   5
 73
   0
 11
329.648774
 21
-215.810727
  0
TEXT
  8
5
  6
CONTINUOUS
 62
7
 10
339.503774
 20
-215.810727
 40
3.000000
  1
定  格 / 型  番 / 材　質
 41
0.686277
 50
0.000000
 51
0.000000
 72
   5
 73
   0
 11
369.809774
 21
-215.810727
  0
TEXT
  8
5
  6
CONTINUOUS
 62
7
 10
376.959274
 20
-215.810727
 40
3.000000
  1
メーカー
 41
0.768293
 50
0.000000
 51
0.000000
 72
   5
 73
   0
 11
387.354274
 21
-215.810727
  0
TEXT
  8
5
  6
CONTINUOUS
 62
7
 10
389.856774
 20
-215.460727
 40
2.300000
  1
数量
 41
0.921659
 50
0.000000
 51
0.000000
 72
   5
 73
   0
 11
394.456774
 21
-215.460727
  0
LINE
  8
5
  6
CONTINUOUS
 62
6
 10
309.6567742347
 20
-221.8107273403
 11
309.6567742347
 21
-216.8107273403
  0
LINE
  8
5
  6
CONTINUOUS
 62
6
 10
309.6567742347
 20
-216.8107273403
 11
314.6567742347
 21
-216.8107273403
  0
LINE
  8
5
  6
CONTINUOUS
 62
6
 10
314.6567742347
 20
-216.8107273403
 11
334.6567742347
 21
-216.8107273403
  0
LINE
  8
5
  6
CONTINUOUS
 62
6
 10
334.6567742347
 20
-216.8107273403
 11
374.6567742347
 21
-216.8107273403
  0
LINE
  8
5
  6
CONTINUOUS
 62
6
 10
374.6567742347
 20
-216.8107273403
 11
389.6567742347
 21
-216.8107273403
  0
LINE
  8
5
  6
CONTINUOUS
 62
6
 10
389.6567742347
 20
-216.8107273403
 11
394.6567742347
 21
-216.8107273403
  0
LINE
  8
5
  6
CONTINUOUS
 62
6
 10
394.6567742347
 20
-216.8107273403
 11
394.6567742347
 21
-221.8107273403
  0
LINE
  8
5
  6
CONTINUOUS
 62
6
 10
394.6567742347
 20
-221.8107273403
 11
389.6567742347
 21
-221.8107273403
  0
LINE
  8
5
  6
CONTINUOUS
 62
6
 10
389.6567742347
 20
-221.8107273403
 11
374.6567742347
 21
-221.8107273403
  0
LINE
  8
5
  6
CONTINUOUS
 62
6
 10
374.6567742347
 20
-221.8107273403
 11
334.6567742347
 21
-221.8107273403
  0
LINE
  8
5
  6
CONTINUOUS
 62
6
 10
334.6567742347
 20
-221.8107273403
 11
314.6567742347
 21
-221.8107273403
  0
LINE
  8
5
  6
CONTINUOUS
 62
6
 10
314.6567742347
 20
-221.8107273403
 11
309.6567742347
 21
-221.8107273403
  0
LINE
  8
5
  6
CONTINUOUS
 62
6
 10
314.6567742347
 20
-216.8107273403
 11
314.6567742347
 21
-221.8107273403
  0
LINE
  8
5
  6
CONTINUOUS
 62
6
 10
334.6567742347
 20
-216.8107273403
 11
334.6567742347
 21
-221.8107273403
  0
LINE
  8
5
  6
CONTINUOUS
 62
6
 10
374.6567742347
 20
-216.8107273403
 11
374.6567742347
 21
-221.8107273403
  0
LINE
  8
5
  6
CONTINUOUS
 62
6
 10
389.6567742347
 20
-216.8107273403
 11
389.6567742347
 21
-221.8107273403
  0
TEXT
  8
5
  6
CONTINUOUS
 62
7
 10
309.906774
 20
-220.810727
 40
3.000000
  1
111
 41
0.815217
 50
0.000000
 51
0.000000
 72
   5
 73
   0
 11
314.406774
 21
-220.810727
  0
TEXT
  8
5
  6
CONTINUOUS
 62
7
 10
315.656774
 20
-220.810727
 40
3.000000
  1
USBﾌﾞﾗﾝｸﾊﾟﾈﾙ
 41
0.826938
 50
0.000000
 51
0.000000
 72
   5
 73
   0
 11
335.180774
 21
-220.810727
  0
TEXT
  8
5
  6
CONTINUOUS
 62
7
 10
335.656774
 20
-221.310727
 40
4.000000
  1
MIUSB1-BL
 41
0.767918
 50
0.000000
 51
0.000000
 72
   5
 73
   0
 11
353.656774
 21
-221.310727
  0
TEXT
  8
5
  6
CONTINUOUS
 62
7
 10
391.281774
 20
-221.060727
 40
3.500000
  1
1
 41
1.000000
 50
0.000000
 51
0.000000
 72
   5
 73
   0
 11
393.031774
 21
-221.060727
  0
LINE
  8
5
  6
CONTINUOUS
 62
6
 10
394.6567742347
 20
-226.8107273403
 11
389.6567742347
 21
-226.8107273403
  0
LINE
  8
5
  6
CONTINUOUS
 62
6
 10
389.6567742347
 20
-226.8107273403
 11
374.6567742347
 21
-226.8107273403
  0
LINE
  8
5
  6
CONTINUOUS
 62
6
 10
374.6567742347
 20
-226.8107273403
 11
334.6567742347
 21
-226.8107273403
  0
LINE
  8
5
  6
CONTINUOUS
 62
6
 10
334.6567742347
 20
-226.8107273403
 11
314.6567742347
 21
-226.8107273403
  0
LINE
  8
5
  6
CONTINUOUS
 62
6
 10
314.6567742347
 20
-226.8107273403
 11
309.6567742347
 21
-226.8107273403
  0
TEXT
  8
5
  6
CONTINUOUS
 62
7
 10
309.906774
 20
-225.810727
 40
3.000000
  1
112
 41
0.815217
 50
0.000000
 51
0.000000
 72
   5
 73
   0
 11
314.406774
 21
-225.810727
  0
TEXT
  8
5
  6
CONTINUOUS
 62
7
 10
310.656774
 20
-230.810727
 40
3.000000
  1
--
 41
0.854701
 50
0.000000
 51
0.000000
 72
   5
 73
   0
 11
313.656774
 21
-230.810727
  0
TEXT
  8
5
  6
CONTINUOUS
 62
7
 10
315.656774
 20
-225.810727
 40
3.000000
  1
ﾋﾞｽ
 41
0.761957
 50
0.000000
 51
0.000000
 72
   5
 73
   0
 11
319.862774
 21
-225.810727
  0
TEXT
  8
5
  6
CONTINUOUS
 62
7
 10
315.656774
 20
-230.810727
 40
3.000000
  1
--
 41
0.854701
 50
0.000000
 51
0.000000
 72
   5
 73
   0
 11
318.656774
 21
-230.810727
  0
TEXT
  8
5
  6
CONTINUOUS
 62
7
 10
335.656774
 20
-230.810727
 40
3.000000
  1
--
 41
0.854701
 50
0.000000
 51
0.000000
 72
   5
 73
   0
 11
338.656774
 21
-230.810727
  0
TEXT
  8
5
  6
CONTINUOUS
 62
7
 10
391.281774
 20
-226.060727
 40
3.500000
  1
2
 41
1.000000
 50
0.000000
 51
0.000000
 72
   5
 73
   0
 11
393.031774
 21
-226.060727
  0
TEXT
  8
5
  6
CONTINUOUS
 62
7
 10
390.406774
 20
-231.060727
 40
3.500000
  1
--
 41
0.854701
 50
0.000000
 51
0.000000
 72
   5
 73
   0
 11
393.906774
 21
-231.060727
  0
LINE
  8
5
  6
CONTINUOUS
 62
6
 10
309.6567742347
 20
-226.8107273403
 11
309.6567742347
 21
-221.8107273403
  0
LINE
  8
5
  6
CONTINUOUS
 62
6
 10
309.6567742347
 20
-231.8107273403
 11
309.6567742347
 21
-226.8107273403
  0
LINE
  8
5
  6
CONTINUOUS
 62
6
 10
314.6567742347
 20
-221.8107273403
 11
314.6567742347
 21
-226.8107273403
  0
LINE
  8
5
  6
CONTINUOUS
 62
6
 10
314.6567742347
 20
-226.8107273403
 11
314.6567742347
 21
-231.8107273403
  0
LINE
  8
5
  6
CONTINUOUS
 62
6
 10
334.6567742347
 20
-221.8107273403
 11
334.6567742347
 21
-226.8107273403
  0
LINE
  8
5
  6
CONTINUOUS
 62
6
 10
334.6567742347
 20
-226.8107273403
 11
334.6567742347
 21
-231.8107273403
  0
LINE
  8
5
  6
CONTINUOUS
 62
6
 10
374.6567742347
 20
-221.8107273403
 11
374.6567742347
 21
-226.8107273403
  0
LINE
  8
5
  6
CONTINUOUS
 62
6
 10
374.6567742347
 20
-226.8107273403
 11
374.6567742347
 21
-231.8107273403
  0
LINE
  8
5
  6
CONTINUOUS
 62
6
 10
389.6567742347
 20
-221.8107273403
 11
389.6567742347
 21
-226.8107273403
  0
LINE
  8
5
  6
CONTINUOUS
 62
6
 10
389.6567742347
 20
-226.8107273403
 11
389.6567742347
 21
-231.8107273403
  0
LINE
  8
5
  6
CONTINUOUS
 62
6
 10
394.6567742347
 20
-221.8107273403
 11
394.6567742347
 21
-226.8107273403
  0
LINE
  8
5
  6
CONTINUOUS
 62
6
 10
394.6567742347
 20
-226.8107273403
 11
394.6567742347
 21
-231.8107273403
  0
TEXT
  8
5
  6
CONTINUOUS
 62
7
 10
335.656774
 20
-226.310727
 40
4.000000
  1
(+)B1ﾅﾍﾞ 3.5×6
 41
0.772400
 50
0.000000
 51
0.000000
 72
   5
 73
   0
 11
365.656774
 21
-226.310727
  0
LINE
  8
5
  6
CONTINUOUS
 62
6
 10
299.6567742347
 20
-216.8107273403
 11
299.6567742348
 21
-211.8107273405
  0
LINE
  8
5
  6
CONTINUOUS
 62
6
 10
299.6567742348
 20
-211.8107273405
 11
309.6567742347
 21
-211.8107273403
  0
LINE
  8
5
  6
CONTINUOUS
 62
6
 10
309.6567742347
 20
-216.8107273403
 11
304.6567742347
 21
-216.8107273403
  0
LINE
  8
5
  6
CONTINUOUS
 62
6
 10
309.6567742347
 20
-211.8107273403
 11
309.6567742347
 21
-216.8107273403
  0
TEXT
  8
5
  6
CONTINUOUS
 62
7
 10
302.194993
 20
-215.810727
 40
3.000000
  1
型番
 41
0.921659
 50
0.000000
 51
0.000000
 72
   5
 73
   0
 11
308.194993
 21
-215.810727
  0
LINE
  8
5
  6
CONTINUOUS
 62
6
 10
299.6567742347
 20
-221.8107273403
 11
299.6567742347
 21
-216.8107273403
  0
LINE
  8
5
  6
CONTINUOUS
 62
6
 10
299.6567742347
 20
-216.8107273403
 11
309.6567742347
 21
-216.8107273403
  0
LINE
  8
5
  6
CONTINUOUS
 62
6
 10
309.6567742347
 20
-216.8107273403
 11
309.6567742347
 21
-221.8107273403
  0
TEXT
  8
5
  6
CONTINUOUS
 62
7
 10
302.912993
 20
-221.310727
 40
4.000000
  1
U0
 41
0.975214
 50
0.000000
 51
0.000000
 72
   5
 73
   0
 11
307.476993
 21
-221.310727
  0
LINE
  8
5
  6
CONTINUOUS
 62
6
 10
299.6567742347
 20
-226.8107273403
 11
299.6567742347
 21
-221.8107273403
  0
LINE
  8
5
  6
CONTINUOUS
 62
6
 10
299.6567742347
 20
-231.8107273403
 11
299.6567742347
 21
-226.8107273403
  0
LINE
  8
5
  6
CONTINUOUS
 62
6
 10
309.6567742347
 20
-221.8107273403
 11
309.6567742347
 21
-226.8107273403
  0
LINE
  8
5
  6
CONTINUOUS
 62
6
 10
309.6567742347
 20
-226.8107273403
 11
309.6567742347
 21
-231.8107273403
  0
LINE
  8
5
  6
CONTINUOUS
 62
6
 10
394.6567742347
 20
-231.8107273403
 11
389.6567742347
 21
-231.8107273403
  0
LINE
  8
5
  6
CONTINUOUS
 62
6
 10
389.6567742347
 20
-231.8107273403
 11
374.6567742347
 21
-231.8107273403
  0
LINE
  8
5
  6
CONTINUOUS
 62
6
 10
374.6567742347
 20
-231.8107273403
 11
334.6567742347
 21
-231.8107273403
  0
LINE
  8
5
  6
CONTINUOUS
 62
6
 10
334.6567742347
 20
-231.8107273403
 11
314.6567742347
 21
-231.8107273403
  0
LINE
  8
5
  6
CONTINUOUS
 62
6
 10
314.6567742347
 20
-231.8107273403
 11
309.6567742347
 21
-231.8107273403
  0
LINE
  8
5
  6
CONTINUOUS
 62
6
 10
309.6567742347
 20
-231.8107273403
 11
299.6567742347
 21
-231.8107273403
  0
LINE
  8
5
  6
CONTINUOUS
 62
6
 10
309.6567742347
 20
-239.3107273403
 11
309.6567742347
 21
-234.3107273403
  0
LINE
  8
5
  6
CONTINUOUS
 62
6
 10
309.6567742347
 20
-234.3107273403
 11
314.6567742347
 21
-234.3107273403
  0
LINE
  8
5
  6
CONTINUOUS
 62
6
 10
314.6567742347
 20
-234.3107273403
 11
334.6567742347
 21
-234.3107273403
  0
LINE
  8
5
  6
CONTINUOUS
 62
6
 10
334.6567742347
 20
-234.3107273403
 11
374.6567742347
 21
-234.3107273403
  0
LINE
  8
5
  6
CONTINUOUS
 62
6
 10
374.6567742347
 20
-234.3107273403
 11
389.6567742347
 21
-234.3107273403
  0
LINE
  8
5
  6
CONTINUOUS
 62
6
 10
389.6567742347
 20
-234.3107273403
 11
394.6567742347
 21
-234.3107273403
  0
LINE
  8
5
  6
CONTINUOUS
 62
6
 10
394.6567742347
 20
-234.3107273403
 11
394.6567742347
 21
-239.3107273403
  0
LINE
  8
5
  6
CONTINUOUS
 62
6
 10
394.6567742347
 20
-239.3107273403
 11
389.6567742347
 21
-239.3107273403
  0
LINE
  8
5
  6
CONTINUOUS
 62
6
 10
389.6567742347
 20
-239.3107273403
 11
374.6567742347
 21
-239.3107273403
  0
LINE
  8
5
  6
CONTINUOUS
 62
6
 10
374.6567742347
 20
-239.3107273403
 11
334.6567742347
 21
-239.3107273403
  0
LINE
  8
5
  6
CONTINUOUS
 62
6
 10
334.6567742347
 20
-239.3107273403
 11
314.6567742347
 21
-239.3107273403
  0
LINE
  8
5
  6
CONTINUOUS
 62
6
 10
314.6567742347
 20
-239.3107273403
 11
309.6567742347
 21
-239.3107273403
  0
LINE
  8
5
  6
CONTINUOUS
 62
6
 10
314.6567742347
 20
-234.3107273403
 11
314.6567742347
 21
-239.3107273403
  0
LINE
  8
5
  6
CONTINUOUS
 62
6
 10
334.6567742347
 20
-234.3107273403
 11
334.6567742347
 21
-239.3107273403
  0
LINE
  8
5
  6
CONTINUOUS
 62
6
 10
374.6567742347
 20
-234.3107273403
 11
374.6567742347
 21
-239.3107273403
  0
LINE
  8
5
  6
CONTINUOUS
 62
6
 10
389.6567742347
 20
-234.3107273403
 11
389.6567742347
 21
-239.3107273403
  0
TEXT
  8
5
  6
CONTINUOUS
 62
7
 10
309.856774
 20
-237.960727
 40
2.300000
  1
項番
 41
0.921659
 50
0.000000
 51
0.000000
 72
   5
 73
   0
 11
314.456774
 21
-237.960727
  0
TEXT
  8
5
  6
CONTINUOUS
 62
7
 10
319.664774
 20
-238.310727
 40
3.000000
  1
品　　名
 41
0.737916
 50
0.000000
 51
0.000000
 72
   5
 73
   0
 11
329.648774
 21
-238.310727
  0
TEXT
  8
5
  6
CONTINUOUS
 62
7
 10
339.503774
 20
-238.310727
 40
3.000000
  1
定  格 / 型  番 / 材　質
 41
0.686277
 50
0.000000
 51
0.000000
 72
   5
 73
   0
 11
369.809774
 21
-238.310727
  0
TEXT
  8
5
  6
CONTINUOUS
 62
7
 10
376.959274
 20
-238.310727
 40
3.000000
  1
メーカー
 41
0.768293
 50
0.000000
 51
0.000000
 72
   5
 73
   0
 11
387.354274
 21
-238.310727
  0
TEXT
  8
5
  6
CONTINUOUS
 62
7
 10
389.856774
 20
-237.960727
 40
2.300000
  1
数量
 41
0.921659
 50
0.000000
 51
0.000000
 72
   5
 73
   0
 11
394.456774
 21
-237.960727
  0
LINE
  8
5
  6
CONTINUOUS
 62
6
 10
309.6567742347
 20
-244.3107273403
 11
309.6567742347
 21
-239.3107273403
  0
LINE
  8
5
  6
CONTINUOUS
 62
6
 10
309.6567742347
 20
-239.3107273403
 11
314.6567742347
 21
-239.3107273403
  0
LINE
  8
5
  6
CONTINUOUS
 62
6
 10
314.6567742347
 20
-239.3107273403
 11
334.6567742347
 21
-239.3107273403
  0
LINE
  8
5
  6
CONTINUOUS
 62
6
 10
334.6567742347
 20
-239.3107273403
 11
374.6567742347
 21
-239.3107273403
  0
LINE
  8
5
  6
CONTINUOUS
 62
6
 10
374.6567742347
 20
-239.3107273403
 11
389.6567742347
 21
-239.3107273403
  0
LINE
  8
5
  6
CONTINUOUS
 62
6
 10
389.6567742347
 20
-239.3107273403
 11
394.6567742347
 21
-239.3107273403
  0
LINE
  8
5
  6
CONTINUOUS
 62
6
 10
394.6567742347
 20
-239.3107273403
 11
394.6567742347
 21
-244.3107273403
  0
LINE
  8
5
  6
CONTINUOUS
 62
6
 10
394.6567742347
 20
-244.3107273403
 11
389.6567742347
 21
-244.3107273403
  0
LINE
  8
5
  6
CONTINUOUS
 62
6
 10
389.6567742347
 20
-244.3107273403
 11
374.6567742347
 21
-244.3107273403
  0
LINE
  8
5
  6
CONTINUOUS
 62
6
 10
374.6567742347
 20
-244.3107273403
 11
334.6567742347
 21
-244.3107273403
  0
LINE
  8
5
  6
CONTINUOUS
 62
6
 10
334.6567742347
 20
-244.3107273403
 11
314.6567742347
 21
-244.3107273403
  0
LINE
  8
5
  6
CONTINUOUS
 62
6
 10
314.6567742347
 20
-244.3107273403
 11
309.6567742347
 21
-244.3107273403
  0
LINE
  8
5
  6
CONTINUOUS
 62
6
 10
314.6567742347
 20
-239.3107273403
 11
314.6567742347
 21
-244.3107273403
  0
LINE
  8
5
  6
CONTINUOUS
 62
6
 10
334.6567742347
 20
-239.3107273403
 11
334.6567742347
 21
-244.3107273403
  0
LINE
  8
5
  6
CONTINUOUS
 62
6
 10
374.6567742347
 20
-239.3107273403
 11
374.6567742347
 21
-244.3107273403
  0
LINE
  8
5
  6
CONTINUOUS
 62
6
 10
389.6567742347
 20
-239.3107273403
 11
389.6567742347
 21
-244.3107273403
  0
TEXT
  8
5
  6
CONTINUOUS
 62
7
 10
309.906774
 20
-243.310727
 40
3.000000
  1
113
 41
0.815217
 50
0.000000
 51
0.000000
 72
   5
 73
   0
 11
314.406774
 21
-243.310727
  0
TEXT
  8
5
  6
CONTINUOUS
 62
7
 10
315.656774
 20
-243.310727
 40
3.000000
  1
USBｺﾈｸﾀ
 41
0.910841
 50
0.000000
 51
0.000000
 72
   5
 73
   0
 11
328.007774
 21
-243.310727
  0
TEXT
  8
5
  6
CONTINUOUS
 62
7
 10
335.656774
 20
-243.810727
 40
4.000000
  1
MIUSB1-A-B
 41
0.765697
 50
0.000000
 51
0.000000
 72
   5
 73
   0
 11
355.656774
 21
-243.810727
  0
TEXT
  8
5
  6
CONTINUOUS
 62
7
 10
391.281774
 20
-243.560727
 40
3.500000
  1
1
 41
1.000000
 50
0.000000
 51
0.000000
 72
   5
 73
   0
 11
393.031774
 21
-243.560727
  0
LINE
  8
5
  6
CONTINUOUS
 62
6
 10
394.6567742347
 20
-249.3107273403
 11
389.6567742347
 21
-249.3107273403
  0
LINE
  8
5
  6
CONTINUOUS
 62
6
 10
389.6567742347
 20
-249.3107273403
 11
374.6567742347
 21
-249.3107273403
  0
LINE
  8
5
  6
CONTINUOUS
 62
6
 10
374.6567742347
 20
-249.3107273403
 11
334.6567742347
 21
-249.3107273403
  0
LINE
  8
5
  6
CONTINUOUS
 62
6
 10
334.6567742347
 20
-249.3107273403
 11
314.6567742347
 21
-249.3107273403
  0
LINE
  8
5
  6
CONTINUOUS
 62
6
 10
314.6567742347
 20
-249.3107273403
 11
309.6567742347
 21
-249.3107273403
  0
TEXT
  8
5
  6
CONTINUOUS
 62
7
 10
309.906774
 20
-248.310727
 40
3.000000
  1
114
 41
0.815217
 50
0.000000
 51
0.000000
 72
   5
 73
   0
 11
314.406774
 21
-248.310727
  0
TEXT
  8
5
  6
CONTINUOUS
 62
7
 10
310.656774
 20
-253.310727
 40
3.000000
  1
--
 41
0.854701
 50
0.000000
 51
0.000000
 72
   5
 73
   0
 11
313.656774
 21
-253.310727
  0
TEXT
  8
5
  6
CONTINUOUS
 62
7
 10
315.656774
 20
-248.310727
 40
3.000000
  1
ﾋﾞｽ
 41
0.761957
 50
0.000000
 51
0.000000
 72
   5
 73
   0
 11
319.862774
 21
-248.310727
  0
TEXT
  8
5
  6
CONTINUOUS
 62
7
 10
315.656774
 20
-253.310727
 40
3.000000
  1
--
 41
0.854701
 50
0.000000
 51
0.000000
 72
   5
 73
   0
 11
318.656774
 21
-253.310727
  0
TEXT
  8
5
  6
CONTINUOUS
 62
7
 10
335.656774
 20
-253.310727
 40
3.000000
  1
--
 41
0.854701
 50
0.000000
 51
0.000000
 72
   5
 73
   0
 11
338.656774
 21
-253.310727
  0
TEXT
  8
5
  6
CONTINUOUS
 62
7
 10
391.281774
 20
-248.560727
 40
3.500000
  1
2
 41
1.000000
 50
0.000000
 51
0.000000
 72
   5
 73
   0
 11
393.031774
 21
-248.560727
  0
TEXT
  8
5
  6
CONTINUOUS
 62
7
 10
390.406774
 20
-253.560727
 40
3.500000
  1
--
 41
0.854701
 50
0.000000
 51
0.000000
 72
   5
 73
   0
 11
393.906774
 21
-253.560727
  0
LINE
  8
5
  6
CONTINUOUS
 62
6
 10
309.6567742347
 20
-249.3107273403
 11
309.6567742347
 21
-244.3107273403
  0
LINE
  8
5
  6
CONTINUOUS
 62
6
 10
309.6567742347
 20
-254.3107273403
 11
309.6567742347
 21
-249.3107273403
  0
LINE
  8
5
  6
CONTINUOUS
 62
6
 10
314.6567742347
 20
-244.3107273403
 11
314.6567742347
 21
-249.3107273403
  0
LINE
  8
5
  6
CONTINUOUS
 62
6
 10
314.6567742347
 20
-249.3107273403
 11
314.6567742347
 21
-254.3107273403
  0
LINE
  8
5
  6
CONTINUOUS
 62
6
 10
334.6567742347
 20
-244.3107273403
 11
334.6567742347
 21
-249.3107273403
  0
LINE
  8
5
  6
CONTINUOUS
 62
6
 10
334.6567742347
 20
-249.3107273403
 11
334.6567742347
 21
-254.3107273403
  0
LINE
  8
5
  6
CONTINUOUS
 62
6
 10
374.6567742347
 20
-244.3107273403
 11
374.6567742347
 21
-249.3107273403
  0
LINE
  8
5
  6
CONTINUOUS
 62
6
 10
374.6567742347
 20
-249.3107273403
 11
374.6567742347
 21
-254.3107273403
  0
LINE
  8
5
  6
CONTINUOUS
 62
6
 10
389.6567742347
 20
-244.3107273403
 11
389.6567742347
 21
-249.3107273403
  0
LINE
  8
5
  6
CONTINUOUS
 62
6
 10
389.6567742347
 20
-249.3107273403
 11
389.6567742347
 21
-254.3107273403
  0
LINE
  8
5
  6
CONTINUOUS
 62
6
 10
394.6567742347
 20
-244.3107273403
 11
394.6567742347
 21
-249.3107273403
  0
LINE
  8
5
  6
CONTINUOUS
 62
6
 10
394.6567742347
 20
-249.3107273403
 11
394.6567742347
 21
-254.3107273403
  0
TEXT
  8
5
  6
CONTINUOUS
 62
7
 10
335.656774
 20
-248.810727
 40
4.000000
  1
M3×8 小ワｾﾑｽ
 41
0.809465
 50
0.000000
 51
0.000000
 72
   5
 73
   0
 11
361.656774
 21
-248.810727
  0
LINE
  8
5
  6
CONTINUOUS
 62
6
 10
299.6567742347
 20
-239.3107273403
 11
299.6567742347
 21
-234.3107273403
  0
LINE
  8
5
  6
CONTINUOUS
 62
6
 10
299.6567742347
 20
-234.3107273403
 11
309.6567742347
 21
-234.3107273403
  0
LINE
  8
5
  6
CONTINUOUS
 62
6
 10
309.6567742347
 20
-239.3107273403
 11
304.6567742347
 21
-239.3107273403
  0
LINE
  8
5
  6
CONTINUOUS
 62
6
 10
309.6567742347
 20
-234.3107273403
 11
309.6567742347
 21
-239.3107273403
  0
TEXT
  8
5
  6
CONTINUOUS
 62
7
 10
302.194993
 20
-238.310727
 40
3.000000
  1
型番
 41
0.921659
 50
0.000000
 51
0.000000
 72
   5
 73
   0
 11
308.194993
 21
-238.310727
  0
LINE
  8
5
  6
CONTINUOUS
 62
6
 10
299.6567742347
 20
-244.3107273403
 11
299.6567742347
 21
-239.3107273403
  0
LINE
  8
5
  6
CONTINUOUS
 62
6
 10
299.6567742347
 20
-239.3107273403
 11
309.6567742347
 21
-239.3107273403
  0
LINE
  8
5
  6
CONTINUOUS
 62
6
 10
309.6567742347
 20
-239.3107273403
 11
309.6567742347
 21
-244.3107273403
  0
TEXT
  8
5
  6
CONTINUOUS
 62
7
 10
302.912993
 20
-243.810727
 40
4.000000
  1
U1
 41
0.975214
 50
0.000000
 51
0.000000
 72
   5
 73
   0
 11
307.476993
 21
-243.810727
  0
LINE
  8
5
  6
CONTINUOUS
 62
6
 10
299.6567742347
 20
-249.3107273403
 11
299.6567742347
 21
-244.3107273403
  0
LINE
  8
5
  6
CONTINUOUS
 62
6
 10
299.6567742347
 20
-254.3107273403
 11
299.6567742347
 21
-249.3107273403
  0
LINE
  8
5
  6
CONTINUOUS
 62
6
 10
309.6567742347
 20
-244.3107273403
 11
309.6567742347
 21
-249.3107273403
  0
LINE
  8
5
  6
CONTINUOUS
 62
6
 10
309.6567742347
 20
-249.3107273403
 11
309.6567742347
 21
-254.3107273403
  0
LINE
  8
5
  6
CONTINUOUS
 62
6
 10
394.6567742347
 20
-254.3107273403
 11
389.6567742347
 21
-254.3107273403
  0
LINE
  8
5
  6
CONTINUOUS
 62
6
 10
389.6567742347
 20
-254.3107273403
 11
374.6567742347
 21
-254.3107273403
  0
LINE
  8
5
  6
CONTINUOUS
 62
6
 10
374.6567742347
 20
-254.3107273403
 11
334.6567742347
 21
-254.3107273403
  0
LINE
  8
5
  6
CONTINUOUS
 62
6
 10
334.6567742347
 20
-254.3107273403
 11
314.6567742347
 21
-254.3107273403
  0
LINE
  8
5
  6
CONTINUOUS
 62
6
 10
314.6567742347
 20
-254.3107273403
 11
309.6567742347
 21
-254.3107273403
  0
LINE
  8
5
  6
CONTINUOUS
 62
6
 10
309.6567742347
 20
-254.3107273403
 11
299.6567742347
 21
-254.3107273403
  0
TEXT
  8
5
  6
CONTINUOUS
 62
7
 10
375.656774
 20
-220.810727
 40
3.000000
  1
MADOKA
 41
1.028831
 50
0.000000
 51
0.000000
 72
   5
 73
   0
 11
387.539774
 21
-220.810727
  0
TEXT
  8
5
  6
CONTINUOUS
 62
7
 10
375.656774
 20
-230.810727
 40
3.000000
  1
--
 41
0.854701
 50
0.000000
 51
0.000000
 72
   5
 73
   0
 11
378.656774
 21
-230.810727
  0
TEXT
  8
5
  6
CONTINUOUS
 62
7
 10
375.656774
 20
-253.310727
 40
3.000000
  1
--
 41
0.854701
 50
0.000000
 51
0.000000
 72
   5
 73
   0
 11
378.656774
 21
-253.310727
  0
TEXT
  8
5
  6
CONTINUOUS
 62
7
 10
375.656774
 20
-225.810727
 40
3.000000
  1
--
 41
0.854701
 50
0.000000
 51
0.000000
 72
   5
 73
   0
 11
378.656774
 21
-225.810727
  0
TEXT
  8
5
  6
CONTINUOUS
 62
7
 10
375.656774
 20
-248.310727
 40
3.000000
  1
--
 41
0.854701
 50
0.000000
 51
0.000000
 72
   5
 73
   0
 11
378.656774
 21
-248.310727
  0
LINE
  8
3
  6
CONTINUOUS
 62
9
 10
218.6171374659
 20
-151.3053415009
 11
200.6671374659
 21
-151.3053415009
  0
LINE
  8
3
  6
CONTINUOUS
 62
9
 10
220.6171374659
 20
-175.2553415009
 11
220.6171374659
 21
-153.3053415009
  0
LINE
  8
3
  6
CONTINUOUS
 62
9
 10
200.6671374659
 20
-177.2553415009
 11
218.6171374659
 21
-177.2553415009
  0
LINE
  8
3
  6
CONTINUOUS
 62
9
 10
198.6671374659
 20
-175.2553415009
 11
198.6671374659
 21
-153.3053415009
  0
ARC
  8
3
  6
CONTINUOUS
 62
9
 10
200.6671374659
 20
-153.3053415009
 40
2.0000000000
 50
90.0000000000
 51
180.0000000000
  0
ARC
  8
3
  6
CONTINUOUS
 62
9
 10
218.6171374659
 20
-153.3053415009
 40
2.0000000000
 50
0.0000000000
 51
90.0000000000
  0
ARC
  8
3
  6
CONTINUOUS
 62
9
 10
218.6171374659
 20
-175.2553415009
 40
2.0000000000
 50
270.0000000000
 51
0.0000000000
  0
ARC
  8
3
  6
CONTINUOUS
 62
9
 10
200.6671374659
 20
-175.2553415009
 40
2.0000000000
 50
180.0000000000
 51
270.0000000000
  0
POINT
  8
3
  6
CONTINUOUS
 62
9
 10
209.6421374659
 20
-164.2803415009
  0
LINE
  8
3
  6
HIDDEN
 62
9
 10
201.1421374659
 20
-152.1303415009
 11
218.1421374659
 21
-152.1303415009
  0
LINE
  8
3
  6
HIDDEN
 62
9
 10
218.1421374659
 20
-152.1303415009
 11
218.1421374659
 21
-176.4303415009
  0
LINE
  8
3
  6
HIDDEN
 62
9
 10
218.1421374659
 20
-176.4303415009
 11
201.1421374659
 21
-176.4303415009
  0
LINE
  8
3
  6
HIDDEN
 62
9
 10
201.1421374659
 20
-176.4303415009
 11
201.1421374659
 21
-152.1303415009
  0
LINE
  8
3
  6
CONTINUOUS
 62
7
 10
242.6171374659
 20
-177.2553415009
 11
260.5671374659
 21
-177.2553415009
  0
LINE
  8
3
  6
CONTINUOUS
 62
7
 10
240.6171374659
 20
-153.3053415009
 11
240.6171374659
 21
-175.2553415009
  0
LINE
  8
3
  6
CONTINUOUS
 62
7
 10
260.5671374659
 20
-151.3053415009
 11
242.6171374659
 21
-151.3053415009
  0
LINE
  8
3
  6
CONTINUOUS
 62
7
 10
262.5671374659
 20
-153.3053415009
 11
262.5671374659
 21
-175.2553415009
  0
POINT
  8
3
  6
CONTINUOUS
 62
5
 10
251.5921374659
 20
-164.2803415009
  0
LINE
  8
3
  6
CONTINUOUS
 62
5
 10
258.9121374659
 20
-172.6553415009
 11
244.2721374659
 21
-172.6553415009
  0
LINE
  8
3
  6
CONTINUOUS
 62
5
 10
244.2721374659
 20
-172.6553415009
 11
244.2721374659
 21
-161.4553415009
  0
LINE
  8
3
  6
CONTINUOUS
 62
5
 10
244.2721374659
 20
-161.4553415009
 11
258.9121374659
 21
-161.4553415009
  0
LINE
  8
3
  6
CONTINUOUS
 62
5
 10
258.9121374659
 20
-161.4553415009
 11
258.9121374659
 21
-172.6553415009
  0
LINE
  8
3
  6
CONTINUOUS
 62
7
 10
257.1671374659
 20
-159.4553415009
 11
246.0171374659
 21
-159.4553415009
  0
LINE
  8
3
  6
CONTINUOUS
 62
7
 10
246.0171374659
 20
-159.4553415009
 11
246.0171374659
 21
-152.3053415009
  0
LINE
  8
3
  6
CONTINUOUS
 62
7
 10
246.0171374659
 20
-152.3053415009
 11
257.1671374659
 21
-152.3053415009
  0
LINE
  8
3
  6
CONTINUOUS
 62
7
 10
257.1671374659
 20
-152.3053415009
 11
257.1671374659
 21
-159.4553415009
  0
LINE
  8
3
  6
HIDDEN
 62
7
 10
254.6671374659
 20
-156.6803415009
 11
248.5171374659
 21
-156.6803415009
  0
LINE
  8
3
  6
HIDDEN
 62
7
 10
248.5171374659
 20
-156.6803415009
 11
248.5171374659
 21
-155.0803415009
  0
LINE
  8
3
  6
HIDDEN
 62
7
 10
248.5171374659
 20
-155.0803415009
 11
254.6671374659
 21
-155.0803415009
  0
LINE
  8
3
  6
HIDDEN
 62
7
 10
254.6671374659
 20
-155.0803415009
 11
254.6671374659
 21
-156.6803415009
  0
ARC
  8
3
  6
CONTINUOUS
 62
7
 10
260.5671374659
 20
-175.2553415009
 40
2.0000000000
 50
270.0000000000
 51
0.0000000000
  0
ARC
  8
3
  6
CONTINUOUS
 62
7
 10
242.6171374659
 20
-175.2553415009
 40
2.0000000000
 50
180.0000000000
 51
270.0000000000
  0
ARC
  8
3
  6
CONTINUOUS
 62
7
 10
242.6171374659
 20
-153.3053415009
 40
2.0000000000
 50
90.0000000000
 51
180.0000000000
  0
ARC
  8
3
  6
CONTINUOUS
 62
7
 10
260.5671374659
 20
-153.3053415009
 40
2.0000000000
 50
0.0000000000
 51
90.0000000000
  0
LINE
  8
3
  6
HIDDEN
 62
3
 10
260.0921374659
 20
-176.4303415009
 11
243.0921374659
 21
-176.4303415009
  0
LINE
  8
3
  6
HIDDEN
 62
3
 10
243.0921374659
 20
-176.4303415009
 11
243.0921374659
 21
-152.1303415009
  0
LINE
  8
3
  6
HIDDEN
 62
3
 10
243.0921374659
 20
-152.1303415009
 11
260.0921374659
 21
-152.1303415009
  0
LINE
  8
3
  6
HIDDEN
 62
3
 10
260.0921374659
 20
-152.1303415009
 11
260.0921374659
 21
-176.4303415009
  0
LINE
  8
3
  6
CONTINUOUS
 62
5
 10
245.5921374659
 20
-162.4553415009
 11
245.5921374659
 21
-169.4553415009
  0
LINE
  8
3
  6
CONTINUOUS
 62
5
 10
245.5921374659
 20
-169.4553415009
 11
248.3921374659
 21
-169.4553415009
  0
LINE
  8
3
  6
CONTINUOUS
 62
5
 10
248.3921374659
 20
-169.4553415009
 11
248.3921374659
 21
-170.9553415009
  0
LINE
  8
3
  6
CONTINUOUS
 62
5
 10
248.3921374659
 20
-170.9553415009
 11
249.4421374659
 21
-170.9553415009
  0
LINE
  8
3
  6
CONTINUOUS
 62
5
 10
249.4421374659
 20
-170.9553415009
 11
249.4421374659
 21
-172.6553415009
  0
LINE
  8
3
  6
CONTINUOUS
 62
5
 10
253.7421374659
 20
-172.6553415009
 11
253.7421374659
 21
-170.9553415009
  0
LINE
  8
3
  6
CONTINUOUS
 62
5
 10
253.7421374659
 20
-170.9553415009
 11
254.7921374659
 21
-170.9553415009
  0
LINE
  8
3
  6
CONTINUOUS
 62
5
 10
254.7921374659
 20
-170.9553415009
 11
254.7921374659
 21
-169.4553415009
  0
LINE
  8
3
  6
CONTINUOUS
 62
5
 10
254.7921374659
 20
-169.4553415009
 11
257.5921374659
 21
-169.4553415009
  0
LINE
  8
3
  6
CONTINUOUS
 62
5
 10
257.5921374659
 20
-169.4553415009
 11
257.5921374659
 21
-162.4553415009
  0
LINE
  8
3
  6
CONTINUOUS
 62
5
 10
257.5921374659
 20
-162.4553415009
 11
245.5921374659
 21
-162.4553415009
  0
INSERT
  8
3
  6
CONTINUOUS
 62
5
  2
BALN1
 10
220.6171374659
 20
-157.0777679959
  0
INSERT
  8
3
  6
CONTINUOUS
 62
5
  2
BALN2
 10
262.5671374659
 20
-157.0777679959
  0
INSERT
  8
3
  6
CONTINUOUS
 62
5
  2
BALN3
 10
251.5921374659
 20
-164.2803415009
  0
TEXT
  8
3
  6
CONTINUOUS
 62
5
 10
131.735718
 20
-57.248971
 40
5.000000
  1
⑨ ACｱｳﾄﾚｯﾄ詳細
 41
0.800427
 50
0.000000
 51
0.000000
 72
   5
 73
   0
 11
169.235718
 21
-57.248971
  0
TEXT
  8
3
  6
CONTINUOUS
 62
5
 10
162.142137
 20
-166.780342
 40
5.000000
  1
⑩ RJ45詳細
 41
0.822123
 50
0.000000
 51
0.000000
 72
   5
 73
   0
 11
189.642137
 21
-166.780342
  0
TEXT
  8
3
  6
CONTINUOUS
 62
5
 10
164.642137
 20
-235.101184
 40
5.000000
  1
⑪ USB詳細
 41
0.830565
 50
0.000000
 51
0.000000
 72
   5
 73
   0
 11
189.642137
 21
-235.101184
  0
INSERT
  8
3
  6
CONTINUOUS
 62
5
  2
BALN4
 10
219.1421374659
 20
-215.8011842222
  0
INSERT
  8
3
  6
CONTINUOUS
 62
5
  2
BALN5
 10
212.0334406374
 20
-219.2431864733
  0
INSERT
  8
3
  6
CONTINUOUS
 62
5
  2
BALN6
 10
261.0921374659
 20
-215.8011842222
  0
INSERT
  8
3
  6
CONTINUOUS
 62
5
  2
BALN7
 10
253.9834406374
 20
-219.2431864733
  0
TEXT
  8
3
  6
CONTINUOUS
 62
7
 10
207.142137
 20
-185.255342
 40
5.000000
  1
R0
 41
0.854701
 50
0.000000
 51
0.000000
 72
   5
 73
   0
 11
212.142137
 21
-185.255342
  0
TEXT
  8
3
  6
CONTINUOUS
 62
7
 10
249.092137
 20
-185.255342
 40
5.000000
  1
R1
 41
0.854701
 50
0.000000
 51
0.000000
 72
   5
 73
   0
 11
254.092137
 21
-185.255342
  0
TEXT
  8
3
  6
CONTINUOUS
 62
7
 10
207.142137
 20
-258.601184
 40
5.000000
  1
U0
 41
0.854701
 50
0.000000
 51
0.000000
 72
   5
 73
   0
 11
212.142137
 21
-258.601184
  0
TEXT
  8
3
  6
CONTINUOUS
 62
7
 10
249.092137
 20
-258.401184
 40
5.000000
  1
U1
 41
0.854701
 50
0.000000
 51
0.000000
 72
   5
 73
   0
 11
254.092137
 21
-258.401184
  0
TEXT
  8
5
  6
CONTINUOUS
 62
7
 10
348.653069
 20
22.742557
 40
4.200000
  1
Panel Interface
 41
0.759109
 50
0.000000
 51
0.000000
 72
   5
 73
   0
 11
380.153069
 21
22.742557
  0
TEXT
  8
5
  6
CONTINUOUS
 62
7
 10
348.653069
 20
18.542557
 40
4.200000
  1
Type:MCON-001-056A*****
 41
0.754593
 50
0.000000
 51
0.000000
 72
   5
 73
   0
 11
396.953069
 21
18.542557
  0
TEXT
  8
5
  6
CONTINUOUS
 62
7
 10
348.653069
 20
14.342557
 40
4.200000
  1
            仕様図　1/2
 41
0.789835
 50
0.000000
 51
0.000000
 72
   5
 73
   0
 11
396.953069
 21
14.342557
  0
TEXT
  8
5
  6
CONTINUOUS
 62
7
 10
348.433321
 20
-308.965523
 40
6.000000
  1
M0051A056C
 41
0.765697
 50
0.000000
 51
0.000000
 72
   5
 73
   0
 11
378.433321
 21
-308.965523
  0
TEXT
  8
3
  6
CONTINUOUS
 62
7
 10
157.407606
 20
39.432029
 40
4.500000
  1
ACｱｳﾄﾚｯﾄ,RJ45,USBの詳細は仕様2/2を参照してください。
 41
0.813772
 50
0.000000
 51
0.000000
 72
   5
 73
   0
 11
274.407606
 21
39.432029
  0
LINE
  8
3
  6
CONTINUOUS
 62
7
 10
173.1605182328
 20
161.7025214536
 11
173.1605182328
 21
186.0025214536
  0
LINE
  8
3
  6
CONTINUOUS
 62
7
 10
173.1605182328
 20
186.0025214536
 11
190.1605182328
 21
186.0025214536
  0
LINE
  8
3
  6
CONTINUOUS
 62
7
 10
190.1605182328
 20
186.0025214536
 11
190.1605182328
 21
161.7025214536
  0
LINE
  8
3
  6
CONTINUOUS
 62
7
 10
190.1605182328
 20
161.7025214536
 11
173.1605182328
 21
161.7025214536
  0
POINT
  8
3
  6
CONTINUOUS
 62
9
 10
181.6605182328
 20
173.8525214536
  0
TEXT
  8
3
  6
CONTINUOUS
 62
7
 10
176.660518
 20
173.852521
 40
5.000000
  1
⑩
 41
1.000000
 50
0.000000
 51
0.000000
 72
   5
 73
   0
 11
181.660518
 21
173.852521
  0
TEXT
  8
3
  6
CONTINUOUS
 62
7
 10
176.660518
 20
168.852521
 40
5.000000
  1
RJ45
 41
0.796813
 50
0.000000
 51
0.000000
 72
   5
 73
   0
 11
186.660518
 21
168.852521
  0
POINT
  8
3
  6
CONTINUOUS
 62
7
 10
206.1605182328
 20
173.8525214536
  0
LINE
  8
3
  6
CONTINUOUS
 62
7
 10
197.6605182328
 20
185.3525214536
 11
214.6605182328
 21
185.3525214536
  0
LINE
  8
3
  6
CONTINUOUS
 62
7
 10
197.6605182328
 20
162.3525214536
 11
197.6605182328
 21
185.3525214536
  0
LINE
  8
3
  6
CONTINUOUS
 62
7
 10
214.6605182328
 20
162.3525214536
 11
197.6605182328
 21
162.3525214536
  0
LINE
  8
3
  6
CONTINUOUS
 62
7
 10
214.6605182328
 20
185.3525214536
 11
214.6605182328
 21
162.3525214536
  0
CIRCLE
  8
3
  6
CONTINUOUS
 62
7
 10
206.1605182328
 20
188.3525214536
 40
1.5000000000
  0
CIRCLE
  8
3
  6
CONTINUOUS
 62
7
 10
206.1605182328
 20
159.3525214536
 40
1.5000000000
  0
TEXT
  8
3
  6
CONTINUOUS
 62
7
 10
202.410518
 20
173.852521
 40
5.000000
  1
⑪
 41
1.000000
 50
0.000000
 51
0.000000
 72
   5
 73
   0
 11
207.410518
 21
173.852521
  0
TEXT
  8
3
  6
CONTINUOUS
 62
7
 10
202.410518
 20
168.852521
 40
5.000000
  1
USB
 41
0.815217
 50
0.000000
 51
0.000000
 72
   5
 73
   0
 11
209.910518
 21
168.852521
  0
INSERT
  8
1
  6
CONTINUOUS
 62
5
  2
LTEX0
 10
143.4661466639
 20
87.8525214537
  0
TEXT
  8
3
  6
CONTINUOUS
 62
7
 10
174.695355
 20
272.972867
 40
5.000000
  1
型番仕様
 41
0.886918
 50
0.000000
 51
0.000000
 72
   5
 73
   0
 11
194.695355
 21
272.972867
  0
TEXT
  8
3
  6
CONTINUOUS
 62
7
 10
174.695355
 20
265.972867
 40
5.000000
  1
　MCON-001-056 %%uPB%%u %%uA*%%u %%uR*%%u %%uU*%%u
 41
0.761124
 50
0.000000
 51
0.000000
 72
   5
 73
   0
 11
239.695355
 21
265.972867
  0
LINE
  8
3
  6
CONTINUOUS
 62
7
 10
237.1752242000
 20
265.7477713026
 11
237.1752242000
 21
260.7477713026
  0
LINE
  8
3
  6
CONTINUOUS
 62
7
 10
237.1752242000
 20
260.7477713026
 11
242.1752242000
 21
260.7477713026
  0
LINE
  8
3
  6
CONTINUOUS
 62
7
 10
242.1752242000
 20
248.2477713026
 11
229.6482592466
 21
248.2477713026
  0
LINE
  8
3
  6
CONTINUOUS
 62
7
 10
229.6482592466
 20
248.2477713027
 11
229.6482592466
 21
265.7477713026
  0
LINE
  8
3
  6
CONTINUOUS
 62
7
 10
242.1752242000
 20
235.7477713026
 11
221.6852807965
 21
235.7477713026
  0
LINE
  8
3
  6
CONTINUOUS
 62
7
 10
221.6852807965
 20
235.7477713026
 11
221.6852807965
 21
265.7477713026
  0
LINE
  8
1
  6
CONTINUOUS
 62
7
 10
94.2210513175
 20
-151.2224546205
 11
42.2210513175
 21
-151.2224546205
  0
LINE
  8
1
  6
CONTINUOUS
 62
7
 10
95.7210513175
 20
-274.2224546205
 11
95.7210513175
 21
-152.7224546205
  0
LINE
  8
1
  6
CONTINUOUS
 62
7
 10
42.2210513175
 20
-275.7224546205
 11
94.2210513175
 21
-275.7224546205
  0
LINE
  8
1
  6
CONTINUOUS
 62
7
 10
40.7210513175
 20
-274.2224546205
 11
40.7210513175
 21
-152.7224546205
  0
LINE
  8
1
  6
CONTINUOUS
 62
7
 10
97.7210513175
 20
-276.7224546205
 11
97.7210513175
 21
-150.2224546205
  0
LINE
  8
1
  6
CONTINUOUS
 62
7
 10
96.7210513175
 20
-149.2224546205
 11
39.7210513175
 21
-149.2224546205
  0
LINE
  8
1
  6
CONTINUOUS
 62
7
 10
38.7210513175
 20
-276.7224546205
 11
38.7210513175
 21
-150.2224546205
  0
LINE
  8
1
  6
CONTINUOUS
 62
7
 10
39.7210513175
 20
-277.7224546205
 11
96.7210513175
 21
-277.7224546205
  0
ARC
  8
1
  6
CONTINUOUS
 62
7
 10
42.2210513175
 20
-152.7224546205
 40
1.5000000000
 50
90.0000000000
 51
180.0000000000
  0
ARC
  8
1
  6
CONTINUOUS
 62
7
 10
94.2210513175
 20
-152.7224546205
 40
1.5000000000
 50
0.0000000000
 51
90.0000000000
  0
ARC
  8
1
  6
CONTINUOUS
 62
7
 10
94.2210513175
 20
-274.2224546205
 40
1.5000000000
 50
270.0000000000
 51
0.0000000000
  0
ARC
  8
1
  6
CONTINUOUS
 62
7
 10
42.2210513175
 20
-274.2224546205
 40
1.5000000000
 50
180.0000000000
 51
270.0000000000
  0
CIRCLE
  8
1
  6
HIDDEN
 62
3
 10
48.2210513175
 20
-154.9724546205
 40
1.7500000000
  0
CIRCLE
  8
1
  6
HIDDEN
 62
3
 10
48.2210513175
 20
-154.9724546205
 40
3.2500000000
  0
CIRCLE
  8
1
  6
HIDDEN
 62
3
 10
88.2210513175
 20
-154.9724546205
 40
1.7500000000
  0
CIRCLE
  8
1
  6
HIDDEN
 62
3
 10
88.2210513175
 20
-154.9724546205
 40
3.2500000000
  0
LINE
  8
1
  6
HIDDEN
 62
3
 10
91.2210513175
 20
-159.9724546205
 11
94.2210513175
 21
-159.9724546205
  0
LINE
  8
1
  6
HIDDEN
 62
3
 10
43.2210513175
 20
-159.9724546205
 11
91.2210513175
 21
-159.9724546205
  0
CIRCLE
  8
1
  6
HIDDEN
 62
3
 10
48.2210513175
 20
-271.9724546205
 40
1.7500000000
  0
CIRCLE
  8
1
  6
HIDDEN
 62
3
 10
48.2210513175
 20
-271.9724546205
 40
3.2500000000
  0
CIRCLE
  8
1
  6
HIDDEN
 62
3
 10
88.2210513175
 20
-271.9724546205
 40
1.7500000000
  0
CIRCLE
  8
1
  6
HIDDEN
 62
3
 10
88.2210513175
 20
-271.9724546205
 40
3.2500000000
  0
CIRCLE
  8
1
  6
HIDDEN
 62
3
 10
68.2210513175
 20
-154.9724546205
 40
2.0000000000
  0
LINE
  8
1
  6
CONTINUOUS
 62
7
 10
99.7210513175
 20
-276.7224546205
 11
99.7210513175
 21
-150.2224546205
  0
LINE
  8
1
  6
CONTINUOUS
 62
7
 10
96.7210513175
 20
-147.2224546205
 11
39.7210513175
 21
-147.2224546205
  0
LINE
  8
1
  6
CONTINUOUS
 62
7
 10
36.7210513175
 20
-276.7224546205
 11
36.7210513175
 21
-150.2224546205
  0
LINE
  8
1
  6
CONTINUOUS
 62
7
 10
39.7210513175
 20
-279.7224546205
 11
96.7210513175
 21
-279.7224546205
  0
LINE
  8
1
  6
CONTINUOUS
 62
7
 10
101.7210513175
 20
-286.7224546205
 11
101.7210513175
 21
-142.8474546205
  0
LINE
  8
1
  6
CONTINUOUS
 62
7
 10
34.7210513175
 20
-142.8474546205
 11
34.7210513175
 21
-286.7224546205
  0
LINE
  8
1
  6
CONTINUOUS
 62
7
 10
102.7210513175
 20
-287.7224546205
 11
102.7210513175
 21
-132.2224546205
  0
LINE
  8
1
  6
CONTINUOUS
 62
7
 10
33.7210513175
 20
-132.2224546205
 11
33.7210513175
 21
-287.7224546205
  0
ARC
  8
1
  6
CONTINUOUS
 62
7
 10
39.7210513175
 20
-150.2224546205
 40
1.0000000000
 50
90.0000000000
 51
180.0000000000
  0
ARC
  8
1
  6
CONTINUOUS
 62
7
 10
96.7210513175
 20
-150.2224546205
 40
1.0000000000
 50
0.0000000000
 51
90.0000000000
  0
ARC
  8
1
  6
CONTINUOUS
 62
7
 10
96.7210513175
 20
-276.7224546205
 40
1.0000000000
 50
270.0000000000
 51
0.0000000000
  0
ARC
  8
1
  6
CONTINUOUS
 62
7
 10
39.7210513175
 20
-276.7224546205
 40
1.0000000000
 50
180.0000000000
 51
270.0000000000
  0
LINE
  8
1
  6
HIDDEN
 62
3
 10
94.2210513175
 20
-169.9724546205
 11
94.2210513175
 21
-159.9724546205
  0
ARC
  8
1
  6
CONTINUOUS
 62
7
 10
39.7210513175
 20
-150.2224546205
 40
3.0000000000
 50
90.0000000000
 51
180.0000000000
  0
ARC
  8
1
  6
CONTINUOUS
 62
7
 10
96.7210513175
 20
-150.2224546205
 40
3.0000000000
 50
0.0000000000
 51
90.0000000000
  0
ARC
  8
1
  6
CONTINUOUS
 62
7
 10
96.7210513175
 20
-276.7224546205
 40
3.0000000000
 50
270.0000000000
 51
0.0000000000
  0
ARC
  8
1
  6
CONTINUOUS
 62
7
 10
39.7210513175
 20
-276.7224546205
 40
3.0000000000
 50
180.0000000000
 51
270.0000000000
  0
LINE
  8
1
  6
DASHDOT
 62
1
 10
104.7210513175
 20
-139.2224546205
 11
31.7210513175
 21
-139.2224546205
  0
LINE
  8
1
  6
CONTINUOUS
 62
7
 10
102.7210513175
 20
-287.7224546205
 11
33.7210513175
 21
-287.7224546205
  0
LINE
  8
1
  6
CONTINUOUS
 62
7
 10
34.7210513175
 20
-286.7224546205
 11
101.7210513175
 21
-286.7224546205
  0
LINE
  8
1
  6
CONTINUOUS
 62
7
 10
34.7210513175
 20
-145.2224546205
 11
34.7210513175
 21
-133.2224546205
  0
LINE
  8
1
  6
CONTINUOUS
 62
7
 10
34.7210513175
 20
-133.2224546205
 11
39.7210513175
 21
-133.2224546205
  0
LINE
  8
1
  6
CONTINUOUS
 62
7
 10
39.7210513175
 20
-133.2224546205
 11
39.7210513175
 21
-145.2224546205
  0
LINE
  8
1
  6
CONTINUOUS
 62
7
 10
39.7210513175
 20
-145.2224546205
 11
34.7210513175
 21
-145.2224546205
  0
LINE
  8
1
  6
CONTINUOUS
 62
7
 10
101.7210513175
 20
-133.2224546205
 11
96.7210513175
 21
-133.2224546205
  0
LINE
  8
1
  6
CONTINUOUS
 62
7
 10
96.7210513175
 20
-133.2224546205
 11
96.7210513175
 21
-145.2224546205
  0
LINE
  8
1
  6
CONTINUOUS
 62
7
 10
96.7210513175
 20
-145.2224546205
 11
101.7210513175
 21
-145.2224546205
  0
LINE
  8
1
  6
CONTINUOUS
 62
7
 10
101.7210513175
 20
-145.2224546205
 11
101.7210513175
 21
-133.2224546205
  0
LINE
  8
1
  6
CONTINUOUS
 62
7
 10
96.7210513175
 20
-145.2224546205
 11
96.7210513175
 21
-146.2224546205
  0
LINE
  8
1
  6
CONTINUOUS
 62
7
 10
96.7210513175
 20
-146.2224546205
 11
39.7210513175
 21
-146.2224546205
  0
LINE
  8
1
  6
CONTINUOUS
 62
7
 10
39.7210513175
 20
-146.2224546205
 11
39.7210513175
 21
-145.2224546205
  0
LINE
  8
1
  6
CONTINUOUS
 62
7
 10
102.7210513175
 20
-132.2224546205
 11
33.7210513175
 21
-132.2224546205
  0
CIRCLE
  8
1
  6
HIDDEN
 62
3
 10
68.2210513175
 20
-154.9724546205
 40
1.6500000000
  0
CIRCLE
  8
1
  6
HIDDEN
 62
3
 10
68.2210513175
 20
-271.9724546205
 40
2.0000000000
  0
CIRCLE
  8
1
  6
HIDDEN
 62
3
 10
68.2210513175
 20
-271.9724546205
 40
1.6500000000
  0
CIRCLE
  8
1
  6
HIDDEN
 62
7
 10
68.2210513175
 20
-283.2224546205
 40
2.0000000000
  0
CIRCLE
  8
1
  6
CONTINUOUS
 62
7
 10
68.2210513175
 20
-283.2224546205
 40
1.6500000000
  0
TEXT
  8
1
  6
CONTINUOUS
 62
7
 10
52.719518
 20
-295.980969
 40
4.000000
  1
内 部 図
 41
0.854701
 50
0.000000
 51
0.000000
 72
   5
 73
   0
 11
68.719518
 21
-295.980969
  0
LINE
  8
1
  6
HIDDEN
 62
3
 10
94.2210513175
 20
-169.9724546205
 11
91.2210513175
 21
-169.9724546205
  0
LINE
  8
1
  6
HIDDEN
 62
3
 10
91.2210513175
 20
-169.9724546205
 11
91.2210513175
 21
-159.9724546205
  0
LINE
  8
1
  6
HIDDEN
 62
3
 10
42.2210513175
 20
-266.9724546205
 11
45.2210513175
 21
-266.9724546205
  0
LINE
  8
1
  6
HIDDEN
 62
3
 10
93.2210513175
 20
-266.9724546205
 11
45.2210513175
 21
-266.9724546205
  0
LINE
  8
1
  6
HIDDEN
 62
3
 10
42.2210513175
 20
-256.9724546205
 11
45.2210513175
 21
-256.9724546205
  0
LINE
  8
3
  6
HIDDEN
 62
3
 10
45.2210513175
 20
-256.9724546205
 11
45.2210513175
 21
-266.9724546205
  0
LINE
  8
1
  6
HIDDEN
 62
3
 10
42.2210513175
 20
-256.9724546205
 11
42.2210513175
 21
-266.9724546205
  0
LINE
  8
1
  6
HIDDEN
 62
3
 10
94.2210513175
 20
-265.9724546205
 11
94.2210513175
 21
-169.9724546205
  0
LINE
  8
1
  6
HIDDEN
 62
3
 10
42.2210513175
 20
-160.9724546205
 11
42.2210513175
 21
-256.9724546205
  0
ARC
  8
1
  6
HIDDEN
 62
3
 10
43.2210513175
 20
-160.9724546205
 40
1.0000000000
 50
90.0000000000
 51
180.0000000000
  0
ARC
  8
1
  6
HIDDEN
 62
3
 10
93.2210513175
 20
-265.9724546205
 40
1.0000000000
 50
270.0000000000
 51
0.0000000000
  0
LINE
  8
7
  6
CONTINUOUS
 62
7
 10
95.4710513175
 20
-274.4724546203
 11
95.4710513175
 21
-152.4724546207
  0
LINE
  8
7
  6
CONTINUOUS
 62
7
 10
94.4710513175
 20
-151.4724546207
 11
41.9710513175
 21
-151.4724546203
  0
LINE
  8
7
  6
CONTINUOUS
 62
7
 10
40.9710513175
 20
-274.4724546207
 11
40.9710513175
 21
-152.4724546203
  0
LINE
  8
7
  6
CONTINUOUS
 62
7
 10
94.4710513175
 20
-275.4724546203
 11
41.9710513175
 21
-275.4724546207
  0
LINE
  8
7
  6
CONTINUOUS
 62
7
 10
41.9710513175
 20
-151.4724546203
 11
40.9710513175
 21
-152.4724546203
  0
LINE
  8
7
  6
CONTINUOUS
 62
7
 10
95.4710513175
 20
-152.4724546207
 11
94.4710513175
 21
-151.4724546207
  0
LINE
  8
7
  6
CONTINUOUS
 62
7
 10
95.4710513175
 20
-274.4724546203
 11
94.4710513175
 21
-275.4724546203
  0
LINE
  8
7
  6
CONTINUOUS
 62
7
 10
41.9710513175
 20
-275.4724546207
 11
40.9710513175
 21
-274.4724546207
  0
CIRCLE
  8
3
  6
CONTINUOUS
 62
6
 10
68.2210513175
 20
-154.9724546206
 40
3.9000000000
  0
LINE
  8
3
  6
CONTINUOUS
 62
6
 10
66.4974785384
 20
-153.2488818414
 11
69.9446240967
 21
-156.6960273997
  0
LINE
  8
3
  6
CONTINUOUS
 62
6
 10
66.4974785384
 20
-156.6960273997
 11
69.9446240967
 21
-153.2488818414
  0
CIRCLE
  8
3
  6
CONTINUOUS
 62
6
 10
68.2210513175
 20
-154.9724546206
 40
3.4125000000
  0
CIRCLE
  8
3
  6
CONTINUOUS
 62
6
 10
68.2210513175
 20
-271.9724546205
 40
3.9000000000
  0
LINE
  8
3
  6
CONTINUOUS
 62
6
 10
66.4974785384
 20
-270.2488818414
 11
69.9446240967
 21
-273.6960273996
  0
LINE
  8
3
  6
CONTINUOUS
 62
6
 10
66.4974785384
 20
-273.6960273996
 11
69.9446240967
 21
-270.2488818414
  0
CIRCLE
  8
3
  6
CONTINUOUS
 62
6
 10
68.2210513175
 20
-271.9724546205
 40
3.4125000000
  0
LINE
  8
3
  6
CONTINUOUS
 62
7
 10
95.4710513175
 20
-274.4724546203
 11
95.4710513175
 21
-152.4724546207
  0
LINE
  8
3
  6
CONTINUOUS
 62
7
 10
95.4710513175
 20
-152.4724546207
 11
94.4710513175
 21
-151.4724546207
  0
LINE
  8
3
  6
CONTINUOUS
 62
7
 10
94.4710513175
 20
-151.4724546207
 11
41.9710513175
 21
-151.4724546203
  0
LINE
  8
3
  6
CONTINUOUS
 62
7
 10
41.9710513175
 20
-151.4724546203
 11
40.9710513175
 21
-152.4724546203
  0
LINE
  8
3
  6
CONTINUOUS
 62
7
 10
40.9710513175
 20
-274.4724546207
 11
40.9710513175
 21
-152.4724546203
  0
LINE
  8
3
  6
CONTINUOUS
 62
7
 10
41.9710513175
 20
-275.4724546207
 11
40.9710513175
 21
-274.4724546207
  0
LINE
  8
3
  6
CONTINUOUS
 62
7
 10
94.4710513175
 20
-275.4724546203
 11
41.9710513175
 21
-275.4724546207
  0
LINE
  8
3
  6
CONTINUOUS
 62
7
 10
95.4710513175
 20
-274.4724546203
 11
94.4710513175
 21
-275.4724546203
  0
TEXT
  8
3
  6
CONTINUOUS
 62
7
 10
207.605518
 20
-122.310336
 40
5.000000
  1
A3
 41
0.854701
 50
0.000000
 51
0.000000
 72
   5
 73
   0
 11
212.605518
 21
-122.310336
  0
TEXT
  8
3
  6
CONTINUOUS
 62
7
 10
207.605518
 20
-127.310336
 40
5.000000
  1
海外向け
 41
0.886918
 50
0.000000
 51
0.000000
 72
   5
 73
   0
 11
227.605518
 21
-127.310336
  0
TEXT
  8
3
  6
CONTINUOUS
 62
7
 10
207.605518
 20
-132.310336
 40
5.000000
  1
(BS:南ｱﾌﾘｶ)
 41
0.782361
 50
0.000000
 51
0.000000
 72
   5
 73
   0
 11
235.105518
 21
-132.310336
  0
TEXT
  8
3
  6
CONTINUOUS
 62
7
 10
207.605518
 20
-137.310336
 40
5.000000
  1
(A :US)
 41
0.774336
 50
0.000000
 51
0.000000
 72
   5
 73
   0
 11
225.105518
 21
-137.310336
  0
POINT
  8
3
  6
CONTINUOUS
 62
7
 10
193.9105182328
 20
121.8525214536
  0
POINT
  8
3
  6
CONTINUOUS
 62
7
 10
193.9105182328
 20
121.8525214536
  0
POINT
  8
3
  6
CONTINUOUS
 62
7
 10
193.9105182328
 20
121.8525214536
  0
POINT
  8
3
  6
CONTINUOUS
 62
7
 10
193.9105182328
 20
121.8525214536
  0
POINT
  8
3
  6
CONTINUOUS
 62
7
 10
193.9105182328
 20
121.8525214536
  0
POINT
  8
3
  6
CONTINUOUS
 62
7
 10
193.9105182328
 20
121.8525214536
  0
POINT
  8
3
  6
CONTINUOUS
 62
7
 10
193.9105182328
 20
121.8525214536
  0
LINE
  8
3
  6
CONTINUOUS
 62
7
 10
171.3105182328
 20
144.4525214536
 11
216.5105182328
 21
144.4525214536
  0
LINE
  8
3
  6
CONTINUOUS
 62
7
 10
171.3105182328
 20
99.2525214536
 11
171.3105182328
 21
144.4525214536
  0
LINE
  8
3
  6
CONTINUOUS
 62
7
 10
216.5105182328
 20
99.2525214536
 11
171.3105182328
 21
99.2525214536
  0
LINE
  8
3
  6
CONTINUOUS
 62
7
 10
216.5105182328
 20
144.4525214536
 11
216.5105182328
 21
99.2525214536
  0
POINT
  8
3
  6
CONTINUOUS
 62
7
 10
193.9105182328
 20
121.8525214536
  0
POINT
  8
3
  6
CONTINUOUS
 62
7
 10
193.9105182328
 20
121.8525214536
  0
POINT
  8
3
  6
CONTINUOUS
 62
7
 10
221.4958056346
 20
-88.1795996262
  0
POINT
  8
3
  6
CONTINUOUS
 62
7
 10
221.4958056346
 20
-88.1795996262
  0
POINT
  8
3
  6
CONTINUOUS
 62
7
 10
221.4958056346
 20
-88.1795996262
  0
LINE
  8
3
  6
HIDDEN
 62
6
 10
241.7458056346
 20
-108.4295996262
 11
201.2458056346
 21
-108.4295996262
  0
LINE
  8
3
  6
HIDDEN
 62
6
 10
201.2458056346
 20
-108.4295996262
 11
201.2458056346
 21
-67.9295996262
  0
LINE
  8
3
  6
HIDDEN
 62
6
 10
201.2458056346
 20
-67.9295996262
 11
241.7458056346
 21
-67.9295996262
  0
LINE
  8
3
  6
HIDDEN
 62
6
 10
241.7458056346
 20
-67.9295996262
 11
241.7458056346
 21
-108.4295996262
  0
POINT
  8
3
  6
CONTINUOUS
 62
7
 10
221.4958056346
 20
-88.1795996262
  0
POINT
  8
3
  6
CONTINUOUS
 62
7
 10
221.4958056346
 20
-88.1795996262
  0
POINT
  8
3
  6
CONTINUOUS
 62
7
 10
221.4958056346
 20
-88.1795996262
  0
POINT
  8
3
  6
CONTINUOUS
 62
7
 10
221.4958056346
 20
-88.1795996262
  0
LINE
  8
3
  6
CONTINUOUS
 62
7
 10
198.8958056346
 20
-65.5795996262
 11
244.0958056346
 21
-65.5795996262
  0
LINE
  8
3
  6
CONTINUOUS
 62
7
 10
198.8958056346
 20
-110.7795996262
 11
198.8958056346
 21
-65.5795996262
  0
LINE
  8
3
  6
CONTINUOUS
 62
7
 10
244.0958056346
 20
-110.7795996262
 11
198.8958056346
 21
-110.7795996262
  0
LINE
  8
3
  6
CONTINUOUS
 62
7
 10
244.0958056346
 20
-65.5795996262
 11
244.0958056346
 21
-110.7795996262
  0
POINT
  8
3
  6
CONTINUOUS
 62
7
 10
221.4958056346
 20
-88.1795996262
  0
ARC
  8
3
  6
CONTINUOUS
 62
5
 10
221.4958056346
 20
-81.2295996262
 40
2.6500000000
 50
180.0000000000
 51
0.0000000000
  0
LINE
  8
3
  6
CONTINUOUS
 62
5
 10
218.8458056346
 20
-81.2295996262
 11
218.8458056346
 21
-78.5795996262
  0
LINE
  8
3
  6
CONTINUOUS
 62
5
 10
218.8458056346
 20
-78.5795996262
 11
224.1458056346
 21
-78.5795996262
  0
LINE
  8
3
  6
CONTINUOUS
 62
5
 10
224.1458056346
 20
-78.5795996262
 11
224.1458056346
 21
-81.2295996262
  0
LINE
  8
3
  6
CONTINUOUS
 62
5
 10
226.7958056346
 20
-88.7795996262
 11
228.9958056346
 21
-88.7795996262
  0
LINE
  8
3
  6
CONTINUOUS
 62
5
 10
228.9958056346
 20
-88.7795996262
 11
228.9958056346
 21
-91.1497006389
  0
LINE
  8
3
  6
CONTINUOUS
 62
5
 10
228.9958056346
 20
-95.1094986135
 11
228.9958056346
 21
-97.4795996262
  0
LINE
  8
3
  6
CONTINUOUS
 62
5
 10
228.9958056346
 20
-97.4795996262
 11
226.7958056346
 21
-97.4795996262
  0
LINE
  8
3
  6
CONTINUOUS
 62
5
 10
226.7958056346
 20
-97.4795996262
 11
226.7958056346
 21
-88.7795996262
  0
LINE
  8
3
  6
CONTINUOUS
 62
5
 10
213.9958056346
 20
-89.6295996262
 11
216.1958056346
 21
-89.6295996262
  0
LINE
  8
3
  6
CONTINUOUS
 62
5
 10
216.1958056346
 20
-89.6295996262
 11
216.1958056346
 21
-96.6295996262
  0
LINE
  8
3
  6
CONTINUOUS
 62
5
 10
216.1958056346
 20
-96.6295996262
 11
213.9958056346
 21
-96.6295996262
  0
LINE
  8
3
  6
CONTINUOUS
 62
5
 10
213.9958056346
 20
-96.6295996262
 11
213.9958056346
 21
-95.1094986135
  0
LINE
  8
3
  6
CONTINUOUS
 62
5
 10
213.9958056346
 20
-91.1497006389
 11
213.9958056346
 21
-89.6295996262
  0
POINT
  8
3
  6
CONTINUOUS
 62
7
 10
221.4958056346
 20
-88.1795996262
  0
ARC
  8
3
  6
CONTINUOUS
 62
5
 10
231.0458056346
 20
-93.1295996262
 40
2.8500000000
 50
224.0034273486
 51
135.9965726514
  0
ARC
  8
3
  6
CONTINUOUS
 62
5
 10
211.9458056346
 20
-93.1295996262
 40
2.8500000000
 50
44.0034273486
 51
315.9965726514
  0
POINT
  8
3
  6
CONTINUOUS
 62
5
 10
211.9458056346
 20
-93.1295996262
  0
POINT
  8
3
  6
CONTINUOUS
 62
5
 10
231.0458056346
 20
-93.1295996262
  0
POINT
  8
3
  6
CONTINUOUS
 62
7
 10
80.4710513175
 20
-178.4724546206
  0
LINE
  8
3
  6
CONTINUOUS
 62
7
 10
71.9710513175
 20
-166.9724546206
 11
88.9710513175
 21
-166.9724546206
  0
LINE
  8
3
  6
CONTINUOUS
 62
7
 10
71.9710513175
 20
-189.9724546206
 11
71.9710513175
 21
-166.9724546206
  0
LINE
  8
3
  6
CONTINUOUS
 62
7
 10
88.9710513175
 20
-189.9724546206
 11
71.9710513175
 21
-189.9724546206
  0
LINE
  8
3
  6
CONTINUOUS
 62
7
 10
88.9710513175
 20
-166.9724546206
 11
88.9710513175
 21
-189.9724546206
  0
CIRCLE
  8
3
  6
CONTINUOUS
 62
7
 10
80.4710513175
 20
-163.9724546206
 40
1.5000000000
  0
CIRCLE
  8
3
  6
CONTINUOUS
 62
7
 10
80.4710513175
 20
-192.9724546206
 40
1.5000000000
  0
TEXT
  8
3
  6
CONTINUOUS
 62
7
 10
76.721051
 20
-178.472455
 40
5.000000
  1
⑪
 41
1.000000
 50
0.000000
 51
0.000000
 72
   5
 73
   0
 11
81.721051
 21
-178.472455
  0
TEXT
  8
3
  6
CONTINUOUS
 62
7
 10
76.721051
 20
-183.472455
 40
5.000000
  1
USB
 41
0.815217
 50
0.000000
 51
0.000000
 72
   5
 73
   0
 11
84.221051
 21
-183.472455
  0
POINT
  8
3
  6
CONTINUOUS
 62
7
 10
68.2210513175
 20
-230.4724546206
  0
POINT
  8
3
  6
CONTINUOUS
 62
7
 10
68.2210513175
 20
-230.4724546206
  0
POINT
  8
3
  6
CONTINUOUS
 62
7
 10
68.2210513175
 20
-230.4724546206
  0
POINT
  8
3
  6
CONTINUOUS
 62
7
 10
68.2210513175
 20
-230.4724546206
  0
POINT
  8
3
  6
CONTINUOUS
 62
7
 10
68.2210513175
 20
-230.4724546206
  0
LINE
  8
3
  6
HIDDEN
 62
3
 10
89.3710513175
 20
-209.3224546206
 11
47.0710513175
 21
-209.3224546206
  0
LINE
  8
3
  6
HIDDEN
 62
3
 10
89.3710513175
 20
-251.6224546206
 11
89.3710513175
 21
-209.3224546206
  0
LINE
  8
3
  6
HIDDEN
 62
3
 10
47.0710513175
 20
-209.3224546206
 11
47.0710513175
 21
-251.6224546206
  0
LINE
  8
3
  6
HIDDEN
 62
3
 10
47.0710513175
 20
-251.6224546206
 11
89.3710513175
 21
-251.6224546206
  0
POINT
  8
3
  6
CONTINUOUS
 62
7
 10
68.2210513175
 20
-230.4724546206
  0
POINT
  8
3
  6
CONTINUOUS
 62
7
 10
68.2210513175
 20
-230.4724546206
  0
LINE
  8
3
  6
CONTINUOUS
 62
7
 10
45.6210513175
 20
-207.8724546206
 11
90.8210513175
 21
-207.8724546206
  0
LINE
  8
3
  6
CONTINUOUS
 62
7
 10
45.6210513175
 20
-253.0724546206
 11
45.6210513175
 21
-207.8724546206
  0
LINE
  8
3
  6
CONTINUOUS
 62
7
 10
90.8210513175
 20
-253.0724546206
 11
45.6210513175
 21
-253.0724546206
  0
LINE
  8
3
  6
CONTINUOUS
 62
7
 10
90.8210513175
 20
-207.8724546206
 11
90.8210513175
 21
-253.0724546206
  0
POINT
  8
3
  6
CONTINUOUS
 62
7
 10
68.2210513175
 20
-230.4724546206
  0
POINT
  8
3
  6
CONTINUOUS
 62
7
 10
68.2210513175
 20
-230.4724546206
  0
LINE
  8
3
  6
CONTINUOUS
 62
7
 10
47.4710513175
 20
-190.6224546205
 11
47.4710513175
 21
-166.3224546205
  0
LINE
  8
3
  6
CONTINUOUS
 62
7
 10
47.4710513175
 20
-166.3224546205
 11
64.4710513175
 21
-166.3224546205
  0
LINE
  8
3
  6
CONTINUOUS
 62
7
 10
64.4710513175
 20
-166.3224546205
 11
64.4710513175
 21
-190.6224546205
  0
LINE
  8
3
  6
CONTINUOUS
 62
7
 10
64.4710513175
 20
-190.6224546205
 11
47.4710513175
 21
-190.6224546205
  0
POINT
  8
3
  6
CONTINUOUS
 62
9
 10
55.9710513175
 20
-178.4724546205
  0
TEXT
  8
3
  6
CONTINUOUS
 62
7
 10
50.971051
 20
-178.472455
 40
5.000000
  1
⑩
 41
1.000000
 50
0.000000
 51
0.000000
 72
   5
 73
   0
 11
55.971051
 21
-178.472455
  0
TEXT
  8
3
  6
CONTINUOUS
 62
7
 10
50.971051
 20
-183.472455
 40
5.000000
  1
RJ45
 41
0.796813
 50
0.000000
 51
0.000000
 72
   5
 73
   0
 11
60.971051
 21
-183.472455
  0
LINE
  8
4
  6
CONTINUOUS
 62
3
 10
319.0572849682
 20
172.3091792572
 11
372.0572849682
 21
172.3091792572
  0
LINE
  8
4
  6
CONTINUOUS
 62
3
 10
372.0572849682
 20
172.3091792572
 11
372.0572849682
 21
64.3091792572
  0
LINE
  8
4
  6
CONTINUOUS
 62
3
 10
319.0572849682
 20
64.3091792572
 11
319.0572849682
 21
172.3091792572
  0
LINE
  8
4
  6
CONTINUOUS
 62
3
 10
372.0572849682
 20
64.3091792572
 11
319.0572849682
 21
64.3091792572
  0
CIRCLE
  8
4
  6
CONTINUOUS
 62
3
 10
325.5572849682
 20
176.8091792572
 40
1.5000000000
  0
CIRCLE
  8
4
  6
CONTINUOUS
 62
3
 10
365.5572849682
 20
176.8091792572
 40
1.5000000000
  0
CIRCLE
  8
4
  6
CONTINUOUS
 62
3
 10
325.5572849682
 20
59.8091792572
 40
1.5000000000
  0
CIRCLE
  8
4
  6
CONTINUOUS
 62
3
 10
365.5572849682
 20
59.8091792572
 40
1.5000000000
  0
CIRCLE
  8
4
  6
CONTINUOUS
 62
3
 10
345.5572849682
 20
176.8091792572
 40
2.2500000000
  0
CIRCLE
  8
4
  6
CONTINUOUS
 62
3
 10
345.5572849682
 20
59.8091792572
 40
2.2500000000
  0
DIMENSION
  8
4
  6
CONTINUOUS
 62
5
  2
*D7
 10
325.5572849682
 20
183.5026280811
 11
322.3072849682
 21
186.2526280811
  70
0
 13
319.0572849682
 23
172.3091792572
 14
325.5572849682
 24
175.3091792572
 50
0.000000
  0
DIMENSION
  8
4
  6
CONTINUOUS
 62
5
  2
*D8
 10
345.5572849682
 20
183.5026280811
 11
335.5572849682
 21
186.2526280811
  70
0
 13
325.5572849682
 23
175.3091792572
 14
345.5572849682
 24
174.5591792572
 50
0.000000
  0
DIMENSION
  8
4
  6
CONTINUOUS
 62
5
  2
*D9
 10
365.5572849682
 20
183.5026280811
 11
355.5572849682
 21
186.2526280811
  70
0
 13
345.5572849682
 23
174.5591792572
 14
365.5572849682
 24
175.3091792572
 50
0.000000
  0
DIMENSION
  8
4
  6
CONTINUOUS
 62
5
  2
*D10
 10
372.0572849682
 20
183.5026280811
 11
368.8072849682
 21
186.2526280811
  70
0
 13
365.5572849682
 23
175.3091792572
 14
372.0572849682
 24
172.3091792572
 50
0.000000
  0
DIMENSION
  8
4
  6
CONTINUOUS
 62
5
  2
*D11
 10
372.0572849682
 20
190.5026280811
 11
345.5572849682
 21
193.2526280811
  70
0
 13
319.0572849682
 23
172.3091792572
 14
372.0572849682
 24
172.3091792572
 50
0.000000
  0
DIMENSION
  8
4
  6
CONTINUOUS
 62
5
  2
*D12
 10
324.7064153436
 20
178.0445014346
 11
327.8220422934
 21
178.3691069023
  70
3
 15
326.4081545928
 25
175.5738570798
  0
DIMENSION
  8
4
  6
CONTINUOUS
 62
5
  2
*D13
 10
344.1560871308
 20
178.5696180151
 11
347.7089323390
 21
178.5217543918
  70
3
 15
346.9584828056
 25
175.0487404993
  0
TEXT
  8
4
  6
CONTINUOUS
 62
7
 10
322.885309
 20
36.103267
 40
5.000000
  1
パネルカット図
 41
0.872818
 50
0.000000
 51
0.000000
 72
   5
 73
   0
 11
357.885309
 21
36.103267
  0
TEXT
  8
4
  6
CONTINUOUS
 62
7
 10
322.885309
 20
31.103267
 40
5.000000
  1
推奨板厚 t=1.6以上
 41
0.827967
 50
0.000000
 51
0.000000
 72
   5
 73
   0
 11
367.885309
 21
31.103267
  0
LINE
  8
1
  6
HIDDEN
 62
1
 10
380.0572849682
 20
44.0591792572
 11
380.0572849682
 21
199.5591792572
  0
LINE
  8
1
  6
HIDDEN
 62
1
 10
380.0572849682
 20
199.5591792572
 11
311.0572849682
 21
199.5591792572
  0
LINE
  8
1
  6
HIDDEN
 62
1
 10
311.0572849682
 20
199.5591792572
 11
311.0572849682
 21
44.0591792572
  0
LINE
  8
1
  6
HIDDEN
 62
1
 10
380.0572849682
 20
44.0591792572
 11
311.0572849682
 21
44.0591792572
  0
DIMENSION
  8
1
  6
CONTINUOUS
 62
5
  2
*D14
 10
306.8614186851
 20
64.3091792572
 11
304.3614186851
 21
62.0591792572
  70
0
 13
367.0572849682
 23
59.8091792572
 14
319.0572849682
 24
64.3091792572
 50
90.000000
  0
DIMENSION
  8
1
  6
CONTINUOUS
 62
5
  2
*D15
 10
306.8614186851
 20
172.3091792572
 11
304.1114186851
 21
118.3091792572
  70
0
 13
319.0572849682
 23
64.3091792572
 14
319.0572849682
 24
172.3091792572
 50
90.000000
  0
DIMENSION
  8
1
  6
CONTINUOUS
 62
5
  2
*D16
 10
306.8614186851
 20
176.8091792572
 11
304.3614186851
 21
174.5591792572
  70
0
 13
319.0572849682
 23
172.3091792572
 14
367.0572849682
 24
176.8091792572
 50
90.000000
  0
DIMENSION
  8
1
  6
CONTINUOUS
 62
5
  2
*D17
 10
299.8614186851
 20
176.8091792572
 11
297.1114186851
 21
118.3091792572
  70
0
 13
367.0572849682
 23
59.8091792572
 14
367.0572849682
 24
176.8091792572
 50
90.000000
  0
DIMENSION
  8
1
  6
CONTINUOUS
 62
5
  2
*D18
 10
387.7005190311
 20
64.3091792572
 11
384.9505190311
 21
54.1841792572
  70
0
 13
380.0572849682
 23
44.0591792572
 14
372.0572849682
 24
64.3091792572
 50
90.000000
  0
DIMENSION
  8
1
  6
CONTINUOUS
 62
5
  2
*D19
 10
387.7005190311
 20
172.3091792572
 11
384.9505190311
 21
118.3091792572
  70
0
 13
372.0572849682
 23
64.3091792572
 14
372.0572849682
 24
172.3091792572
 50
90.000000
  0
DIMENSION
  8
1
  6
CONTINUOUS
 62
5
  2
*D20
 10
387.7005190311
 20
199.5591792572
 11
384.9505190311
 21
185.9341792572
  70
0
 13
372.0572849682
 23
172.3091792572
 14
380.0572849682
 24
199.5591792572
 50
90.000000
  0
INSERT
  8
1
  6
CONTINUOUS
 62
5
  2
LTEX1
 10
323.9116262976
 20
44.0591792572
  0
INSERT
  8
1
  6
CONTINUOUS
 62
5
  2
BALN8
 10
131.0889601190
 20
214.9344220794
  0
INSERT
  8
1
  6
CONTINUOUS
 62
5
  2
BALN9
 10
112.1348058892
 20
202.0171741535
  0
INSERT
  8
1
  6
CONTINUOUS
 62
5
  2
BALN10
 10
173.9105182328
 20
197.3525214537
  0
INSERT
  8
1
  6
CONTINUOUS
 62
5
  2
BALN11
 10
193.9105182328
 20
201.2525214536
  0
INSERT
  8
1
  6
CONTINUOUS
 62
5
  2
BALN12
 10
210.8775143248
 20
187.5497784381
  0
TEXT
  8
1
  6
CONTINUOUS
 62
7
 10
183.910518
 20
121.852521
 40
5.000000
  1
⑨
 41
1.000000
 50
0.000000
 51
0.000000
 72
   5
 73
   0
 11
188.910518
 21
121.852521
  0
TEXT
  8
1
  6
CONTINUOUS
 62
7
 10
183.910518
 20
116.852521
 40
5.000000
  1
ACｱｳﾄﾚｯﾄ
 41
0.770713
 50
0.000000
 51
0.000000
 72
   5
 73
   0
 11
203.910518
 21
116.852521
  0
LINE
  8
5
  6
CONTINUOUS
 62
6
 10
309.6567742348
 20
-75.4016144488
 11
309.6567742348
 21
-70.4016144488
  0
LINE
  8
5
  6
CONTINUOUS
 62
6
 10
309.6567742348
 20
-70.4016144488
 11
314.6567742348
 21
-70.4016144488
  0
LINE
  8
5
  6
CONTINUOUS
 62
6
 10
314.6567742348
 20
-70.4016144488
 11
334.6567742348
 21
-70.4016144488
  0
LINE
  8
5
  6
CONTINUOUS
 62
6
 10
334.6567742348
 20
-70.4016144488
 11
374.6567742348
 21
-70.4016144488
  0
LINE
  8
5
  6
CONTINUOUS
 62
6
 10
374.6567742348
 20
-70.4016144488
 11
389.6567742348
 21
-70.4016144488
  0
LINE
  8
5
  6
CONTINUOUS
 62
6
 10
389.6567742348
 20
-70.4016144488
 11
394.6567742348
 21
-70.4016144488
  0
LINE
  8
5
  6
CONTINUOUS
 62
6
 10
394.6567742348
 20
-70.4016144488
 11
394.6567742348
 21
-75.4016144488
  0
LINE
  8
5
  6
CONTINUOUS
 62
6
 10
394.6567742348
 20
-75.4016144488
 11
389.6567742348
 21
-75.4016144488
  0
LINE
  8
5
  6
CONTINUOUS
 62
6
 10
389.6567742348
 20
-75.4016144488
 11
374.6567742348
 21
-75.4016144488
  0
LINE
  8
5
  6
CONTINUOUS
 62
6
 10
374.6567742348
 20
-75.4016144488
 11
334.6567742348
 21
-75.4016144488
  0
LINE
  8
5
  6
CONTINUOUS
 62
6
 10
334.6567742348
 20
-75.4016144488
 11
314.6567742348
 21
-75.4016144488
  0
LINE
  8
5
  6
CONTINUOUS
 62
6
 10
314.6567742348
 20
-75.4016144488
 11
309.6567742348
 21
-75.4016144488
  0
LINE
  8
5
  6
CONTINUOUS
 62
6
 10
314.6567742348
 20
-70.4016144488
 11
314.6567742348
 21
-75.4016144488
  0
LINE
  8
5
  6
CONTINUOUS
 62
6
 10
334.6567742348
 20
-70.4016144488
 11
334.6567742348
 21
-75.4016144488
  0
LINE
  8
5
  6
CONTINUOUS
 62
6
 10
374.6567742348
 20
-70.4016144488
 11
374.6567742348
 21
-75.4016144488
  0
LINE
  8
5
  6
CONTINUOUS
 62
6
 10
389.6567742348
 20
-70.4016144488
 11
389.6567742348
 21
-75.4016144488
  0
TEXT
  8
5
  6
CONTINUOUS
 62
7
 10
309.856774
 20
-74.051614
 40
2.300000
  1
項番
 41
0.921659
 50
0.000000
 51
0.000000
 72
   5
 73
   0
 11
314.456774
 21
-74.051614
  0
TEXT
  8
5
  6
CONTINUOUS
 62
7
 10
319.664774
 20
-74.401614
 40
3.000000
  1
品　　名
 41
0.737916
 50
0.000000
 51
0.000000
 72
   5
 73
   0
 11
329.648774
 21
-74.401614
  0
TEXT
  8
5
  6
CONTINUOUS
 62
7
 10
339.503774
 20
-74.401614
 40
3.000000
  1
定  格 / 型  番 / 材　質
 41
0.686277
 50
0.000000
 51
0.000000
 72
   5
 73
   0
 11
369.809774
 21
-74.401614
  0
TEXT
  8
5
  6
CONTINUOUS
 62
7
 10
376.959274
 20
-74.401614
 40
3.000000
  1
メーカー
 41
0.768293
 50
0.000000
 51
0.000000
 72
   5
 73
   0
 11
387.354274
 21
-74.401614
  0
TEXT
  8
5
  6
CONTINUOUS
 62
7
 10
389.856774
 20
-74.051614
 40
2.300000
  1
数量
 41
0.921659
 50
0.000000
 51
0.000000
 72
   5
 73
   0
 11
394.456774
 21
-74.051614
  0
LINE
  8
5
  6
CONTINUOUS
 62
6
 10
309.6567742348
 20
-80.4016144488
 11
309.6567742348
 21
-75.4016144488
  0
LINE
  8
5
  6
CONTINUOUS
 62
6
 10
309.6567742348
 20
-75.4016144488
 11
314.6567742348
 21
-75.4016144488
  0
LINE
  8
5
  6
CONTINUOUS
 62
6
 10
314.6567742348
 20
-75.4016144488
 11
334.6567742348
 21
-75.4016144488
  0
LINE
  8
5
  6
CONTINUOUS
 62
6
 10
334.6567742348
 20
-75.4016144488
 11
374.6567742348
 21
-75.4016144488
  0
LINE
  8
5
  6
CONTINUOUS
 62
6
 10
374.6567742348
 20
-75.4016144488
 11
389.6567742348
 21
-75.4016144488
  0
LINE
  8
5
  6
CONTINUOUS
 62
6
 10
389.6567742348
 20
-75.4016144488
 11
394.6567742348
 21
-75.4016144488
  0
LINE
  8
5
  6
CONTINUOUS
 62
6
 10
394.6567742348
 20
-75.4016144488
 11
394.6567742348
 21
-80.4016144488
  0
LINE
  8
5
  6
CONTINUOUS
 62
6
 10
394.6567742348
 20
-80.4016144488
 11
389.6567742348
 21
-80.4016144488
  0
LINE
  8
5
  6
CONTINUOUS
 62
6
 10
389.6567742348
 20
-80.4016144488
 11
374.6567742348
 21
-80.4016144488
  0
LINE
  8
5
  6
CONTINUOUS
 62
6
 10
334.6567742348
 20
-80.4016144488
 11
314.6567742348
 21
-80.4016144488
  0
LINE
  8
5
  6
CONTINUOUS
 62
6
 10
314.6567742348
 20
-80.4016144488
 11
309.6567742348
 21
-80.4016144488
  0
LINE
  8
5
  6
CONTINUOUS
 62
6
 10
314.6567742348
 20
-75.4016144488
 11
314.6567742348
 21
-80.4016144488
  0
LINE
  8
5
  6
CONTINUOUS
 62
6
 10
334.6567742348
 20
-75.4016144488
 11
334.6567742348
 21
-80.4016144488
  0
LINE
  8
5
  6
CONTINUOUS
 62
6
 10
374.6567742348
 20
-75.4016144488
 11
374.6567742348
 21
-80.4016144488
  0
LINE
  8
5
  6
CONTINUOUS
 62
6
 10
389.6567742348
 20
-75.4016144488
 11
389.6567742348
 21
-80.4016144488
  0
LINE
  8
5
  6
CONTINUOUS
 62
6
 10
394.6567742348
 20
-85.4016144488
 11
389.6567742348
 21
-85.4016144488
  0
LINE
  8
5
  6
CONTINUOUS
 62
6
 10
389.6567742348
 20
-85.4016144488
 11
374.6567742348
 21
-85.4016144488
  0
LINE
  8
5
  6
CONTINUOUS
 62
6
 10
374.6567742348
 20
-85.4016144488
 11
334.6567742348
 21
-85.4016144488
  0
LINE
  8
5
  6
CONTINUOUS
 62
6
 10
334.6567742348
 20
-85.4016144488
 11
314.6567742348
 21
-85.4016144488
  0
LINE
  8
5
  6
CONTINUOUS
 62
6
 10
314.6567742348
 20
-85.4016144488
 11
309.6567742348
 21
-85.4016144488
  0
LINE
  8
5
  6
CONTINUOUS
 62
6
 10
309.6567742348
 20
-85.4016144488
 11
309.6567742348
 21
-80.4016144488
  0
LINE
  8
5
  6
CONTINUOUS
 62
6
 10
309.6567742348
 20
-90.4016144488
 11
309.6567742348
 21
-85.4016144488
  0
LINE
  8
5
  6
CONTINUOUS
 62
6
 10
314.6567742348
 20
-80.4016144488
 11
314.6567742348
 21
-85.4016144488
  0
LINE
  8
5
  6
CONTINUOUS
 62
6
 10
314.6567742348
 20
-85.4016144488
 11
314.6567742348
 21
-90.4016144488
  0
LINE
  8
5
  6
CONTINUOUS
 62
6
 10
334.6567742348
 20
-80.4016144488
 11
334.6567742348
 21
-85.4016144488
  0
LINE
  8
5
  6
CONTINUOUS
 62
6
 10
334.6567742348
 20
-85.4016144488
 11
334.6567742348
 21
-90.4016144488
  0
LINE
  8
5
  6
CONTINUOUS
 62
6
 10
374.6567742348
 20
-80.4016144488
 11
374.6567742348
 21
-85.4016144488
  0
LINE
  8
5
  6
CONTINUOUS
 62
6
 10
374.6567742348
 20
-85.4016144488
 11
374.6567742348
 21
-90.4016144488
  0
LINE
  8
5
  6
CONTINUOUS
 62
6
 10
389.6567742348
 20
-80.4016144488
 11
389.6567742348
 21
-85.4016144488
  0
LINE
  8
5
  6
CONTINUOUS
 62
6
 10
389.6567742348
 20
-85.4016144488
 11
389.6567742348
 21
-90.4016144488
  0
LINE
  8
5
  6
CONTINUOUS
 62
6
 10
394.6567742348
 20
-80.4016144488
 11
394.6567742348
 21
-85.4016144488
  0
LINE
  8
5
  6
CONTINUOUS
 62
6
 10
394.6567742348
 20
-85.4016144488
 11
394.6567742348
 21
-90.4016144488
  0
LINE
  8
5
  6
CONTINUOUS
 62
6
 10
299.6567742348
 20
-75.4016144488
 11
299.6567742348
 21
-70.4016144488
  0
LINE
  8
5
  6
CONTINUOUS
 62
6
 10
299.6567742348
 20
-70.4016144488
 11
309.6567742348
 21
-70.4016144488
  0
LINE
  8
5
  6
CONTINUOUS
 62
6
 10
309.6567742348
 20
-75.4016144488
 11
304.6567742348
 21
-75.4016144488
  0
LINE
  8
5
  6
CONTINUOUS
 62
6
 10
309.6567742348
 20
-70.4016144488
 11
309.6567742348
 21
-75.4016144488
  0
TEXT
  8
5
  6
CONTINUOUS
 62
7
 10
302.194993
 20
-74.401614
 40
3.000000
  1
型番
 41
0.921659
 50
0.000000
 51
0.000000
 72
   5
 73
   0
 11
308.194993
 21
-74.401614
  0
LINE
  8
5
  6
CONTINUOUS
 62
6
 10
299.6567742348
 20
-80.4016144488
 11
299.6567742348
 21
-75.4016144488
  0
LINE
  8
5
  6
CONTINUOUS
 62
6
 10
299.6567742348
 20
-75.4016144488
 11
309.6567742348
 21
-75.4016144488
  0
LINE
  8
5
  6
CONTINUOUS
 62
6
 10
309.6567742348
 20
-75.4016144488
 11
309.6567742348
 21
-80.4016144488
  0
LINE
  8
5
  6
CONTINUOUS
 62
6
 10
299.6567742348
 20
-85.4016144488
 11
299.6567742348
 21
-80.4016144488
  0
LINE
  8
5
  6
CONTINUOUS
 62
6
 10
299.6567742348
 20
-90.4016144488
 11
299.6567742348
 21
-85.4016144488
  0
LINE
  8
5
  6
CONTINUOUS
 62
6
 10
309.6567742348
 20
-80.4016144488
 11
309.6567742348
 21
-85.4016144488
  0
LINE
  8
5
  6
CONTINUOUS
 62
6
 10
309.6567742348
 20
-85.4016144488
 11
309.6567742348
 21
-90.4016144488
  0
LINE
  8
5
  6
CONTINUOUS
 62
6
 10
394.6567742348
 20
-90.4016144488
 11
389.6567742348
 21
-90.4016144488
  0
LINE
  8
5
  6
CONTINUOUS
 62
6
 10
389.6567742348
 20
-90.4016144488
 11
374.6567742348
 21
-90.4016144488
  0
LINE
  8
5
  6
CONTINUOUS
 62
6
 10
374.6567742348
 20
-90.4016144488
 11
334.6567742348
 21
-90.4016144488
  0
LINE
  8
5
  6
CONTINUOUS
 62
6
 10
334.6567742348
 20
-90.4016144488
 11
314.6567742348
 21
-90.4016144488
  0
LINE
  8
5
  6
CONTINUOUS
 62
6
 10
314.6567742348
 20
-90.4016144488
 11
309.6567742348
 21
-90.4016144488
  0
LINE
  8
5
  6
CONTINUOUS
 62
6
 10
309.6567742348
 20
-90.4016144488
 11
299.6567742348
 21
-90.4016144488
  0
TEXT
  8
3
  6
CONTINUOUS
 62
7
 10
262.060749
 20
-122.310336
 40
5.000000
  1
A4
 41
0.854701
 50
0.000000
 51
0.000000
 72
   5
 73
   0
 11
267.060749
 21
-122.310336
  0
TEXT
  8
3
  6
CONTINUOUS
 62
7
 10
262.060749
 20
-127.310336
 40
5.000000
  1
海外向け
 41
0.886918
 50
0.000000
 51
0.000000
 72
   5
 73
   0
 11
282.060749
 21
-127.310336
  0
TEXT
  8
3
  6
CONTINUOUS
 62
7
 10
262.060749
 20
-132.310336
 40
5.000000
  1
(C-Ⅳ):EU
 41
0.790861
 50
0.000000
 51
0.000000
 72
   5
 73
   0
 11
284.560749
 21
-132.310336
  0
POINT
  8
3
  6
CONTINUOUS
 62
7
 10
273.4510364936
 20
-88.1795996262
  0
POINT
  8
3
  6
CONTINUOUS
 62
7
 10
273.4510364936
 20
-88.1795996262
  0
POINT
  8
3
  6
CONTINUOUS
 62
7
 10
273.4510364936
 20
-88.1795996262
  0
LINE
  8
3
  6
HIDDEN
 62
6
 10
293.7010364936
 20
-108.4295996262
 11
253.2010364936
 21
-108.4295996262
  0
LINE
  8
3
  6
HIDDEN
 62
6
 10
253.2010364936
 20
-108.4295996262
 11
253.2010364936
 21
-67.9295996262
  0
LINE
  8
3
  6
HIDDEN
 62
6
 10
253.2010364936
 20
-67.9295996262
 11
293.7010364936
 21
-67.9295996262
  0
LINE
  8
3
  6
HIDDEN
 62
6
 10
293.7010364936
 20
-67.9295996262
 11
293.7010364936
 21
-108.4295996262
  0
POINT
  8
3
  6
CONTINUOUS
 62
7
 10
273.4510364936
 20
-88.1795996262
  0
POINT
  8
3
  6
CONTINUOUS
 62
7
 10
273.4510364936
 20
-88.1795996262
  0
POINT
  8
3
  6
CONTINUOUS
 62
7
 10
273.4510364936
 20
-88.1795996262
  0
POINT
  8
3
  6
CONTINUOUS
 62
7
 10
273.4510364936
 20
-88.1795996262
  0
LINE
  8
3
  6
CONTINUOUS
 62
7
 10
250.8510364936
 20
-65.5795996262
 11
296.0510364936
 21
-65.5795996262
  0
LINE
  8
3
  6
CONTINUOUS
 62
7
 10
250.8510364936
 20
-110.7795996262
 11
250.8510364936
 21
-65.5795996262
  0
LINE
  8
3
  6
CONTINUOUS
 62
7
 10
296.0510364936
 20
-110.7795996262
 11
250.8510364936
 21
-110.7795996262
  0
LINE
  8
3
  6
CONTINUOUS
 62
7
 10
296.0510364936
 20
-65.5795996262
 11
296.0510364936
 21
-110.7795996262
  0
POINT
  8
3
  6
CONTINUOUS
 62
7
 10
273.4510364936
 20
-88.1795996262
  0
POINT
  8
3
  6
CONTINUOUS
 62
7
 10
273.4510364936
 20
-88.1795996262
  0
POINT
  8
3
  6
CONTINUOUS
 62
7
 10
273.4510364936
 20
-88.1795996262
  0
POINT
  8
3
  6
CONTINUOUS
 62
7
 10
273.4510364936
 20
-88.1795996262
  0
CIRCLE
  8
1
  6
CONTINUOUS
 62
5
 10
273.4510364936
 20
-88.1795996262
 40
19.2500000000
  0
CIRCLE
  8
1
  6
CONTINUOUS
 62
5
 10
273.4510364936
 20
-88.1795996262
 40
2.7500000000
  0
LINE
  8
1
  6
CONTINUOUS
 62
5
 10
272.9510364936
 20
-85.4754361696
 11
272.9510364936
 21
-90.8837630828
  0
LINE
  8
1
  6
CONTINUOUS
 62
5
 10
273.9510364936
 20
-90.8837630828
 11
273.9510364936
 21
-85.4754361696
  0
CIRCLE
  8
1
  6
CONTINUOUS
 62
5
 10
282.9510364936
 20
-88.1795996262
 40
2.8000000000
  0
CIRCLE
  8
1
  6
CONTINUOUS
 62
5
 10
263.9510364936
 20
-88.1795996262
 40
2.8000000000
  0
INSERT
  8
1
  6
CONTINUOUS
 62
5
  2
*X0
 10
263.9510364936
 20
-88.1795996262
  0
LINE
  8
1
  6
CONTINUOUS
 62
5
 10
271.4510364936
 20
-69.0337776276
 11
271.4510364936
 21
-73.2795996262
  0
LINE
  8
1
  6
CONTINUOUS
 62
5
 10
271.4510364936
 20
-73.2795996262
 11
272.2010364936
 21
-73.2795996262
  0
LINE
  8
1
  6
CONTINUOUS
 62
5
 10
274.7010364936
 20
-73.2795996262
 11
275.4510364936
 21
-73.2795996262
  0
LINE
  8
1
  6
CONTINUOUS
 62
5
 10
275.4510364936
 20
-73.2795996262
 11
275.4510364936
 21
-69.0337776276
  0
LINE
  8
1
  6
CONTINUOUS
 62
5
 10
272.2010364936
 20
-68.9702269139
 11
272.2010364936
 21
-74.2795996262
  0
LINE
  8
1
  6
CONTINUOUS
 62
5
 10
272.2010364936
 20
-74.2795996262
 11
274.7010364936
 21
-74.2795996262
  0
LINE
  8
1
  6
CONTINUOUS
 62
5
 10
274.7010364936
 20
-74.2795996262
 11
274.7010364936
 21
-68.9702269139
  0
LINE
  8
1
  6
CONTINUOUS
 62
5
 10
271.4510364936
 20
-107.3254216247
 11
271.4510364936
 21
-103.0795996262
  0
LINE
  8
1
  6
CONTINUOUS
 62
5
 10
271.4510364936
 20
-103.0795996262
 11
272.2010364936
 21
-103.0795996262
  0
LINE
  8
1
  6
CONTINUOUS
 62
5
 10
274.7010364936
 20
-103.0795996262
 11
275.4510364936
 21
-103.0795996262
  0
LINE
  8
1
  6
CONTINUOUS
 62
5
 10
275.4510364936
 20
-103.0795996262
 11
275.4510364936
 21
-107.3254216247
  0
LINE
  8
1
  6
CONTINUOUS
 62
5
 10
272.2010364936
 20
-107.3889723385
 11
272.2010364936
 21
-102.0795996262
  0
LINE
  8
1
  6
CONTINUOUS
 62
5
 10
272.2010364936
 20
-102.0795996262
 11
274.7010364936
 21
-102.0795996262
  0
LINE
  8
1
  6
CONTINUOUS
 62
5
 10
274.7010364936
 20
-102.0795996262
 11
274.7010364936
 21
-107.3889723385
  0
LINE
  8
1
  6
CONTINUOUS
 62
5
 10
290.1510364936
 20
-97.7541753348
 11
290.1510364936
 21
-90.8295996262
  0
LINE
  8
1
  6
CONTINUOUS
 62
5
 10
290.1510364936
 20
-90.8295996262
 11
292.5177614353
 21
-90.8295996262
  0
LINE
  8
1
  6
CONTINUOUS
 62
5
 10
290.1510364936
 20
-78.6050239176
 11
290.1510364936
 21
-85.5295996262
  0
LINE
  8
1
  6
CONTINUOUS
 62
5
 10
290.1510364936
 20
-85.5295996262
 11
292.5177614353
 21
-85.5295996262
  0
LINE
  8
1
  6
CONTINUOUS
 62
5
 10
256.7510364936
 20
-97.7541753348
 11
256.7510364936
 21
-90.8295996262
  0
LINE
  8
1
  6
CONTINUOUS
 62
5
 10
256.7510364936
 20
-90.8295996262
 11
254.3843115520
 21
-90.8295996262
  0
LINE
  8
1
  6
CONTINUOUS
 62
5
 10
256.7510364936
 20
-78.6050239176
 11
256.7510364936
 21
-85.5295996262
  0
LINE
  8
1
  6
CONTINUOUS
 62
5
 10
256.7510364936
 20
-85.5295996262
 11
254.3843115520
 21
-85.5295996262
  0
TEXT
  8
1
  6
CONTINUOUS
 62
7
 10
58.221051
 20
-230.472455
 40
5.000000
  1
⑨
 41
1.000000
 50
0.000000
 51
0.000000
 72
   5
 73
   0
 11
63.221051
 21
-230.472455
  0
TEXT
  8
1
  6
CONTINUOUS
 62
7
 10
58.221051
 20
-235.472455
 40
5.000000
  1
ACｱｳﾄﾚｯﾄ
 41
0.770713
 50
0.000000
 51
0.000000
 72
   5
 73
   0
 11
78.221051
 21
-235.472455
  0
INSERT
  8
1
  6
CONTINUOUS
 62
7
  2
S2
 10
9.0000000000
 20
262.0000000000
  0
POINT
  8
5
  6
CONTINUOUS
 62
6
 10
93.2490435001
 20
-51.9655230621
  0
INSERT
  8
1
  6
CONTINUOUS
 62
7
  2
S3
 10
7.7490435001
 20
-51.9655230621
  0
POINT
  8
5
  6
CONTINUOUS
 62
6
 10
94.5000000000
 20
267.0000000000
  0
INSERT
  8
1
  6
CONTINUOUS
 62
7
  2
S4
 10
9.0000000000
 20
267.0000000000
  0
TEXT
  8
1
  6
CONTINUOUS
 62
7
 10
235.003353
 20
-267.242345
 40
3.000000
  1
USB中継は表裏を
 41
0.846501
 50
0.000000
 51
0.000000
 72
   5
 73
   0
 11
257.503353
 21
-267.242345
  0
TEXT
  8
1
  6
CONTINUOUS
 62
7
 10
235.003353
 20
-270.242345
 40
3.000000
  1
変えることが可能です。
 41
0.866142
 50
0.000000
 51
0.000000
 72
   5
 73
   0
 11
268.003353
 21
-270.242345
  0
LINE
  8
1
  6
CONTINUOUS
 62
1
 10
243.0921374659
 20
-271.6758939425
 11
260.0921374659
 21
-271.6758939425
  0
LINE
  8
1
  6
CONTINUOUS
 62
1
 10
261.0921374659
 20
-306.2758939425
 11
261.0921374659
 21
-305.4758939425
  0
LINE
  8
1
  6
CONTINUOUS
 62
1
 10
261.0921374659
 20
-302.4758939425
 11
261.0921374659
 21
-276.4758939425
  0
LINE
  8
1
  6
CONTINUOUS
 62
1
 10
261.0921374659
 20
-273.4758939425
 11
261.0921374659
 21
-272.6758939425
  0
LINE
  8
1
  6
CONTINUOUS
 62
1
 10
260.0921374659
 20
-307.2758939425
 11
243.0921374659
 21
-307.2758939425
  0
LINE
  8
1
  6
CONTINUOUS
 62
1
 10
242.0921374659
 20
-306.2758939425
 11
242.0921374659
 21
-305.4758939425
  0
LINE
  8
1
  6
CONTINUOUS
 62
1
 10
242.0921374659
 20
-302.4758939425
 11
242.0921374659
 21
-276.4758939425
  0
LINE
  8
1
  6
CONTINUOUS
 62
1
 10
242.0921374659
 20
-273.4758939425
 11
242.0921374659
 21
-272.6758939425
  0
LINE
  8
1
  6
CONTINUOUS
 62
1
 10
259.4921374659
 20
-278.0758939425
 11
243.6921374659
 21
-278.0758939425
  0
LINE
  8
1
  6
CONTINUOUS
 62
1
 10
259.9921374659
 20
-300.3758939425
 11
259.9921374659
 21
-278.5758939425
  0
LINE
  8
1
  6
CONTINUOUS
 62
1
 10
243.6921374659
 20
-300.8758939425
 11
259.4921374659
 21
-300.8758939425
  0
LINE
  8
1
  6
CONTINUOUS
 62
1
 10
243.1921374659
 20
-300.3758939425
 11
243.1921374659
 21
-278.5758939425
  0
CIRCLE
  8
1
  6
CONTINUOUS
 62
1
 10
251.5921374659
 20
-274.9758939425
 40
1.5000000000
  0
CIRCLE
  8
1
  6
CONTINUOUS
 62
1
 10
251.5921374659
 20
-303.9758939425
 40
1.5000000000
  0
ARC
  8
1
  6
CONTINUOUS
 62
1
 10
260.0921374659
 20
-272.6758939425
 40
1.0000000000
 50
0.0000000000
 51
90.0000000000
  0
ARC
  8
1
  6
CONTINUOUS
 62
1
 10
243.0921374659
 20
-272.6758939425
 40
1.0000000000
 50
90.0000000000
 51
180.0000000000
  0
ARC
  8
1
  6
CONTINUOUS
 62
1
 10
243.0921374659
 20
-306.2758939425
 40
1.0000000000
 50
180.0000000000
 51
270.0000000000
  0
ARC
  8
1
  6
CONTINUOUS
 62
1
 10
260.0921374659
 20
-306.2758939425
 40
1.0000000000
 50
270.0000000000
 51
0.0000000000
  0
LINE
  8
1
  6
CONTINUOUS
 62
1
 10
261.0921374659
 20
-305.4758939425
 11
259.0921374659
 21
-305.4758939425
  0
LINE
  8
1
  6
CONTINUOUS
 62
1
 10
259.0921374659
 20
-305.4758939425
 11
259.0921374659
 21
-302.4758939425
  0
LINE
  8
1
  6
CONTINUOUS
 62
1
 10
259.0921374659
 20
-302.4758939425
 11
261.0921374659
 21
-302.4758939425
  0
LINE
  8
1
  6
CONTINUOUS
 62
1
 10
242.0921374659
 20
-305.4758939425
 11
244.0921374659
 21
-305.4758939425
  0
LINE
  8
1
  6
CONTINUOUS
 62
1
 10
244.0921374659
 20
-305.4758939425
 11
244.0921374659
 21
-302.4758939425
  0
LINE
  8
1
  6
CONTINUOUS
 62
1
 10
244.0921374659
 20
-302.4758939425
 11
242.0921374659
 21
-302.4758939425
  0
LINE
  8
1
  6
CONTINUOUS
 62
1
 10
242.0921374659
 20
-273.4758939425
 11
244.0921374659
 21
-273.4758939425
  0
LINE
  8
1
  6
CONTINUOUS
 62
1
 10
244.0921374659
 20
-273.4758939425
 11
244.0921374659
 21
-276.4758939425
  0
LINE
  8
1
  6
CONTINUOUS
 62
1
 10
244.0921374659
 20
-276.4758939425
 11
242.0921374659
 21
-276.4758939425
  0
LINE
  8
1
  6
CONTINUOUS
 62
1
 10
261.0921374659
 20
-273.4758939425
 11
259.0921374659
 21
-273.4758939425
  0
LINE
  8
1
  6
CONTINUOUS
 62
1
 10
259.0921374659
 20
-273.4758939425
 11
259.0921374659
 21
-276.4758939425
  0
LINE
  8
1
  6
CONTINUOUS
 62
1
 10
259.0921374659
 20
-276.4758939425
 11
261.0921374659
 21
-276.4758939425
  0
ARC
  8
1
  6
CONTINUOUS
 62
1
 10
243.6921374659
 20
-278.5758939425
 40
0.5000000000
 50
90.0000000000
 51
180.0000000000
  0
ARC
  8
1
  6
CONTINUOUS
 62
1
 10
259.4921374659
 20
-278.5758939425
 40
0.5000000000
 50
0.0000000000
 51
90.0000000000
  0
ARC
  8
1
  6
CONTINUOUS
 62
1
 10
259.4921374659
 20
-300.3758939425
 40
0.5000000000
 50
270.0000000000
 51
0.0000000000
  0
ARC
  8
1
  6
CONTINUOUS
 62
1
 10
243.6921374659
 20
-300.3758939425
 40
0.5000000000
 50
180.0000000000
 51
270.0000000000
  0
LINE
  8
2
  6
CONTINUOUS
 62
1
 10
246.6821359659
 20
-287.7358939425
 11
251.5921379659
 21
-287.7358939425
  0
LINE
  8
2
  6
CONTINUOUS
 62
1
 10
246.0421409659
 20
-288.3758939425
 11
246.0421409659
 21
-289.5758939425
  0
LINE
  8
2
  6
CONTINUOUS
 62
1
 10
246.5421409659
 20
-289.1958949425
 11
256.6421349659
 21
-289.1958949425
  0
LINE
  8
2
  6
CONTINUOUS
 62
1
 10
246.0421409659
 20
-289.5758939425
 11
251.5921379659
 21
-289.5758939425
  0
LINE
  8
2
  6
CONTINUOUS
 62
1
 10
245.3921349659
 20
-287.6558939425
 11
245.3921349659
 21
-288.6158929425
  0
LINE
  8
2
  6
CONTINUOUS
 62
1
 10
246.5421409659
 20
-289.1958949425
 11
246.5421409659
 21
-288.2358939425
  0
LINE
  8
2
  6
CONTINUOUS
 62
1
 10
248.6821359659
 20
-289.5758939425
 11
248.6821359659
 21
-290.9558939425
  0
LINE
  8
2
  6
CONTINUOUS
 62
1
 10
247.5021379659
 20
-289.5758939425
 11
247.5021379659
 21
-290.9558939425
  0
LINE
  8
2
  6
CONTINUOUS
 62
1
 10
251.1821359659
 20
-289.5758939425
 11
251.1821359659
 21
-290.9558939425
  0
LINE
  8
2
  6
CONTINUOUS
 62
1
 10
250.0021379659
 20
-289.5758939425
 11
250.0021379659
 21
-290.9558939425
  0
LINE
  8
2
  6
CONTINUOUS
 62
1
 10
250.0021379659
 20
-290.9558939425
 11
251.1821359659
 21
-290.9558939425
  0
LINE
  8
2
  6
CONTINUOUS
 62
1
 10
247.5021379659
 20
-290.9558939425
 11
248.6821359659
 21
-290.9558939425
  0
LINE
  8
2
  6
CONTINUOUS
 62
1
 10
245.8921349659
 20
-287.5558929425
 11
247.8826099659
 21
-287.5558929425
  0
LINE
  8
2
  6
CONTINUOUS
 62
1
 10
245.8921349659
 20
-287.5558929425
 11
245.8921349659
 21
-288.6658969425
  0
LINE
  8
2
  6
CONTINUOUS
 62
1
 10
247.9641149659
 20
-287.7058929425
 11
247.8750879659
 21
-287.6168659425
  0
LINE
  8
2
  6
CONTINUOUS
 62
1
 10
245.9921319659
 20
-288.7658929425
 11
245.8421319659
 21
-288.6158929425
  0
LINE
  8
2
  6
CONTINUOUS
 62
1
 10
245.8421359659
 20
-288.6158929425
 11
245.3421359659
 21
-288.6158929425
  0
LINE
  8
2
  6
CONTINUOUS
 62
1
 10
245.8421359659
 20
-290.6158939425
 11
245.3421359659
 21
-290.6158939425
  0
LINE
  8
2
  6
CONTINUOUS
 62
1
 10
245.9921369659
 20
-290.4658929425
 11
245.9921369659
 21
-288.7658929425
  0
LINE
  8
2
  6
CONTINUOUS
 62
1
 10
245.9921349659
 20
-290.4658939425
 11
245.8421349659
 21
-290.6158939425
  0
LINE
  8
2
  6
CONTINUOUS
 62
1
 10
248.5921299659
 20
-287.7058949425
 11
249.2201509659
 21
-287.7058949425
  0
LINE
  8
2
  6
CONTINUOUS
 62
1
 10
249.2201489659
 20
-287.7058959425
 11
249.3091789659
 21
-287.6168659425
  0
LINE
  8
2
  6
CONTINUOUS
 62
1
 10
248.5921379659
 20
-287.7058949425
 11
247.9641149659
 21
-287.7058949425
  0
LINE
  8
2
  6
CONTINUOUS
 62
1
 10
247.9641209659
 20
-287.7058929425
 11
247.8750899659
 21
-287.6168629425
  0
LINE
  8
2
  6
CONTINUOUS
 62
1
 10
247.4026059659
 20
-287.0781869425
 11
247.6201969659
 21
-287.1454329425
  0
LINE
  8
2
  6
CONTINUOUS
 62
1
 10
247.8256549659
 20
-287.3725609425
 11
247.8750869659
 21
-287.6168639425
  0
LINE
  8
2
  6
CONTINUOUS
 62
1
 10
247.8902589659
 20
-287.1876139425
 11
247.9137069659
 21
-287.3034959425
  0
LINE
  8
2
  6
CONTINUOUS
 62
1
 10
249.7816649659
 20
-287.0781849425
 11
249.5640759659
 21
-287.1454309425
  0
LINE
  8
2
  6
CONTINUOUS
 62
1
 10
249.3586119659
 20
-287.3725609425
 11
249.3091789659
 21
-287.6168639425
  0
LINE
  8
2
  6
CONTINUOUS
 62
1
 10
249.2940069659
 20
-287.1876129425
 11
249.2705599659
 21
-287.3034949425
  0
LINE
  8
2
  6
CONTINUOUS
 62
1
 10
249.3091809659
 20
-287.6168659425
 11
249.2425127235
 21
-287.0758939425
  0
LINE
  8
2
  6
CONTINUOUS
 62
1
 10
247.8750919659
 20
-287.6168659425
 11
247.9417593628
 21
-287.0758939425
  0
LINE
  8
2
  6
CONTINUOUS
 62
1
 10
248.5921379659
 20
-291.5258939425
 11
247.9641149659
 21
-291.5258939425
  0
LINE
  8
2
  6
CONTINUOUS
 62
1
 10
247.9641189659
 20
-291.5258949425
 11
247.8750899659
 21
-291.6149239425
  0
LINE
  8
2
  6
CONTINUOUS
 62
1
 10
248.5921299659
 20
-291.5258939425
 11
249.2201509659
 21
-291.5258939425
  0
LINE
  8
2
  6
CONTINUOUS
 62
1
 10
249.2201529659
 20
-291.5258919425
 11
249.3091819659
 21
-291.6149209425
  0
LINE
  8
2
  6
CONTINUOUS
 62
1
 10
249.7816639659
 20
-292.1535999425
 11
249.5640749659
 21
-292.0863539425
  0
LINE
  8
2
  6
CONTINUOUS
 62
1
 10
249.2940089659
 20
-292.0441759425
 11
249.2705619659
 21
-291.9282939425
  0
LINE
  8
2
  6
CONTINUOUS
 62
1
 10
247.4026099659
 20
-292.1535989425
 11
247.6202009659
 21
-292.0863529425
  0
LINE
  8
2
  6
CONTINUOUS
 62
1
 10
247.8256579659
 20
-291.8592299425
 11
247.8750909659
 21
-291.6149249425
  0
LINE
  8
2
  6
CONTINUOUS
 62
1
 10
247.8902619659
 20
-292.0441769425
 11
247.9137099659
 21
-291.9282949425
  0
LINE
  8
2
  6
CONTINUOUS
 62
1
 10
247.8750889659
 20
-291.6149209425
 11
247.9442209659
 21
-292.1758929425
  0
LINE
  8
2
  6
CONTINUOUS
 62
1
 10
249.3091869659
 20
-291.6149219425
 11
249.2400549659
 21
-292.1758919425
  0
LINE
  8
2
  6
CONTINUOUS
 62
1
 10
249.3586119659
 20
-291.8592289425
 11
249.3091789659
 21
-291.6149239425
  0
LINE
  8
2
  6
CONTINUOUS
 62
1
 10
249.3016639659
 20
-287.5558929425
 11
251.5921379659
 21
-287.5558929425
  0
LINE
  8
2
  6
CONTINUOUS
 62
1
 10
245.3921349659
 20
-290.6158939425
 11
245.3921349659
 21
-292.0276519425
  0
LINE
  8
2
  6
CONTINUOUS
 62
1
 10
245.8921349659
 20
-290.5658939425
 11
245.8921349659
 21
-292.1758939425
  0
LINE
  8
2
  6
CONTINUOUS
 62
1
 10
250.3421399659
 20
-290.0758939425
 11
250.0921379659
 21
-290.0758939425
  0
LINE
  8
2
  6
CONTINUOUS
 62
1
 10
250.0921379659
 20
-289.7081209425
 11
250.0921379659
 21
-290.0758939425
  0
LINE
  8
2
  6
CONTINUOUS
 62
1
 10
250.3421399659
 20
-290.0290459425
 11
250.3421399659
 21
-290.0758939425
  0
LINE
  8
2
  6
CONTINUOUS
 62
1
 10
250.8421399659
 20
-290.0758939425
 11
251.0921399659
 21
-290.0758939425
  0
LINE
  8
2
  6
CONTINUOUS
 62
1
 10
250.8421399659
 20
-290.0290459425
 11
250.8421399659
 21
-290.0758939425
  0
LINE
  8
2
  6
CONTINUOUS
 62
1
 10
251.0921399659
 20
-289.7081209425
 11
251.0921399659
 21
-290.0758939425
  0
LINE
  8
2
  6
CONTINUOUS
 62
1
 10
250.9983879659
 20
-289.5758939425
 11
251.0461279659
 21
-289.6793439425
  0
LINE
  8
2
  6
CONTINUOUS
 62
1
 10
250.1858899659
 20
-289.5758929425
 11
250.1381489659
 21
-289.6793439425
  0
LINE
  8
2
  6
CONTINUOUS
 62
1
 10
247.8421399659
 20
-290.0758939425
 11
247.5921359659
 21
-290.0758939425
  0
LINE
  8
2
  6
CONTINUOUS
 62
1
 10
247.5921359659
 20
-289.7081209425
 11
247.5921359659
 21
-290.0758939425
  0
LINE
  8
2
  6
CONTINUOUS
 62
1
 10
247.8421359659
 20
-290.0290459425
 11
247.8421359659
 21
-290.0758939425
  0
LINE
  8
2
  6
CONTINUOUS
 62
1
 10
248.3421399659
 20
-290.0758939425
 11
248.5921399659
 21
-290.0758939425
  0
LINE
  8
2
  6
CONTINUOUS
 62
1
 10
248.3421399659
 20
-290.0290459425
 11
248.3421399659
 21
-290.0758939425
  0
LINE
  8
2
  6
CONTINUOUS
 62
1
 10
248.5921399659
 20
-289.7081209425
 11
248.5921399659
 21
-290.0758939425
  0
LINE
  8
2
  6
CONTINUOUS
 62
1
 10
248.4983869659
 20
-289.5758939425
 11
248.5461269659
 21
-289.6793449425
  0
LINE
  8
2
  6
CONTINUOUS
 62
1
 10
247.6858879659
 20
-289.5758949425
 11
247.6381489659
 21
-289.6793439425
  0
LINE
  8
2
  6
CONTINUOUS
 62
1
 10
256.5021399659
 20
-287.7358939425
 11
251.5921379659
 21
-287.7358939425
  0
LINE
  8
2
  6
CONTINUOUS
 62
1
 10
257.1421349659
 20
-288.3758939425
 11
257.1421349659
 21
-289.5758939425
  0
LINE
  8
2
  6
CONTINUOUS
 62
1
 10
256.6421349659
 20
-288.2358939425
 11
246.5421409659
 21
-288.2358939425
  0
LINE
  8
2
  6
CONTINUOUS
 62
1
 10
257.1421349659
 20
-289.5758939425
 11
251.5921379659
 21
-289.5758939425
  0
LINE
  8
2
  6
CONTINUOUS
 62
1
 10
257.7921389659
 20
-287.6558939425
 11
257.7921389659
 21
-288.6158929425
  0
LINE
  8
2
  6
CONTINUOUS
 62
1
 10
256.6421349659
 20
-289.1958949425
 11
256.6421349659
 21
-288.2358939425
  0
LINE
  8
2
  6
CONTINUOUS
 62
1
 10
254.5021399659
 20
-289.5758939425
 11
254.5021399659
 21
-290.9558939425
  0
LINE
  8
2
  6
CONTINUOUS
 62
1
 10
255.6821379659
 20
-289.5758939425
 11
255.6821379659
 21
-290.9558939425
  0
LINE
  8
2
  6
CONTINUOUS
 62
1
 10
252.0021379659
 20
-289.5758939425
 11
252.0021379659
 21
-290.9558939425
  0
LINE
  8
2
  6
CONTINUOUS
 62
1
 10
253.1821379659
 20
-289.5758939425
 11
253.1821379659
 21
-290.9558939425
  0
LINE
  8
2
  6
CONTINUOUS
 62
1
 10
253.1821379659
 20
-290.9558939425
 11
252.0021379659
 21
-290.9558939425
  0
LINE
  8
2
  6
CONTINUOUS
 62
1
 10
255.6821379659
 20
-290.9558939425
 11
254.5021399659
 21
-290.9558939425
  0
LINE
  8
2
  6
CONTINUOUS
 62
1
 10
257.2921389659
 20
-287.5558929425
 11
255.3016659659
 21
-287.5558929425
  0
LINE
  8
2
  6
CONTINUOUS
 62
1
 10
257.2921389659
 20
-287.5558929425
 11
257.2921389659
 21
-288.6658969425
  0
LINE
  8
2
  6
CONTINUOUS
 62
1
 10
255.2201589659
 20
-287.7058939425
 11
255.3091879659
 21
-287.6168649425
  0
LINE
  8
2
  6
CONTINUOUS
 62
1
 10
257.1921419659
 20
-288.7658939425
 11
257.3421419659
 21
-288.6158939425
  0
LINE
  8
2
  6
CONTINUOUS
 62
1
 10
257.3421379659
 20
-288.6158929425
 11
257.8421379659
 21
-288.6158929425
  0
LINE
  8
2
  6
CONTINUOUS
 62
1
 10
257.3421379659
 20
-290.6158939425
 11
257.8421379659
 21
-290.6158939425
  0
LINE
  8
2
  6
CONTINUOUS
 62
1
 10
257.1921379659
 20
-290.4658929425
 11
257.1921379659
 21
-288.7658929425
  0
LINE
  8
2
  6
CONTINUOUS
 62
1
 10
257.1921409659
 20
-290.4658939425
 11
257.3421409659
 21
-290.6158939425
  0
LINE
  8
2
  6
CONTINUOUS
 62
1
 10
254.5921439659
 20
-287.7058949425
 11
253.9641219659
 21
-287.7058949425
  0
LINE
  8
2
  6
CONTINUOUS
 62
1
 10
253.9641249659
 20
-287.7058939425
 11
253.8750949659
 21
-287.6168649425
  0
LINE
  8
2
  6
CONTINUOUS
 62
1
 10
254.5921379659
 20
-287.7058949425
 11
255.2201589659
 21
-287.7058949425
  0
LINE
  8
2
  6
CONTINUOUS
 62
1
 10
255.2201539659
 20
-287.7058919425
 11
255.3091829659
 21
-287.6168629425
  0
LINE
  8
2
  6
CONTINUOUS
 62
1
 10
255.7816679659
 20
-287.0781869425
 11
255.5640789659
 21
-287.1454319425
  0
LINE
  8
2
  6
CONTINUOUS
 62
1
 10
255.3586219659
 20
-287.3725609425
 11
255.3091899659
 21
-287.6168629425
  0
LINE
  8
2
  6
CONTINUOUS
 62
1
 10
255.2940179659
 20
-287.1876129425
 11
255.2705699659
 21
-287.3034959425
  0
LINE
  8
2
  6
CONTINUOUS
 62
1
 10
253.4026119659
 20
-287.0781849425
 11
253.6202009659
 21
-287.1454299425
  0
LINE
  8
2
  6
CONTINUOUS
 62
1
 10
253.8256649659
 20
-287.3725599425
 11
253.8750979659
 21
-287.6168629425
  0
LINE
  8
2
  6
CONTINUOUS
 62
1
 10
253.8902679659
 20
-287.1876129425
 11
253.9137159659
 21
-287.3034949425
  0
LINE
  8
2
  6
CONTINUOUS
 62
1
 10
253.8750959659
 20
-287.6168659425
 11
253.9417632439
 21
-287.0758939425
  0
LINE
  8
2
  6
CONTINUOUS
 62
1
 10
255.3091849659
 20
-287.6168659425
 11
255.2425167235
 21
-287.0758939425
  0
LINE
  8
2
  6
CONTINUOUS
 62
1
 10
254.5921379659
 20
-291.5258939425
 11
255.2201589659
 21
-291.5258939425
  0
LINE
  8
2
  6
CONTINUOUS
 62
1
 10
255.2201569659
 20
-291.5258959425
 11
255.3091859659
 21
-291.6149249425
  0
LINE
  8
2
  6
CONTINUOUS
 62
1
 10
254.5921439659
 20
-291.5258939425
 11
253.9641219659
 21
-291.5258939425
  0
LINE
  8
2
  6
CONTINUOUS
 62
1
 10
253.9641229659
 20
-291.5258949425
 11
253.8750939659
 21
-291.6149239425
  0
LINE
  8
2
  6
CONTINUOUS
 62
1
 10
253.4026109659
 20
-292.1536009425
 11
253.6202019659
 21
-292.0863549425
  0
LINE
  8
2
  6
CONTINUOUS
 62
1
 10
253.8902669659
 20
-292.0441769425
 11
253.9137149659
 21
-291.9282949425
  0
LINE
  8
2
  6
CONTINUOUS
 62
1
 10
255.7816639659
 20
-292.1535999425
 11
255.5640729659
 21
-292.0863539425
  0
LINE
  8
2
  6
CONTINUOUS
 62
1
 10
255.3586189659
 20
-291.8592279425
 11
255.3091859659
 21
-291.6149239425
  0
LINE
  8
2
  6
CONTINUOUS
 62
1
 10
255.2940159659
 20
-292.0441739425
 11
255.2705679659
 21
-291.9282929425
  0
LINE
  8
2
  6
CONTINUOUS
 62
1
 10
255.3091839659
 20
-291.6149199425
 11
255.2400509659
 21
-292.1758919425
  0
LINE
  8
2
  6
CONTINUOUS
 62
1
 10
253.8750869659
 20
-291.6149219425
 11
253.9442199659
 21
-292.1758939425
  0
LINE
  8
2
  6
CONTINUOUS
 62
1
 10
253.8256629659
 20
-291.8592289425
 11
253.8750959659
 21
-291.6149249425
  0
LINE
  8
2
  6
CONTINUOUS
 62
1
 10
253.8826119659
 20
-287.5558929425
 11
251.5921379659
 21
-287.5558929425
  0
LINE
  8
2
  6
CONTINUOUS
 62
1
 10
257.7921389659
 20
-290.6158939425
 11
257.7921389659
 21
-292.0276519425
  0
LINE
  8
2
  6
CONTINUOUS
 62
1
 10
257.2921389659
 20
-290.5658939425
 11
257.2921389659
 21
-292.1758939425
  0
LINE
  8
2
  6
CONTINUOUS
 62
1
 10
252.8421359659
 20
-290.0758939425
 11
253.0921359659
 21
-290.0758939425
  0
LINE
  8
2
  6
CONTINUOUS
 62
1
 10
253.0921359659
 20
-289.7081209425
 11
253.0921359659
 21
-290.0758939425
  0
LINE
  8
2
  6
CONTINUOUS
 62
1
 10
252.8421359659
 20
-290.0290459425
 11
252.8421359659
 21
-290.0758939425
  0
LINE
  8
2
  6
CONTINUOUS
 62
1
 10
252.3421359659
 20
-290.0758939425
 11
252.0921359659
 21
-290.0758939425
  0
LINE
  8
2
  6
CONTINUOUS
 62
1
 10
252.3421359659
 20
-290.0290459425
 11
252.3421359659
 21
-290.0758939425
  0
LINE
  8
2
  6
CONTINUOUS
 62
1
 10
252.0921359659
 20
-289.7081209425
 11
252.0921359659
 21
-290.0758939425
  0
LINE
  8
2
  6
CONTINUOUS
 62
1
 10
252.1858879659
 20
-289.5758949425
 11
252.1381479659
 21
-289.6793439425
  0
LINE
  8
2
  6
CONTINUOUS
 62
1
 10
252.9983869659
 20
-289.5758949425
 11
253.0461269659
 21
-289.6793449425
  0
LINE
  8
2
  6
CONTINUOUS
 62
1
 10
255.3421359659
 20
-290.0758939425
 11
255.5921359659
 21
-290.0758939425
  0
LINE
  8
2
  6
CONTINUOUS
 62
1
 10
255.5921359659
 20
-289.7081209425
 11
255.5921359659
 21
-290.0758939425
  0
LINE
  8
2
  6
CONTINUOUS
 62
1
 10
255.3421359659
 20
-290.0290459425
 11
255.3421359659
 21
-290.0758939425
  0
LINE
  8
2
  6
CONTINUOUS
 62
1
 10
254.8421359659
 20
-290.0758939425
 11
254.5921359659
 21
-290.0758939425
  0
LINE
  8
2
  6
CONTINUOUS
 62
1
 10
254.8421359659
 20
-290.0290459425
 11
254.8421359659
 21
-290.0758939425
  0
LINE
  8
2
  6
CONTINUOUS
 62
1
 10
254.5921359659
 20
-289.7081209425
 11
254.5921359659
 21
-290.0758939425
  0
LINE
  8
2
  6
CONTINUOUS
 62
1
 10
254.6858869659
 20
-289.5758939425
 11
254.6381469659
 21
-289.6793439425
  0
LINE
  8
2
  6
CONTINUOUS
 62
1
 10
255.4983859659
 20
-289.5758959425
 11
255.5461259659
 21
-289.6793449425
  0
ARC
  8
2
  6
CONTINUOUS
 62
1
 10
246.6821359659
 20
-288.3758939425
 40
0.6400000000
 50
89.9999960000
 51
180.0000050000
  0
ARC
  8
2
  6
CONTINUOUS
 62
1
 10
245.9921369659
 20
-287.6558939425
 40
0.6000000000
 50
104.8351115820
 51
180.0000050000
  0
ARC
  8
2
  6
CONTINUOUS
 62
1
 10
245.6621359659
 20
-291.8558929425
 40
0.3200000000
 50
180.0000090000
 51
269.9999970000
  0
ARC
  8
2
  6
CONTINUOUS
 62
1
 10
247.4001939659
 20
-287.2867739425
 40
0.5000000000
 50
11.4389220000
 51
24.9457536051
  0
ARC
  8
2
  6
CONTINUOUS
 62
1
 10
247.5316139659
 20
-287.4320559425
 40
0.3000000000
 50
11.4389220000
 51
72.8263110000
  0
ARC
  8
2
  6
CONTINUOUS
 62
1
 10
249.7840779659
 20
-287.2867739425
 40
0.5000000000
 50
155.0542463949
 51
168.5610770000
  0
ARC
  8
2
  6
CONTINUOUS
 62
1
 10
249.6526539659
 20
-287.4320559425
 40
0.3000000000
 50
107.1736870000
 51
168.5610770000
  0
ARC
  8
2
  6
CONTINUOUS
 62
1
 10
249.7840799659
 20
-291.9450139425
 40
0.5000000000
 50
191.4389230000
 51
207.5006860000
  0
ARC
  8
2
  6
CONTINUOUS
 62
1
 10
249.9292959659
 20
-291.6758929425
 40
0.5000000000
 50
252.8263130000
 51
270.0000040000
  0
ARC
  8
2
  6
CONTINUOUS
 62
1
 10
249.6526539659
 20
-291.7997319425
 40
0.3000000000
 50
191.4389230000
 51
252.8263130000
  0
ARC
  8
2
  6
CONTINUOUS
 62
1
 10
247.4001939659
 20
-291.9450139425
 40
0.5000000000
 50
332.4993140000
 51
348.5610780000
  0
ARC
  8
2
  6
CONTINUOUS
 62
1
 10
247.2549719659
 20
-291.6758929425
 40
0.5000000000
 50
270.0000040000
 51
287.1736890000
  0
ARC
  8
2
  6
CONTINUOUS
 62
1
 10
247.5316139659
 20
-291.7997319425
 40
0.3000000000
 50
287.1736890000
 51
348.5610780000
  0
ARC
  8
2
  6
CONTINUOUS
 62
1
 10
250.5921399659
 20
-290.0290459425
 40
0.2500000000
 50
0.0000090000
 51
90.0000030000
  0
ARC
  8
2
  6
CONTINUOUS
 62
1
 10
250.5921399659
 20
-289.7081209425
 40
0.5000000000
 50
164.6655340000
 51
179.9999910000
  0
ARC
  8
2
  6
CONTINUOUS
 62
1
 10
250.5921399659
 20
-289.4758929425
 40
0.6500000000
 50
247.3801390000
 51
270.0000040000
  0
ARC
  8
2
  6
CONTINUOUS
 62
1
 10
250.5921399659
 20
-290.0290459425
 40
0.2500000000
 50
89.9999960000
 51
179.9999910000
  0
ARC
  8
2
  6
CONTINUOUS
 62
1
 10
250.5921399659
 20
-289.8888519425
 40
0.5000000000
 50
0.0000090000
 51
24.7724080000
  0
ARC
  8
2
  6
CONTINUOUS
 62
1
 10
250.5921399659
 20
-289.7081209425
 40
0.5000000000
 50
0.0000090000
 51
15.3344680000
  0
ARC
  8
2
  6
CONTINUOUS
 62
1
 10
250.5921399659
 20
-289.4758929425
 40
0.6500000000
 50
270.0000040000
 51
292.6198700000
  0
ARC
  8
2
  6
CONTINUOUS
 62
1
 10
250.5921399659
 20
-289.8888519425
 40
0.5000000000
 50
155.2275920000
 51
179.9999910000
  0
ARC
  8
2
  6
CONTINUOUS
 62
1
 10
248.0921399659
 20
-289.8888519425
 40
0.5000000000
 50
155.2275920000
 51
179.9999910000
  0
ARC
  8
2
  6
CONTINUOUS
 62
1
 10
248.0921399659
 20
-290.0290459425
 40
0.2500000000
 50
0.0000090000
 51
90.0000030000
  0
ARC
  8
2
  6
CONTINUOUS
 62
1
 10
248.0921399659
 20
-289.7081209425
 40
0.5000000000
 50
164.6655340000
 51
179.9999910000
  0
ARC
  8
2
  6
CONTINUOUS
 62
1
 10
248.0921399659
 20
-289.4758929425
 40
0.6500000000
 50
247.3801390000
 51
270.0000040000
  0
ARC
  8
2
  6
CONTINUOUS
 62
1
 10
248.0921399659
 20
-290.0290459425
 40
0.2500000000
 50
89.9999960000
 51
179.9999910000
  0
ARC
  8
2
  6
CONTINUOUS
 62
1
 10
248.0921399659
 20
-289.8888519425
 40
0.5000000000
 50
0.0000090000
 51
24.7724080000
  0
ARC
  8
2
  6
CONTINUOUS
 62
1
 10
248.0921399659
 20
-289.7081209425
 40
0.5000000000
 50
0.0000090000
 51
15.3344680000
  0
ARC
  8
2
  6
CONTINUOUS
 62
1
 10
248.0921399659
 20
-289.4758929425
 40
0.6500000000
 50
270.0000040000
 51
292.6198700000
  0
ARC
  8
2
  6
CONTINUOUS
 62
1
 10
255.0921359659
 20
-289.4758929425
 40
0.6500000000
 50
247.3801320000
 51
269.9999970000
  0
ARC
  8
2
  6
CONTINUOUS
 62
1
 10
255.0921359659
 20
-289.7081209425
 40
0.5000000000
 50
164.6655340000
 51
179.9999910000
  0
ARC
  8
2
  6
CONTINUOUS
 62
1
 10
256.5021399659
 20
-288.3758939425
 40
0.6400000000
 50
0.0000000000
 51
90.0000030000
  0
ARC
  8
2
  6
CONTINUOUS
 62
1
 10
257.1921379659
 20
-287.6558939425
 40
0.6000000000
 50
0.0000000000
 51
75.1648884180
  0
ARC
  8
2
  6
CONTINUOUS
 62
1
 10
257.5221399659
 20
-291.8558929425
 40
0.3200000000
 50
269.9999970000
 51
0.0000000000
  0
ARC
  8
2
  6
CONTINUOUS
 62
1
 10
255.7840819659
 20
-287.2867739425
 40
0.5000000000
 50
155.0542463949
 51
168.5610770000
  0
ARC
  8
2
  6
CONTINUOUS
 62
1
 10
255.6526599659
 20
-287.4320559425
 40
0.3000000000
 50
107.1736870000
 51
168.5610770000
  0
ARC
  8
2
  6
CONTINUOUS
 62
1
 10
253.4001979659
 20
-287.2867739425
 40
0.5000000000
 50
11.4389220000
 51
24.9457536051
  0
ARC
  8
2
  6
CONTINUOUS
 62
1
 10
253.5316219659
 20
-287.4320559425
 40
0.3000000000
 50
11.4389220000
 51
72.8263110000
  0
ARC
  8
2
  6
CONTINUOUS
 62
1
 10
253.4001939659
 20
-291.9450139425
 40
0.5000000000
 50
332.4993140000
 51
348.5610780000
  0
ARC
  8
2
  6
CONTINUOUS
 62
1
 10
253.2549799659
 20
-291.6758929425
 40
0.5000000000
 50
269.9999970000
 51
287.1736890000
  0
ARC
  8
2
  6
CONTINUOUS
 62
1
 10
253.5316219659
 20
-291.7997319425
 40
0.3000000000
 50
287.1736890000
 51
348.5610780000
  0
ARC
  8
2
  6
CONTINUOUS
 62
1
 10
255.7840819659
 20
-291.9450139425
 40
0.5000000000
 50
191.4389230000
 51
207.5006860000
  0
ARC
  8
2
  6
CONTINUOUS
 62
1
 10
255.9293019659
 20
-291.6758929425
 40
0.5000000000
 50
252.8263130000
 51
269.9999970000
  0
ARC
  8
2
  6
CONTINUOUS
 62
1
 10
255.6526599659
 20
-291.7997319425
 40
0.3000000000
 50
191.4389230000
 51
252.8263130000
  0
ARC
  8
2
  6
CONTINUOUS
 62
1
 10
252.5921359659
 20
-290.0290459425
 40
0.2500000000
 50
89.9999960000
 51
179.9999910000
  0
ARC
  8
2
  6
CONTINUOUS
 62
1
 10
252.5921359659
 20
-289.7081209425
 40
0.5000000000
 50
0.0000030000
 51
15.3344680000
  0
ARC
  8
2
  6
CONTINUOUS
 62
1
 10
252.5921359659
 20
-289.4758929425
 40
0.6500000000
 50
269.9999970000
 51
292.6198630000
  0
ARC
  8
2
  6
CONTINUOUS
 62
1
 10
252.5921359659
 20
-290.0290459425
 40
0.2500000000
 50
0.0000030000
 51
90.0000030000
  0
ARC
  8
2
  6
CONTINUOUS
 62
1
 10
252.5921359659
 20
-289.8888519425
 40
0.5000000000
 50
155.2275920000
 51
179.9999910000
  0
ARC
  8
2
  6
CONTINUOUS
 62
1
 10
252.5921359659
 20
-289.7081209425
 40
0.5000000000
 50
164.6655340000
 51
179.9999910000
  0
ARC
  8
2
  6
CONTINUOUS
 62
1
 10
252.5921359659
 20
-289.4758929425
 40
0.6500000000
 50
247.3801320000
 51
269.9999970000
  0
ARC
  8
2
  6
CONTINUOUS
 62
1
 10
252.5921359659
 20
-289.8888519425
 40
0.5000000000
 50
0.0000090000
 51
24.7724080000
  0
ARC
  8
2
  6
CONTINUOUS
 62
1
 10
255.0921359659
 20
-289.8888519425
 40
0.5000000000
 50
0.0000090000
 51
24.7724080000
  0
ARC
  8
2
  6
CONTINUOUS
 62
1
 10
255.0921359659
 20
-290.0290459425
 40
0.2500000000
 50
89.9999960000
 51
179.9999910000
  0
ARC
  8
2
  6
CONTINUOUS
 62
1
 10
255.0921359659
 20
-289.7081209425
 40
0.5000000000
 50
0.0000030000
 51
15.3344680000
  0
ARC
  8
2
  6
CONTINUOUS
 62
1
 10
255.0921359659
 20
-289.4758929425
 40
0.6500000000
 50
269.9999970000
 51
292.6198630000
  0
ARC
  8
2
  6
CONTINUOUS
 62
1
 10
255.0921359659
 20
-290.0290459425
 40
0.2500000000
 50
0.0000030000
 51
90.0000030000
  0
ARC
  8
2
  6
CONTINUOUS
 62
1
 10
255.0921359659
 20
-289.8888519425
 40
0.5000000000
 50
155.2275920000
 51
179.9999910000
  0
LINE
  8
2
  6
CONTINUOUS
 62
1
 10
257.5221399491
 20
-292.1758929425
 11
245.6621359659
 21
-292.1758929425
  0
LINE
  8
1
  6
CONTINUOUS
 62
1
 10
245.3421374659
 20
-287.0758939425
 11
257.8421374659
 21
-287.0758939425
  0
LINE
  8
1
  6
CONTINUOUS
 62
1
 10
257.8421374659
 20
-287.0758939425
 11
257.8421374659
 21
-292.4758939425
  0
LINE
  8
1
  6
CONTINUOUS
 62
1
 10
257.8421374659
 20
-292.4758939425
 11
245.3421374659
 21
-292.4758939425
  0
LINE
  8
1
  6
CONTINUOUS
 62
1
 10
245.3421374659
 20
-292.4758939425
 11
245.3421374659
 21
-287.0758939425
  0
POINT
  8
3
  6
CONTINUOUS
 62
7
 10
251.5921374659
 20
-289.4758939425
  0
CIRCLE
  8
3
  6
CONTINUOUS
 62
6
 10
251.5921374659
 20
-247.1011842222
 40
3.0285714286
  0
LINE
  8
3
  6
CONTINUOUS
 62
6
 10
250.2536853443
 20
-245.7627321006
 11
252.9305895874
 21
-248.4396363437
  0
LINE
  8
3
  6
CONTINUOUS
 62
6
 10
250.2536853443
 20
-248.4396363437
 11
252.9305895874
 21
-245.7627321006
  0
CIRCLE
  8
3
  6
CONTINUOUS
 62
6
 10
251.5921374659
 20
-247.1011842222
 40
2.6500000000
  0
CIRCLE
  8
3
  6
CONTINUOUS
 62
6
 10
251.5921374659
 20
-218.1011842222
 40
3.0285714286
  0
LINE
  8
3
  6
CONTINUOUS
 62
6
 10
250.2536853443
 20
-216.7627321006
 11
252.9305895874
 21
-219.4396363437
  0
LINE
  8
3
  6
CONTINUOUS
 62
6
 10
250.2536853443
 20
-219.4396363437
 11
252.9305895874
 21
-216.7627321006
  0
CIRCLE
  8
3
  6
CONTINUOUS
 62
6
 10
251.5921374659
 20
-218.1011842222
 40
2.6500000000
  0
LINE
  8
1
  6
HIDDEN
 62
1
 10
260.0921374659
 20
-214.8011842222
 11
243.0921374659
 21
-214.8011842222
  0
LINE
  8
1
  6
HIDDEN
 62
1
 10
242.0921374659
 20
-249.4011842222
 11
242.0921374659
 21
-248.6011842222
  0
LINE
  8
1
  6
HIDDEN
 62
1
 10
242.0921374659
 20
-245.6011842222
 11
242.0921374659
 21
-219.6011842222
  0
LINE
  8
1
  6
HIDDEN
 62
1
 10
242.0921374659
 20
-216.6011842222
 11
242.0921374659
 21
-215.8011842222
  0
LINE
  8
1
  6
HIDDEN
 62
1
 10
243.0921374659
 20
-250.4011842222
 11
260.0921374659
 21
-250.4011842222
  0
LINE
  8
1
  6
HIDDEN
 62
1
 10
261.0921374659
 20
-249.4011842222
 11
261.0921374659
 21
-248.6011842222
  0
LINE
  8
1
  6
HIDDEN
 62
1
 10
261.0921374659
 20
-245.6011842222
 11
261.0921374659
 21
-219.6011842222
  0
LINE
  8
1
  6
HIDDEN
 62
1
 10
261.0921374659
 20
-216.6011842222
 11
261.0921374659
 21
-215.8011842222
  0
LINE
  8
1
  6
CONTINUOUS
 62
1
 10
243.6921374659
 20
-221.2011842222
 11
259.4921374659
 21
-221.2011842222
  0
LINE
  8
1
  6
CONTINUOUS
 62
1
 10
243.1921374659
 20
-243.5011842222
 11
243.1921374659
 21
-221.7011842222
  0
LINE
  8
1
  6
CONTINUOUS
 62
1
 10
259.4921374659
 20
-244.0011842222
 11
243.6921374659
 21
-244.0011842222
  0
LINE
  8
1
  6
CONTINUOUS
 62
1
 10
259.9921374659
 20
-243.5011842222
 11
259.9921374659
 21
-221.7011842222
  0
ARC
  8
1
  6
HIDDEN
 62
1
 10
243.0921374659
 20
-215.8011842222
 40
1.0000000000
 50
90.0000000000
 51
180.0000000000
  0
ARC
  8
1
  6
HIDDEN
 62
1
 10
260.0921374659
 20
-215.8011842222
 40
1.0000000000
 50
0.0000000000
 51
90.0000000000
  0
ARC
  8
1
  6
HIDDEN
 62
1
 10
260.0921374659
 20
-249.4011842222
 40
1.0000000000
 50
270.0000000000
 51
0.0000000000
  0
ARC
  8
1
  6
HIDDEN
 62
1
 10
243.0921374659
 20
-249.4011842222
 40
1.0000000000
 50
180.0000000000
 51
270.0000000000
  0
LINE
  8
1
  6
HIDDEN
 62
1
 10
242.0921374659
 20
-248.6011842222
 11
244.0921374659
 21
-248.6011842222
  0
LINE
  8
1
  6
HIDDEN
 62
1
 10
244.0921374659
 20
-248.6011842222
 11
244.0921374659
 21
-245.6011842222
  0
LINE
  8
1
  6
HIDDEN
 62
1
 10
244.0921374659
 20
-245.6011842222
 11
242.0921374659
 21
-245.6011842222
  0
LINE
  8
1
  6
HIDDEN
 62
1
 10
261.0921374659
 20
-248.6011842222
 11
259.0921374659
 21
-248.6011842222
  0
LINE
  8
1
  6
HIDDEN
 62
1
 10
259.0921374659
 20
-248.6011842222
 11
259.0921374659
 21
-245.6011842222
  0
LINE
  8
1
  6
HIDDEN
 62
1
 10
259.0921374659
 20
-245.6011842222
 11
261.0921374659
 21
-245.6011842222
  0
LINE
  8
1
  6
HIDDEN
 62
1
 10
261.0921374659
 20
-216.6011842222
 11
259.0921374659
 21
-216.6011842222
  0
LINE
  8
1
  6
HIDDEN
 62
1
 10
259.0921374659
 20
-216.6011842222
 11
259.0921374659
 21
-219.6011842222
  0
LINE
  8
1
  6
HIDDEN
 62
1
 10
259.0921374659
 20
-219.6011842222
 11
261.0921374659
 21
-219.6011842222
  0
LINE
  8
1
  6
HIDDEN
 62
1
 10
242.0921374659
 20
-216.6011842222
 11
244.0921374659
 21
-216.6011842222
  0
LINE
  8
1
  6
HIDDEN
 62
1
 10
244.0921374659
 20
-216.6011842222
 11
244.0921374659
 21
-219.6011842222
  0
LINE
  8
1
  6
HIDDEN
 62
1
 10
244.0921374659
 20
-219.6011842222
 11
242.0921374659
 21
-219.6011842222
  0
ARC
  8
1
  6
CONTINUOUS
 62
1
 10
259.4921374659
 20
-221.7011842222
 40
0.5000000000
 50
0.0000000000
 51
90.0000000000
  0
ARC
  8
1
  6
CONTINUOUS
 62
1
 10
243.6921374659
 20
-221.7011842222
 40
0.5000000000
 50
90.0000000000
 51
180.0000000000
  0
ARC
  8
1
  6
CONTINUOUS
 62
1
 10
243.6921374659
 20
-243.5011842222
 40
0.5000000000
 50
180.0000000000
 51
270.0000000000
  0
ARC
  8
1
  6
CONTINUOUS
 62
1
 10
259.4921374659
 20
-243.5011842222
 40
0.5000000000
 50
270.0000000000
 51
0.0000000000
  0
LINE
  8
3
  6
CONTINUOUS
 62
1
 10
247.0803607706
 20
-228.5629609175
 11
248.7639141612
 21
-226.8794075269
  0
LINE
  8
3
  6
CONTINUOUS
 62
1
 10
247.4784368890
 20
-228.6898847990
 11
248.8558380427
 21
-227.3124836453
  0
LINE
  8
3
  6
CONTINUOUS
 62
1
 10
247.0071374659
 20
-235.0461842222
 11
247.0071374659
 21
-234.1511842222
  0
LINE
  8
3
  6
CONTINUOUS
 62
1
 10
247.0071374659
 20
-229.6511842222
 11
247.0071374659
 21
-228.7397376128
  0
LINE
  8
3
  6
CONTINUOUS
 62
1
 10
247.2121374659
 20
-230.1511842222
 11
247.2121374659
 21
-233.6511842222
  0
LINE
  8
3
  6
CONTINUOUS
 62
1
 10
247.2729541220
 20
-230.1511842222
 11
247.2729541220
 21
-233.6511842222
  0
LINE
  8
3
  6
CONTINUOUS
 62
1
 10
247.3671374659
 20
-234.6211842222
 11
247.3671374659
 21
-234.1511842222
  0
LINE
  8
3
  6
CONTINUOUS
 62
1
 10
247.3671374659
 20
-229.6511842222
 11
247.3671374659
 21
-228.9585853759
  0
LINE
  8
3
  6
CONTINUOUS
 62
1
 10
248.7921374659
 20
-232.3911842222
 11
248.7921374659
 21
-229.8111842222
  0
LINE
  8
3
  6
CONTINUOUS
 62
1
 10
255.9271374659
 20
-235.2961842222
 11
247.2571374659
 21
-235.2961842222
  0
LINE
  8
3
  6
CONTINUOUS
 62
1
 10
249.2921374659
 20
-232.1911842222
 11
249.2921374659
 21
-230.0111842222
  0
LINE
  8
3
  6
CONTINUOUS
 62
1
 10
255.4371374659
 20
-235.0011842222
 11
247.7471374659
 21
-235.0011842222
  0
LINE
  8
3
  6
CONTINUOUS
 62
1
 10
249.8421374659
 20
-233.7010743592
 11
249.8421374659
 21
-232.6911842222
  0
LINE
  8
3
  6
CONTINUOUS
 62
1
 10
249.8421374659
 20
-229.5111842222
 11
249.8421374659
 21
-228.5012940851
  0
LINE
  8
3
  6
CONTINUOUS
 62
1
 10
250.8421374659
 20
-233.7010743592
 11
250.8421374659
 21
-232.6911842222
  0
LINE
  8
3
  6
CONTINUOUS
 62
1
 10
250.8421374659
 20
-229.5111842222
 11
250.8421374659
 21
-228.5012940851
  0
LINE
  8
3
  6
CONTINUOUS
 62
1
 10
253.3421374659
 20
-233.7011842222
 11
252.3421374659
 21
-233.7011842222
  0
LINE
  8
3
  6
CONTINUOUS
 62
1
 10
250.8421374659
 20
-233.7011842222
 11
249.8421374659
 21
-233.7011842222
  0
LINE
  8
3
  6
CONTINUOUS
 62
1
 10
254.0921374659
 20
-232.6911842222
 11
249.0921374659
 21
-232.6911842222
  0
LINE
  8
3
  6
CONTINUOUS
 62
1
 10
253.8921374659
 20
-232.1911842222
 11
249.2921374659
 21
-232.1911842222
  0
LINE
  8
3
  6
CONTINUOUS
 62
1
 10
252.3421374659
 20
-233.7010743592
 11
252.3421374659
 21
-232.6911842222
  0
LINE
  8
3
  6
CONTINUOUS
 62
1
 10
252.3421374659
 20
-229.5111842222
 11
252.3421374659
 21
-228.5012940851
  0
LINE
  8
3
  6
CONTINUOUS
 62
1
 10
253.3421374659
 20
-233.7010743592
 11
253.3421374659
 21
-232.6911842222
  0
LINE
  8
3
  6
CONTINUOUS
 62
1
 10
253.3421374659
 20
-229.5111842222
 11
253.3421374659
 21
-228.5012940851
  0
LINE
  8
3
  6
CONTINUOUS
 62
1
 10
253.8921374659
 20
-230.0111842222
 11
253.8921374659
 21
-232.1911842222
  0
LINE
  8
3
  6
CONTINUOUS
 62
1
 10
254.3921374659
 20
-232.3911842222
 11
254.3921374659
 21
-229.8111842222
  0
LINE
  8
3
  6
CONTINUOUS
 62
1
 10
249.2921374659
 20
-230.0111842222
 11
253.8921374659
 21
-230.0111842222
  0
LINE
  8
3
  6
CONTINUOUS
 62
1
 10
249.0921374659
 20
-229.5111842222
 11
254.0921374659
 21
-229.5111842222
  0
LINE
  8
3
  6
CONTINUOUS
 62
1
 10
255.5171055104
 20
-230.1511842222
 11
255.5171055104
 21
-233.6511842222
  0
LINE
  8
3
  6
CONTINUOUS
 62
1
 10
255.5725559910
 20
-230.1511842222
 11
255.5725559910
 21
-233.6511842222
  0
LINE
  8
3
  6
CONTINUOUS
 62
1
 10
255.8171374659
 20
-228.9585853759
 11
255.8171374659
 21
-229.6511842222
  0
LINE
  8
3
  6
CONTINUOUS
 62
1
 10
255.8171374659
 20
-234.1511842222
 11
255.8171374659
 21
-234.6211842222
  0
LINE
  8
3
  6
CONTINUOUS
 62
1
 10
255.9113208097
 20
-230.1511842222
 11
255.9113208097
 21
-233.6511842222
  0
LINE
  8
3
  6
CONTINUOUS
 62
1
 10
255.9721374659
 20
-230.1511842222
 11
255.9721374659
 21
-233.6511842222
  0
LINE
  8
3
  6
CONTINUOUS
 62
1
 10
256.1771374659
 20
-228.7397376128
 11
256.1771374659
 21
-229.6511842222
  0
LINE
  8
3
  6
CONTINUOUS
 62
1
 10
256.1771374659
 20
-234.1511842222
 11
256.1771374659
 21
-235.0461842222
  0
LINE
  8
3
  6
CONTINUOUS
 62
1
 10
253.3421374659
 20
-228.5011842222
 11
252.3421374659
 21
-228.5011842222
  0
LINE
  8
3
  6
CONTINUOUS
 62
1
 10
250.8421374659
 20
-228.5011842222
 11
249.8421374659
 21
-228.5011842222
  0
LINE
  8
3
  6
CONTINUOUS
 62
1
 10
249.1245386196
 20
-227.2011842222
 11
254.0597363122
 21
-227.2011842222
  0
LINE
  8
3
  6
CONTINUOUS
 62
1
 10
254.3284368890
 20
-227.3124836453
 11
255.7058380427
 21
-228.6898847990
  0
LINE
  8
3
  6
CONTINUOUS
 62
1
 10
248.9406908565
 20
-226.8061842222
 11
254.2435840753
 21
-226.8061842222
  0
LINE
  8
3
  6
CONTINUOUS
 62
1
 10
254.4203607706
 20
-226.8794075269
 11
256.1039141612
 21
-228.5629609175
  0
ARC
  8
3
  6
CONTINUOUS
 62
1
 10
255.9271374659
 20
-235.0461842222
 40
0.2500000000
 50
270.0000000000
 51
0.0000000000
  0
ARC
  8
3
  6
CONTINUOUS
 62
1
 10
247.2571374659
 20
-235.0461842222
 40
0.2500000000
 50
180.0000000000
 51
270.0000000000
  0
ARC
  8
3
  6
CONTINUOUS
 62
1
 10
255.9271374659
 20
-228.7397376128
 40
0.2500000000
 50
0.0000000000
 51
45.0000000000
  0
ARC
  8
3
  6
CONTINUOUS
 62
1
 10
254.2435840753
 20
-227.0561842222
 40
0.2500000000
 50
45.0000000000
 51
90.0000000000
  0
ARC
  8
3
  6
CONTINUOUS
 62
1
 10
247.2571374659
 20
-228.7397376128
 40
0.2500000000
 50
135.0000000000
 51
180.0000000000
  0
ARC
  8
3
  6
CONTINUOUS
 62
1
 10
248.9406908565
 20
-227.0561842222
 40
0.2500000000
 50
90.0000000000
 51
135.0000000000
  0
ARC
  8
3
  6
CONTINUOUS
 62
1
 10
254.0921374659
 20
-232.3911842222
 40
0.3000000000
 50
270.0000000000
 51
0.0000000000
  0
ARC
  8
3
  6
CONTINUOUS
 62
1
 10
249.0921374659
 20
-232.3911842222
 40
0.3000000000
 50
180.0000000000
 51
270.0000000000
  0
ARC
  8
3
  6
CONTINUOUS
 62
1
 10
249.0921374659
 20
-229.8111842222
 40
0.3000000000
 50
90.0000000000
 51
180.0000000000
  0
ARC
  8
3
  6
CONTINUOUS
 62
1
 10
254.0921374659
 20
-229.8111842222
 40
0.3000000000
 50
0.0000000000
 51
90.0000000000
  0
ARC
  8
3
  6
CONTINUOUS
 62
1
 10
255.4371374659
 20
-228.9585853759
 40
0.3800000000
 50
0.0000000000
 51
45.0000000000
  0
ARC
  8
3
  6
CONTINUOUS
 62
1
 10
254.0597363122
 20
-227.5811842222
 40
0.3800000000
 50
45.0000000000
 51
90.0000000000
  0
ARC
  8
3
  6
CONTINUOUS
 62
1
 10
249.1245386196
 20
-227.5811842222
 40
0.3800000000
 50
90.0000000000
 51
135.0000000000
  0
ARC
  8
3
  6
CONTINUOUS
 62
1
 10
247.7471374659
 20
-228.9585853759
 40
0.3800000000
 50
135.0000000000
 51
180.0000000000
  0
ARC
  8
3
  6
CONTINUOUS
 62
1
 10
255.4371374659
 20
-234.6211842222
 40
0.3800000000
 50
270.0000000000
 51
0.0000000000
  0
ARC
  8
3
  6
CONTINUOUS
 62
1
 10
247.7471374659
 20
-234.6211842222
 40
0.3800000000
 50
180.0000000000
 51
270.0000000000
  0
LINE
  8
3
  6
CONTINUOUS
 62
1
 10
247.6671694214
 20
-230.1511842222
 11
247.6671694214
 21
-233.6511842222
  0
LINE
  8
3
  6
CONTINUOUS
 62
1
 10
247.6117189408
 20
-230.1511842222
 11
247.6117189408
 21
-233.6511842222
  0
LINE
  8
3
  6
CONTINUOUS
 62
1
 10
255.8171374659
 20
-229.6511842222
 11
256.1771374659
 21
-229.6511842222
  0
LINE
  8
3
  6
CONTINUOUS
 62
1
 10
255.5171374659
 20
-230.1511842222
 11
256.1771374659
 21
-230.1511842220
  0
LINE
  8
3
  6
CONTINUOUS
 62
1
 10
256.1771374659
 20
-233.6511842221
 11
255.5171374659
 21
-233.6511842222
  0
LINE
  8
3
  6
CONTINUOUS
 62
1
 10
247.6671694214
 20
-233.6511842222
 11
247.0071374659
 21
-233.6511842222
  0
LINE
  8
3
  6
CONTINUOUS
 62
1
 10
247.0071374659
 20
-234.1511842222
 11
247.3671374659
 21
-234.1511842222
  0
LINE
  8
3
  6
CONTINUOUS
 62
1
 10
247.0071374659
 20
-230.1511842222
 11
247.6671694214
 21
-230.1511842222
  0
LINE
  8
3
  6
CONTINUOUS
 62
1
 10
247.0071374659
 20
-229.6511842222
 11
247.3671374659
 21
-229.6511842222
  0
LINE
  8
1
  6
CONTINUOUS
 62
1
 10
247.0071374659
 20
-228.6361842222
 11
248.8371374659
 21
-226.8061842222
  0
LINE
  8
1
  6
CONTINUOUS
 62
1
 10
248.8371374659
 20
-226.8061842222
 11
254.3471374659
 21
-226.8061842222
  0
LINE
  8
1
  6
CONTINUOUS
 62
1
 10
254.3471374659
 20
-226.8061842222
 11
256.1771374659
 21
-228.6361842222
  0
LINE
  8
1
  6
CONTINUOUS
 62
1
 10
256.1771374659
 20
-228.6361842222
 11
256.1771374659
 21
-235.2961842222
  0
LINE
  8
1
  6
CONTINUOUS
 62
1
 10
256.1771374659
 20
-235.2961842222
 11
247.0071374659
 21
-235.2961842222
  0
LINE
  8
1
  6
CONTINUOUS
 62
1
 10
247.0071374659
 20
-235.2961842222
 11
247.0071374659
 21
-228.6361842222
  0
POINT
  8
3
  6
CONTINUOUS
 62
7
 10
251.5921374659
 20
-232.6011842222
  0
LINE
  8
1
  6
CONTINUOUS
 62
7
 10
243.0921374659
 20
-221.1011842222
 11
260.0921374659
 21
-221.1011842222
  0
LINE
  8
1
  6
CONTINUOUS
 62
7
 10
260.0921374659
 20
-221.1011842222
 11
260.0921374659
 21
-244.1011842222
  0
LINE
  8
1
  6
CONTINUOUS
 62
7
 10
260.0921374659
 20
-244.1011842222
 11
243.0921374659
 21
-244.1011842222
  0
LINE
  8
1
  6
CONTINUOUS
 62
7
 10
243.0921374659
 20
-244.1011842222
 11
243.0921374659
 21
-221.1011842222
  0
CIRCLE
  8
3
  6
CONTINUOUS
 62
6
 10
209.6421374659
 20
-247.1011842222
 40
3.0285714286
  0
LINE
  8
3
  6
CONTINUOUS
 62
6
 10
208.3036853443
 20
-245.7627321006
 11
210.9805895874
 21
-248.4396363437
  0
LINE
  8
3
  6
CONTINUOUS
 62
6
 10
208.3036853443
 20
-248.4396363437
 11
210.9805895874
 21
-245.7627321006
  0
CIRCLE
  8
3
  6
CONTINUOUS
 62
6
 10
209.6421374659
 20
-218.1011842222
 40
3.0285714286
  0
LINE
  8
3
  6
CONTINUOUS
 62
6
 10
208.3036853443
 20
-216.7627321006
 11
210.9805895874
 21
-219.4396363437
  0
LINE
  8
3
  6
CONTINUOUS
 62
6
 10
208.3036853443
 20
-219.4396363437
 11
210.9805895874
 21
-216.7627321006
  0
LINE
  8
1
  6
HIDDEN
 62
1
 10
218.1421374659
 20
-214.8011842222
 11
201.1421374659
 21
-214.8011842222
  0
LINE
  8
1
  6
HIDDEN
 62
1
 10
200.1421374659
 20
-249.4011842222
 11
200.1421374659
 21
-248.6011842222
  0
LINE
  8
1
  6
HIDDEN
 62
1
 10
200.1421374659
 20
-245.6011842222
 11
200.1421374659
 21
-219.6011842222
  0
LINE
  8
1
  6
HIDDEN
 62
1
 10
200.1421374659
 20
-216.6011842222
 11
200.1421374659
 21
-215.8011842222
  0
LINE
  8
1
  6
HIDDEN
 62
1
 10
201.1421374659
 20
-250.4011842222
 11
218.1421374659
 21
-250.4011842222
  0
LINE
  8
1
  6
HIDDEN
 62
1
 10
219.1421374659
 20
-249.4011842222
 11
219.1421374659
 21
-248.6011842222
  0
LINE
  8
1
  6
HIDDEN
 62
1
 10
219.1421374659
 20
-245.6011842222
 11
219.1421374659
 21
-219.6011842222
  0
LINE
  8
1
  6
HIDDEN
 62
1
 10
219.1421374659
 20
-216.6011842222
 11
219.1421374659
 21
-215.8011842222
  0
LINE
  8
1
  6
CONTINUOUS
 62
1
 10
201.7421374659
 20
-221.2011842222
 11
217.5421374659
 21
-221.2011842222
  0
LINE
  8
1
  6
CONTINUOUS
 62
1
 10
201.2421374659
 20
-243.5011842222
 11
201.2421374659
 21
-221.7011842222
  0
LINE
  8
1
  6
CONTINUOUS
 62
1
 10
217.5421374659
 20
-244.0011842222
 11
201.7421374659
 21
-244.0011842222
  0
LINE
  8
1
  6
CONTINUOUS
 62
1
 10
218.0421374659
 20
-243.5011842222
 11
218.0421374659
 21
-221.7011842222
  0
ARC
  8
1
  6
HIDDEN
 62
1
 10
201.1421374659
 20
-215.8011842222
 40
1.0000000000
 50
90.0000000000
 51
180.0000000000
  0
ARC
  8
1
  6
HIDDEN
 62
1
 10
218.1421374659
 20
-215.8011842222
 40
1.0000000000
 50
0.0000000000
 51
90.0000000000
  0
ARC
  8
1
  6
HIDDEN
 62
1
 10
218.1421374659
 20
-249.4011842222
 40
1.0000000000
 50
270.0000000000
 51
0.0000000000
  0
ARC
  8
1
  6
HIDDEN
 62
1
 10
201.1421374659
 20
-249.4011842222
 40
1.0000000000
 50
180.0000000000
 51
270.0000000000
  0
LINE
  8
1
  6
HIDDEN
 62
1
 10
200.1421374659
 20
-248.6011842222
 11
202.1421374659
 21
-248.6011842222
  0
LINE
  8
1
  6
HIDDEN
 62
1
 10
202.1421374659
 20
-248.6011842222
 11
202.1421374659
 21
-245.6011842222
  0
LINE
  8
1
  6
HIDDEN
 62
1
 10
202.1421374659
 20
-245.6011842222
 11
200.1421374659
 21
-245.6011842222
  0
LINE
  8
1
  6
HIDDEN
 62
1
 10
219.1421374659
 20
-248.6011842222
 11
217.1421374659
 21
-248.6011842222
  0
LINE
  8
1
  6
HIDDEN
 62
1
 10
217.1421374659
 20
-248.6011842222
 11
217.1421374659
 21
-245.6011842222
  0
LINE
  8
1
  6
HIDDEN
 62
1
 10
217.1421374659
 20
-245.6011842222
 11
219.1421374659
 21
-245.6011842222
  0
LINE
  8
1
  6
HIDDEN
 62
1
 10
219.1421374659
 20
-216.6011842222
 11
217.1421374659
 21
-216.6011842222
  0
LINE
  8
1
  6
HIDDEN
 62
1
 10
217.1421374659
 20
-216.6011842222
 11
217.1421374659
 21
-219.6011842222
  0
LINE
  8
1
  6
HIDDEN
 62
1
 10
217.1421374659
 20
-219.6011842222
 11
219.1421374659
 21
-219.6011842222
  0
LINE
  8
1
  6
HIDDEN
 62
1
 10
200.1421374659
 20
-216.6011842222
 11
202.1421374659
 21
-216.6011842222
  0
LINE
  8
1
  6
HIDDEN
 62
1
 10
202.1421374659
 20
-216.6011842222
 11
202.1421374659
 21
-219.6011842222
  0
LINE
  8
1
  6
HIDDEN
 62
1
 10
202.1421374659
 20
-219.6011842222
 11
200.1421374659
 21
-219.6011842222
  0
ARC
  8
1
  6
CONTINUOUS
 62
1
 10
217.5421374659
 20
-221.7011842222
 40
0.5000000000
 50
0.0000000000
 51
90.0000000000
  0
ARC
  8
1
  6
CONTINUOUS
 62
1
 10
201.7421374659
 20
-221.7011842222
 40
0.5000000000
 50
90.0000000000
 51
180.0000000000
  0
ARC
  8
1
  6
CONTINUOUS
 62
1
 10
201.7421374659
 20
-243.5011842222
 40
0.5000000000
 50
180.0000000000
 51
270.0000000000
  0
ARC
  8
1
  6
CONTINUOUS
 62
1
 10
217.5421374659
 20
-243.5011842222
 40
0.5000000000
 50
270.0000000000
 51
0.0000000000
  0
LINE
  8
1
  6
CONTINUOUS
 62
7
 10
201.1421374659
 20
-221.1011842222
 11
218.1421374659
 21
-221.1011842222
  0
LINE
  8
1
  6
CONTINUOUS
 62
7
 10
218.1421374659
 20
-221.1011842222
 11
218.1421374659
 21
-244.1011842222
  0
LINE
  8
1
  6
CONTINUOUS
 62
7
 10
218.1421374659
 20
-244.1011842222
 11
201.1421374659
 21
-244.1011842222
  0
LINE
  8
1
  6
CONTINUOUS
 62
7
 10
201.1421374659
 20
-244.1011842222
 11
201.1421374659
 21
-221.1011842222
  0
POINT
  8
3
  6
CONTINUOUS
 62
7
 10
209.6421374659
 20
-232.6011842222
  0
POINT
  8
3
  6
CONTINUOUS
 62
7
 10
209.6421374659
 20
-232.6011842222
  0
TEXT
  8
5
  6
CONTINUOUS
 62
7
 10
375.656774
 20
-243.310727
 40
3.000000
  1
MADOKA
 41
1.028831
 50
0.000000
 51
0.000000
 72
   5
 73
   0
 11
387.539774
 21
-243.310727
  0
INSERT
  8
1
  6
CONTINUOUS
 62
7
  2
S5
 10
398.0273756505
 20
-219.1716243335
  0
INSERT
  8
1
  6
CONTINUOUS
 62
7
  2
S6
 10
398.0273756505
 20
-224.1716243335
  0
INSERT
  8
1
  6
CONTINUOUS
 62
7
  2
S7
 10
398.0273756505
 20
-241.6716243335
  0
POINT
  8
5
  6
CONTINUOUS
 62
6
 10
7.7490435001
 20
-46.9655230621
  0
POINT
  8
5
  6
CONTINUOUS
 62
6
 10
7.7490435001
 20
-46.9655230621
  0
INSERT
  8
1
  6
CONTINUOUS
 62
7
  2
S8
 10
7.7490435001
 20
-46.9655230621
  0
TEXT
  8
3
  6
CONTINUOUS
 62
7
 10
244.175224
 20
258.088374
 40
4.500000
  1
⑪ U0:USB無し(ﾌﾞﾗﾝｸﾊﾟﾈﾙ)
 41
0.779221
 50
0.000000
 51
0.000000
 72
   5
 73
   0
 11
298.175224
 21
258.088374
  0
TEXT
  8
3
  6
CONTINUOUS
 62
7
 10
244.175224
 20
252.588374
 40
4.500000
  1
　 U1:USB有り
 41
0.809465
 50
0.000000
 51
0.000000
 72
   5
 73
   0
 11
273.425224
 21
252.588374
  0
TEXT
  8
3
  6
CONTINUOUS
 62
7
 10
244.175224
 20
245.406334
 40
4.500000
  1
⑩ R0:RJ45無し(ﾌﾞﾗﾝｸﾊﾟﾈﾙ)
 41
0.777847
 50
0.000000
 51
0.000000
 72
   5
 73
   0
 11
300.425224
 21
245.406334
  0
TEXT
  8
3
  6
CONTINUOUS
 62
7
 10
244.175224
 20
239.906334
 40
4.500000
  1
　 R1:RJ45有り
 41
0.804598
 50
0.000000
 51
0.000000
 72
   5
 73
   0
 11
275.675224
 21
239.906334
  0
TEXT
  8
3
  6
CONTINUOUS
 62
7
 10
243.977366
 20
232.638040
 40
4.500000
  1
⑨ A2:ACｱｳﾄﾚｯﾄ無し(ﾌﾞﾗﾝｸ)
 41
0.777847
 50
0.000000
 51
0.000000
 72
   5
 73
   0
 11
300.227366
 21
232.638040
  0
TEXT
  8
3
  6
CONTINUOUS
 62
7
 10
243.977366
 20
227.138040
 40
4.500000
  1
　 A3:ACｱｳﾄﾚｯﾄ(南ｱﾌﾘｶ,EU,US)
 41
0.767123
 50
0.000000
 51
0.000000
 72
   5
 73
   0
 11
306.977366
 21
227.138040
  0
TEXT
  8
3
  6
CONTINUOUS
 62
7
 10
243.977366
 20
221.638040
 40
4.500000
  1
　 A4:ACｱｳﾄﾚｯﾄ(EU-Ⅳ)
 41
0.774336
 50
0.000000
 51
0.000000
 72
   5
 73
   0
 11
291.227366
 21
221.638040
  0
LINE
  8
5
  6
CONTINUOUS
 62
6
 10
312.9235759729
 20
231.9463679840
 11
312.9235759729
 21
236.9463679840
  0
INSERT
  8
1
  6
CONTINUOUS
 62
5
  2
BALN13
 10
221.4958056346
 20
-102.5368978922
  0
INSERT
  8
1
  6
CONTINUOUS
 62
5
  2
BALN14
 10
273.4510364936
 20
-102.5368978922
  0
TEXT
  8
3
  6
CONTINUOUS
 62
7
 10
154.400287
 20
-122.310336
 40
5.000000
  1
A2
 41
0.854701
 50
0.000000
 51
0.000000
 72
   5
 73
   0
 11
159.400287
 21
-122.310336
  0
TEXT
  8
3
  6
CONTINUOUS
 62
7
 10
154.400287
 20
-127.310336
 40
5.000000
  1
ACｱｳﾄﾚｯﾄ無し
 41
0.796813
 50
0.000000
 51
0.000000
 72
   5
 73
   0
 11
184.400287
 21
-127.310336
  0
TEXT
  8
1
  6
CONTINUOUS
 62
7
 10
210.245806
 20
-63.579600
 40
5.000000
  1
AC200V/1A
 41
0.767918
 50
0.000000
 51
0.000000
 72
   5
 73
   0
 11
232.745806
 21
-63.579600
  0
TEXT
  8
1
  6
CONTINUOUS
 62
7
 10
262.201036
 20
-63.579600
 40
5.000000
  1
AC200V/1A
 41
0.767918
 50
0.000000
 51
0.000000
 72
   5
 73
   0
 11
284.701036
 21
-63.579600
  0
INSERT
  8
1
  6
CONTINUOUS
 62
5
  2
LTEX2
 10
221.4958056346
 20
-57.8666360739
  0
INSERT
  8
1
  6
CONTINUOUS
 62
5
  2
LTEX3
 10
273.4510364936
 20
-57.8666360739
  0
LINE
  8
5
  6
CONTINUOUS
 62
6
 10
309.6567742348
 20
-97.9016144488
 11
309.6567742348
 21
-92.9016144488
  0
LINE
  8
5
  6
CONTINUOUS
 62
6
 10
309.6567742348
 20
-92.9016144488
 11
314.6567742348
 21
-92.9016144488
  0
LINE
  8
5
  6
CONTINUOUS
 62
6
 10
314.6567742348
 20
-92.9016144488
 11
334.6567742348
 21
-92.9016144488
  0
LINE
  8
5
  6
CONTINUOUS
 62
6
 10
334.6567742348
 20
-92.9016144488
 11
374.6567742348
 21
-92.9016144488
  0
LINE
  8
5
  6
CONTINUOUS
 62
6
 10
374.6567742348
 20
-92.9016144488
 11
389.6567742348
 21
-92.9016144488
  0
LINE
  8
5
  6
CONTINUOUS
 62
6
 10
389.6567742348
 20
-92.9016144488
 11
394.6567742348
 21
-92.9016144488
  0
LINE
  8
5
  6
CONTINUOUS
 62
6
 10
394.6567742348
 20
-92.9016144488
 11
394.6567742348
 21
-97.9016144488
  0
LINE
  8
5
  6
CONTINUOUS
 62
6
 10
394.6567742348
 20
-97.9016144488
 11
389.6567742348
 21
-97.9016144488
  0
LINE
  8
5
  6
CONTINUOUS
 62
6
 10
389.6567742348
 20
-97.9016144488
 11
374.6567742348
 21
-97.9016144488
  0
LINE
  8
5
  6
CONTINUOUS
 62
6
 10
374.6567742348
 20
-97.9016144488
 11
334.6567742348
 21
-97.9016144488
  0
LINE
  8
5
  6
CONTINUOUS
 62
6
 10
334.6567742348
 20
-97.9016144488
 11
314.6567742348
 21
-97.9016144488
  0
LINE
  8
5
  6
CONTINUOUS
 62
6
 10
314.6567742348
 20
-97.9016144488
 11
309.6567742348
 21
-97.9016144488
  0
LINE
  8
5
  6
CONTINUOUS
 62
6
 10
314.6567742348
 20
-92.9016144488
 11
314.6567742348
 21
-97.9016144488
  0
LINE
  8
5
  6
CONTINUOUS
 62
6
 10
334.6567742348
 20
-92.9016144488
 11
334.6567742348
 21
-97.9016144488
  0
LINE
  8
5
  6
CONTINUOUS
 62
6
 10
374.6567742348
 20
-92.9016144488
 11
374.6567742348
 21
-97.9016144488
  0
LINE
  8
5
  6
CONTINUOUS
 62
6
 10
389.6567742348
 20
-92.9016144488
 11
389.6567742348
 21
-97.9016144488
  0
TEXT
  8
5
  6
CONTINUOUS
 62
7
 10
309.856774
 20
-96.551614
 40
2.300000
  1
項番
 41
0.921659
 50
0.000000
 51
0.000000
 72
   5
 73
   0
 11
314.456774
 21
-96.551614
  0
TEXT
  8
5
  6
CONTINUOUS
 62
7
 10
319.664774
 20
-96.901614
 40
3.000000
  1
品　　名
 41
0.737916
 50
0.000000
 51
0.000000
 72
   5
 73
   0
 11
329.648774
 21
-96.901614
  0
TEXT
  8
5
  6
CONTINUOUS
 62
7
 10
339.503774
 20
-96.901614
 40
3.000000
  1
定  格 / 型  番 / 材　質
 41
0.686277
 50
0.000000
 51
0.000000
 72
   5
 73
   0
 11
369.809774
 21
-96.901614
  0
TEXT
  8
5
  6
CONTINUOUS
 62
7
 10
376.959274
 20
-96.901614
 40
3.000000
  1
メーカー
 41
0.768293
 50
0.000000
 51
0.000000
 72
   5
 73
   0
 11
387.354274
 21
-96.901614
  0
TEXT
  8
5
  6
CONTINUOUS
 62
7
 10
389.856774
 20
-96.551614
 40
2.300000
  1
数量
 41
0.921659
 50
0.000000
 51
0.000000
 72
   5
 73
   0
 11
394.456774
 21
-96.551614
  0
LINE
  8
5
  6
CONTINUOUS
 62
6
 10
309.6567742348
 20
-102.9016144488
 11
309.6567742348
 21
-97.9016144488
  0
LINE
  8
5
  6
CONTINUOUS
 62
6
 10
309.6567742348
 20
-97.9016144488
 11
314.6567742348
 21
-97.9016144488
  0
LINE
  8
5
  6
CONTINUOUS
 62
6
 10
314.6567742348
 20
-97.9016144488
 11
334.6567742348
 21
-97.9016144488
  0
LINE
  8
5
  6
CONTINUOUS
 62
6
 10
334.6567742348
 20
-97.9016144488
 11
374.6567742348
 21
-97.9016144488
  0
LINE
  8
5
  6
CONTINUOUS
 62
6
 10
374.6567742348
 20
-97.9016144488
 11
389.6567742348
 21
-97.9016144488
  0
LINE
  8
5
  6
CONTINUOUS
 62
6
 10
389.6567742348
 20
-97.9016144488
 11
394.6567742348
 21
-97.9016144488
  0
LINE
  8
5
  6
CONTINUOUS
 62
6
 10
394.6567742348
 20
-97.9016144488
 11
394.6567742348
 21
-102.9016144488
  0
LINE
  8
5
  6
CONTINUOUS
 62
6
 10
394.6567742348
 20
-102.9016144488
 11
389.6567742348
 21
-102.9016144488
  0
LINE
  8
5
  6
CONTINUOUS
 62
6
 10
389.6567742348
 20
-102.9016144488
 11
374.6567742348
 21
-102.9016144488
  0
LINE
  8
5
  6
CONTINUOUS
 62
6
 10
334.6567742348
 20
-102.9016144488
 11
314.6567742348
 21
-102.9016144488
  0
LINE
  8
5
  6
CONTINUOUS
 62
6
 10
314.6567742348
 20
-102.9016144488
 11
309.6567742348
 21
-102.9016144488
  0
LINE
  8
5
  6
CONTINUOUS
 62
6
 10
314.6567742348
 20
-97.9016144488
 11
314.6567742348
 21
-102.9016144488
  0
LINE
  8
5
  6
CONTINUOUS
 62
6
 10
334.6567742348
 20
-97.9016144488
 11
334.6567742348
 21
-102.9016144488
  0
LINE
  8
5
  6
CONTINUOUS
 62
6
 10
374.6567742348
 20
-97.9016144488
 11
374.6567742348
 21
-102.9016144488
  0
LINE
  8
5
  6
CONTINUOUS
 62
6
 10
389.6567742348
 20
-97.9016144488
 11
389.6567742348
 21
-102.9016144488
  0
TEXT
  8
5
  6
CONTINUOUS
 62
7
 10
315.656774
 20
-111.901614
 40
3.000000
  1
ACｱｳﾄﾚｯﾄ
 41
0.872254
 50
0.000000
 51
0.000000
 72
   5
 73
   0
 11
329.237774
 21
-111.901614
  0
TEXT
  8
5
  6
CONTINUOUS
 62
7
 10
335.656774
 20
-112.401614
 40
4.000000
  1
741 31
 41
0.779221
 50
0.000000
 51
0.000000
 72
   5
 73
   0
 11
347.656774
 21
-112.401614
  0
TEXT
  8
5
  6
CONTINUOUS
 62
7
 10
391.281774
 20
-112.151614
 40
3.500000
  1
1
 41
1.000000
 50
0.000000
 51
0.000000
 72
   5
 73
   0
 11
393.031774
 21
-112.151614
  0
LINE
  8
5
  6
CONTINUOUS
 62
6
 10
394.6567742348
 20
-107.9016144488
 11
389.6567742348
 21
-107.9016144488
  0
LINE
  8
5
  6
CONTINUOUS
 62
6
 10
389.6567742348
 20
-107.9016144488
 11
374.6567742348
 21
-107.9016144488
  0
LINE
  8
5
  6
CONTINUOUS
 62
6
 10
374.6567742348
 20
-107.9016144488
 11
334.6567742348
 21
-107.9016144488
  0
LINE
  8
5
  6
CONTINUOUS
 62
6
 10
334.6567742348
 20
-107.9016144488
 11
314.6567742348
 21
-107.9016144488
  0
LINE
  8
5
  6
CONTINUOUS
 62
6
 10
314.6567742348
 20
-107.9016144488
 11
309.6567742348
 21
-107.9016144488
  0
TEXT
  8
5
  6
CONTINUOUS
 62
7
 10
310.656774
 20
-111.901614
 40
3.000000
  1
95
 41
0.854701
 50
0.000000
 51
0.000000
 72
   5
 73
   0
 11
313.656774
 21
-111.901614
  0
LINE
  8
5
  6
CONTINUOUS
 62
6
 10
309.6567742348
 20
-107.9016144488
 11
309.6567742348
 21
-102.9016144488
  0
LINE
  8
5
  6
CONTINUOUS
 62
6
 10
309.6567742348
 20
-112.9016144488
 11
309.6567742348
 21
-107.9016144488
  0
LINE
  8
5
  6
CONTINUOUS
 62
6
 10
314.6567742348
 20
-102.9016144488
 11
314.6567742348
 21
-107.9016144488
  0
LINE
  8
5
  6
CONTINUOUS
 62
6
 10
314.6567742348
 20
-107.9016144488
 11
314.6567742348
 21
-112.9016144488
  0
LINE
  8
5
  6
CONTINUOUS
 62
6
 10
334.6567742348
 20
-102.9016144488
 11
334.6567742348
 21
-107.9016144488
  0
LINE
  8
5
  6
CONTINUOUS
 62
6
 10
334.6567742348
 20
-107.9016144488
 11
334.6567742348
 21
-112.9016144488
  0
LINE
  8
5
  6
CONTINUOUS
 62
6
 10
374.6567742348
 20
-102.9016144488
 11
374.6567742348
 21
-107.9016144488
  0
LINE
  8
5
  6
CONTINUOUS
 62
6
 10
374.6567742348
 20
-107.9016144488
 11
374.6567742348
 21
-112.9016144488
  0
LINE
  8
5
  6
CONTINUOUS
 62
6
 10
389.6567742348
 20
-102.9016144488
 11
389.6567742348
 21
-107.9016144488
  0
LINE
  8
5
  6
CONTINUOUS
 62
6
 10
389.6567742348
 20
-107.9016144488
 11
389.6567742348
 21
-112.9016144488
  0
LINE
  8
5
  6
CONTINUOUS
 62
6
 10
394.6567742348
 20
-102.9016144488
 11
394.6567742348
 21
-107.9016144488
  0
LINE
  8
5
  6
CONTINUOUS
 62
6
 10
394.6567742348
 20
-107.9016144488
 11
394.6567742348
 21
-112.9016144488
  0
LINE
  8
5
  6
CONTINUOUS
 62
6
 10
299.6567742348
 20
-97.9016144488
 11
299.6567742348
 21
-92.9016144488
  0
LINE
  8
5
  6
CONTINUOUS
 62
6
 10
299.6567742348
 20
-92.9016144488
 11
309.6567742348
 21
-92.9016144488
  0
LINE
  8
5
  6
CONTINUOUS
 62
6
 10
309.6567742348
 20
-97.9016144488
 11
304.6567742348
 21
-97.9016144488
  0
LINE
  8
5
  6
CONTINUOUS
 62
6
 10
309.6567742348
 20
-92.9016144488
 11
309.6567742348
 21
-97.9016144488
  0
TEXT
  8
5
  6
CONTINUOUS
 62
7
 10
302.194993
 20
-96.901614
 40
3.000000
  1
型番
 41
0.921659
 50
0.000000
 51
0.000000
 72
   5
 73
   0
 11
308.194993
 21
-96.901614
  0
LINE
  8
5
  6
CONTINUOUS
 62
6
 10
299.6567742348
 20
-102.9016144488
 11
299.6567742348
 21
-97.9016144488
  0
LINE
  8
5
  6
CONTINUOUS
 62
6
 10
299.6567742348
 20
-97.9016144488
 11
309.6567742348
 21
-97.9016144488
  0
LINE
  8
5
  6
CONTINUOUS
 62
6
 10
309.6567742348
 20
-97.9016144488
 11
309.6567742348
 21
-102.9016144488
  0
TEXT
  8
5
  6
CONTINUOUS
 62
7
 10
303.194993
 20
-102.401614
 40
4.000000
  1
A4
 41
0.854701
 50
0.000000
 51
0.000000
 72
   5
 73
   0
 11
307.194993
 21
-102.401614
  0
LINE
  8
5
  6
CONTINUOUS
 62
6
 10
299.6567742348
 20
-107.9016144488
 11
299.6567742348
 21
-102.9016144488
  0
LINE
  8
5
  6
CONTINUOUS
 62
6
 10
299.6567742348
 20
-112.9016144488
 11
299.6567742348
 21
-107.9016144488
  0
LINE
  8
5
  6
CONTINUOUS
 62
6
 10
309.6567742348
 20
-102.9016144488
 11
309.6567742348
 21
-107.9016144488
  0
LINE
  8
5
  6
CONTINUOUS
 62
6
 10
309.6567742348
 20
-107.9016144488
 11
309.6567742348
 21
-112.9016144488
  0
LINE
  8
5
  6
CONTINUOUS
 62
6
 10
394.6567742348
 20
-112.9016144488
 11
389.6567742348
 21
-112.9016144488
  0
LINE
  8
5
  6
CONTINUOUS
 62
6
 10
389.6567742348
 20
-112.9016144488
 11
374.6567742348
 21
-112.9016144488
  0
LINE
  8
5
  6
CONTINUOUS
 62
6
 10
374.6567742348
 20
-112.9016144488
 11
334.6567742348
 21
-112.9016144488
  0
LINE
  8
5
  6
CONTINUOUS
 62
6
 10
334.6567742348
 20
-112.9016144488
 11
314.6567742348
 21
-112.9016144488
  0
LINE
  8
5
  6
CONTINUOUS
 62
6
 10
314.6567742348
 20
-112.9016144488
 11
309.6567742348
 21
-112.9016144488
  0
LINE
  8
5
  6
CONTINUOUS
 62
6
 10
309.6567742348
 20
-112.9016144488
 11
299.6567742348
 21
-112.9016144488
  0
TEXT
  8
5
  6
CONTINUOUS
 62
7
 10
375.656774
 20
-111.901614
 40
3.000000
  1
Legrand
 41
0.734513
 50
0.000000
 51
0.000000
 72
   5
 73
   0
 11
385.616774
 21
-111.901614
  0
TEXT
  8
5
  6
CONTINUOUS
 62
7
 10
303.194993
 20
-79.901614
 40
4.000000
  1
A3
 41
0.854701
 50
0.000000
 51
0.000000
 72
   5
 73
   0
 11
307.194993
 21
-79.901614
  0
TEXT
  8
5
  6
CONTINUOUS
 62
7
 10
315.656774
 20
-89.401614
 40
3.000000
  1
ACｱｳﾄﾚｯﾄ
 41
0.872254
 50
0.000000
 51
0.000000
 72
   5
 73
   0
 11
329.237774
 21
-89.401614
  0
TEXT
  8
5
  6
CONTINUOUS
 62
7
 10
310.656774
 20
-89.401614
 40
3.000000
  1
93
 41
0.854701
 50
0.000000
 51
0.000000
 72
   5
 73
   0
 11
313.656774
 21
-89.401614
  0
TEXT
  8
5
  6
CONTINUOUS
 62
7
 10
335.656774
 20
-89.901614
 40
4.000000
  1
741 02
 41
0.779221
 50
0.000000
 51
0.000000
 72
   5
 73
   0
 11
347.656774
 21
-89.901614
  0
TEXT
  8
5
  6
CONTINUOUS
 62
7
 10
375.656774
 20
-89.401614
 40
3.000000
  1
Legrand
 41
0.734513
 50
0.000000
 51
0.000000
 72
   5
 73
   0
 11
385.616774
 21
-89.401614
  0
TEXT
  8
5
  6
CONTINUOUS
 62
7
 10
391.281774
 20
-89.651614
 40
3.500000
  1
1
 41
1.000000
 50
0.000000
 51
0.000000
 72
   5
 73
   0
 11
393.031774
 21
-89.651614
  0
TEXT
  8
5
  6
CONTINUOUS
 62
7
 10
335.656774
 20
-62.151614
 40
3.500000
  1
材質:ｱｸﾘﾙ 白 t=4 UL材
 41
0.794251
 50
0.000000
 51
0.000000
 72
   5
 73
   0
 11
372.406774
 21
-62.151614
  0
TEXT
  8
5
  6
CONTINUOUS
 62
7
 10
335.656774
 20
-79.651614
 40
3.500000
  1
M0051B0563B(AC穴有)
 41
0.777414
 50
0.000000
 51
0.000000
 72
   5
 73
   0
 11
368.906774
 21
-79.651614
  0
TEXT
  8
5
  6
CONTINUOUS
 62
7
 10
315.656774
 20
-79.401614
 40
3.000000
  1
ﾊﾟﾈﾙ
 41
0.865339
 50
0.000000
 51
0.000000
 72
   5
 73
   0
 11
322.172774
 21
-79.401614
  0
TEXT
  8
5
  6
CONTINUOUS
 62
7
 10
335.656774
 20
-84.651614
 40
3.500000
  1
材質:ｱｸﾘﾙ 白 t=4 UL材
 41
0.794251
 50
0.000000
 51
0.000000
 72
   5
 73
   0
 11
372.406774
 21
-84.651614
  0
TEXT
  8
5
  6
CONTINUOUS
 62
7
 10
375.656774
 20
-79.401614
 40
3.000000
  1
MADOKA
 41
1.028831
 50
0.000000
 51
0.000000
 72
   5
 73
   0
 11
387.539774
 21
-79.401614
  0
TEXT
  8
5
  6
CONTINUOUS
 62
7
 10
391.281774
 20
-79.651614
 40
3.500000
  1
1
 41
1.000000
 50
0.000000
 51
0.000000
 72
   5
 73
   0
 11
393.031774
 21
-79.651614
  0
TEXT
  8
5
  6
CONTINUOUS
 62
7
 10
310.656774
 20
-79.401614
 40
3.000000
  1
92
 41
0.854701
 50
0.000000
 51
0.000000
 72
   5
 73
   0
 11
313.656774
 21
-79.401614
  0
TEXT
  8
5
  6
CONTINUOUS
 62
7
 10
315.656774
 20
-101.901614
 40
3.000000
  1
ﾊﾟﾈﾙ
 41
0.865339
 50
0.000000
 51
0.000000
 72
   5
 73
   0
 11
322.172774
 21
-101.901614
  0
TEXT
  8
5
  6
CONTINUOUS
 62
7
 10
310.656774
 20
-101.901614
 40
3.000000
  1
94
 41
0.854701
 50
0.000000
 51
0.000000
 72
   5
 73
   0
 11
313.656774
 21
-101.901614
  0
TEXT
  8
5
  6
CONTINUOUS
 62
7
 10
335.656774
 20
-102.151614
 40
3.500000
  1
M0051B0563B(AC穴有)
 41
0.777414
 50
0.000000
 51
0.000000
 72
   5
 73
   0
 11
368.906774
 21
-102.151614
  0
TEXT
  8
5
  6
CONTINUOUS
 62
7
 10
375.656774
 20
-101.901614
 40
3.000000
  1
MADOKA
 41
1.028831
 50
0.000000
 51
0.000000
 72
   5
 73
   0
 11
387.539774
 21
-101.901614
  0
TEXT
  8
5
  6
CONTINUOUS
 62
7
 10
391.281774
 20
-102.151614
 40
3.500000
  1
1
 41
1.000000
 50
0.000000
 51
0.000000
 72
   5
 73
   0
 11
393.031774
 21
-102.151614
  0
TEXT
  8
5
  6
CONTINUOUS
 62
7
 10
335.656774
 20
-107.151614
 40
3.500000
  1
材質:ｱｸﾘﾙ 白 t=4 UL材
 41
0.794251
 50
0.000000
 51
0.000000
 72
   5
 73
   0
 11
372.406774
 21
-107.151614
  0
INSERT
  8
1
  6
CONTINUOUS
 62
5
  2
BALN15
 10
228.4412619408
 20
-108.4295996262
  0
INSERT
  8
1
  6
CONTINUOUS
 62
5
  2
BALN16
 10
280.2470648644
 20
-108.4295996262
  0
INSERT
  8
1
  6
CONTINUOUS
 62
5
  2
BALN17
 10
176.4860310817
 20
-108.4295996262
  0
LINE
  8
2
  6
CONTINUOUS
 62
3
 10
109.4661466639
 20
74.1025214537
 11
108.4661466639
 21
74.1025214537
  0
LINE
  8
2
  6
CONTINUOUS
 62
3
 10
108.4661466639
 20
74.1025214537
 11
108.4661466639
 21
64.1025214537
  0
LINE
  8
2
  6
CONTINUOUS
 62
3
 10
104.4661466639
 20
69.1025214537
 11
102.4661466639
 21
69.1025214537
  0
LINE
  8
2
  6
CONTINUOUS
 62
3
 10
104.4661466639
 20
76.0163394537
 11
100.9661466639
 21
76.0163394537
  0
LINE
  8
2
  6
CONTINUOUS
 62
3
 10
104.4661466639
 20
75.7599174537
 11
100.9661466639
 21
75.7599174537
  0
LINE
  8
2
  6
CONTINUOUS
 62
3
 10
104.4661466639
 20
75.3395674537
 11
100.9661466639
 21
75.3395674537
  0
LINE
  8
2
  6
CONTINUOUS
 62
3
 10
104.4661466639
 20
74.7656404537
 11
100.9661466639
 21
74.7656404537
  0
LINE
  8
2
  6
CONTINUOUS
 62
3
 10
104.4661466639
 20
74.0522684537
 11
100.9661466639
 21
74.0522684537
  0
LINE
  8
2
  6
CONTINUOUS
 62
3
 10
100.4661466639
 20
62.6025214537
 11
100.9661466639
 21
62.1025214537
  0
LINE
  8
2
  6
CONTINUOUS
 62
3
 10
100.9661466639
 20
76.1025214537
 11
100.4661466639
 21
75.6025214537
  0
LINE
  8
2
  6
CONTINUOUS
 62
3
 10
100.9661466639
 20
68.1025214537
 11
100.9661466639
 21
62.1025214537
  0
LINE
  8
2
  6
CONTINUOUS
 62
3
 10
100.4661466639
 20
68.1025214537
 11
100.4661466639
 21
62.6025214537
  0
LINE
  8
2
  6
CONTINUOUS
 62
3
 10
102.4661466639
 20
68.1025214537
 11
100.4661466639
 21
68.1025214537
  0
LINE
  8
2
  6
CONTINUOUS
 62
3
 10
102.4661466639
 20
70.1025214537
 11
102.4661466639
 21
68.1025214537
  0
LINE
  8
2
  6
CONTINUOUS
 62
3
 10
100.4661466639
 20
70.1025214537
 11
102.4661466639
 21
70.1025214537
  0
LINE
  8
2
  6
CONTINUOUS
 62
3
 10
104.4661466639
 20
62.1887034537
 11
100.9661466639
 21
62.1887034537
  0
LINE
  8
2
  6
CONTINUOUS
 62
3
 10
104.4661466639
 20
62.4451254537
 11
100.9661466639
 21
62.4451254537
  0
LINE
  8
2
  6
CONTINUOUS
 62
3
 10
104.4661466639
 20
62.8654754537
 11
100.9661466639
 21
62.8654754537
  0
LINE
  8
2
  6
CONTINUOUS
 62
3
 10
100.9661466639
 20
76.1025214537
 11
100.9661466639
 21
70.1025214537
  0
LINE
  8
2
  6
CONTINUOUS
 62
3
 10
104.4661466639
 20
63.4394024537
 11
100.9661466639
 21
63.4394024537
  0
LINE
  8
2
  6
CONTINUOUS
 62
3
 10
104.4661466639
 20
64.1527744537
 11
100.9661466639
 21
64.1527744537
  0
ARC
  8
2
  6
CONTINUOUS
 62
3
 10
109.0642226639
 20
60.1384194537
 40
5.0000000000
 50
96.8698980000
 51
156.8698980000
  0
ARC
  8
2
  6
CONTINUOUS
 62
3
 10
109.0642226639
 20
78.0666234537
 40
5.0000000000
 50
203.1301020000
 51
263.1301020000
  0
LINE
  8
2
  6
CONTINUOUS
 62
3
 10
104.4661466639
 20
76.1025214537
 11
104.4661466639
 21
62.1025214537
  0
LINE
  8
2
  6
CONTINUOUS
 62
3
 10
104.4661466639
 20
64.9880244537
 11
100.9661466639
 21
64.9880244537
  0
LINE
  8
2
  6
CONTINUOUS
 62
3
 10
104.4661466639
 20
65.9245884537
 11
100.9661466639
 21
65.9245884537
  0
LINE
  8
2
  6
CONTINUOUS
 62
3
 10
108.4661466639
 20
65.1025214537
 11
108.4661466639
 21
73.1025214537
  0
LINE
  8
2
  6
CONTINUOUS
 62
3
 10
100.9661466639
 20
62.1025214537
 11
104.4661466639
 21
62.1025214537
  0
LINE
  8
2
  6
CONTINUOUS
 62
3
 10
100.4661466639
 20
75.6025214537
 11
100.4661466639
 21
70.1025214537
  0
LINE
  8
2
  6
CONTINUOUS
 62
3
 10
104.4661466639
 20
76.1025214537
 11
100.9661466639
 21
76.1025214537
  0
LINE
  8
2
  6
CONTINUOUS
 62
3
 10
104.4661466639
 20
66.9394024537
 11
100.9661466639
 21
66.9394024537
  0
LINE
  8
2
  6
CONTINUOUS
 62
3
 10
104.4661466639
 20
68.0074804537
 11
100.9661466639
 21
68.0074804537
  0
LINE
  8
2
  6
CONTINUOUS
 62
3
 10
104.4661466639
 20
70.1975624537
 11
100.9661466639
 21
70.1975624537
  0
LINE
  8
2
  6
CONTINUOUS
 62
3
 10
104.4661466639
 20
71.2656404537
 11
100.9661466639
 21
71.2656404537
  0
LINE
  8
2
  6
CONTINUOUS
 62
3
 10
104.4661466639
 20
72.2804554537
 11
100.9661466639
 21
72.2804554537
  0
LINE
  8
2
  6
CONTINUOUS
 62
3
 10
104.4661466639
 20
73.2170184537
 11
100.9661466639
 21
73.2170184537
  0
LINE
  8
2
  6
CONTINUOUS
 62
3
 10
108.4661466639
 20
64.1025214537
 11
109.4661466639
 21
64.1025214537
  0
LINE
  8
2
  6
CONTINUOUS
 62
3
 10
109.4661466639
 20
64.1025214537
 11
109.4661466639
 21
74.1025214537
  0
ARC
  8
2
  6
CONTINUOUS
 62
3
 10
62.2645106558
 20
69.1025214537
 40
6.5000000000
 50
8.8498830000
 51
171.1501170000
  0
LINE
  8
2
  6
CONTINUOUS
 62
3
 10
55.3363076558
 20
68.1025214537
 11
69.1927136558
 21
68.1025214537
  0
LINE
  8
2
  6
CONTINUOUS
 62
3
 10
55.3363076558
 20
70.1025214537
 11
69.1927136558
 21
70.1025214537
  0
ARC
  8
2
  6
CONTINUOUS
 62
3
 10
62.2645106558
 20
69.1025214537
 40
6.5000000000
 50
188.8498830000
 51
351.1501170000
  0
CIRCLE
  8
2
  6
CONTINUOUS
 62
3
 10
62.2645106558
 20
69.1025214537
 40
7.0000000000
  0
LINE
  8
2
  6
CONTINUOUS
 62
3
 10
67.2645106558
 20
45.2716424853
 11
67.2645106558
 21
46.2716424853
  0
LINE
  8
2
  6
CONTINUOUS
 62
3
 10
67.2645106558
 20
46.2716424853
 11
57.2645106558
 21
46.2716424853
  0
LINE
  8
2
  6
CONTINUOUS
 62
3
 10
62.2645106558
 20
50.2716424853
 11
62.2645106558
 21
52.2716424853
  0
LINE
  8
2
  6
CONTINUOUS
 62
3
 10
69.1783286558
 20
50.2716424853
 11
69.1783286558
 21
53.7716424853
  0
LINE
  8
2
  6
CONTINUOUS
 62
3
 10
68.9219066558
 20
50.2716424853
 11
68.9219066558
 21
53.7716424853
  0
LINE
  8
2
  6
CONTINUOUS
 62
3
 10
68.5015566558
 20
50.2716424853
 11
68.5015566558
 21
53.7716424853
  0
LINE
  8
2
  6
CONTINUOUS
 62
3
 10
67.9276296558
 20
50.2716424853
 11
67.9276296558
 21
53.7716424853
  0
LINE
  8
2
  6
CONTINUOUS
 62
3
 10
67.2142576558
 20
50.2716424853
 11
67.2142576558
 21
53.7716424853
  0
LINE
  8
2
  6
CONTINUOUS
 62
3
 10
55.7645106558
 20
54.2716424853
 11
55.2645106558
 21
53.7716424853
  0
LINE
  8
2
  6
CONTINUOUS
 62
3
 10
69.2645106558
 20
53.7716424853
 11
68.7645106558
 21
54.2716424853
  0
LINE
  8
2
  6
CONTINUOUS
 62
3
 10
61.2645106558
 20
53.7716424853
 11
55.2645106558
 21
53.7716424853
  0
LINE
  8
2
  6
CONTINUOUS
 62
3
 10
61.2645106558
 20
54.2716424853
 11
55.7645106558
 21
54.2716424853
  0
LINE
  8
2
  6
CONTINUOUS
 62
3
 10
61.2645106558
 20
52.2716424853
 11
61.2645106558
 21
54.2716424853
  0
LINE
  8
2
  6
CONTINUOUS
 62
3
 10
63.2645106558
 20
52.2716424853
 11
61.2645106558
 21
52.2716424853
  0
LINE
  8
2
  6
CONTINUOUS
 62
3
 10
63.2645106558
 20
54.2716424853
 11
63.2645106558
 21
52.2716424853
  0
LINE
  8
2
  6
CONTINUOUS
 62
3
 10
55.3506926558
 20
50.2716424853
 11
55.3506926558
 21
53.7716424853
  0
LINE
  8
2
  6
CONTINUOUS
 62
3
 10
55.6071146558
 20
50.2716424853
 11
55.6071146558
 21
53.7716424853
  0
LINE
  8
2
  6
CONTINUOUS
 62
3
 10
56.0274646558
 20
50.2716424853
 11
56.0274646558
 21
53.7716424853
  0
LINE
  8
2
  6
CONTINUOUS
 62
3
 10
69.2645106558
 20
53.7716424853
 11
63.2645106558
 21
53.7716424853
  0
LINE
  8
2
  6
CONTINUOUS
 62
3
 10
56.6013916558
 20
50.2716424853
 11
56.6013916558
 21
53.7716424853
  0
LINE
  8
2
  6
CONTINUOUS
 62
3
 10
57.3147636558
 20
50.2716424853
 11
57.3147636558
 21
53.7716424853
  0
ARC
  8
2
  6
CONTINUOUS
 62
3
 10
53.3004086558
 20
45.6735664853
 40
5.0000000000
 50
6.8698980000
 51
66.8698980000
  0
ARC
  8
2
  6
CONTINUOUS
 62
3
 10
71.2286126558
 20
45.6735664853
 40
5.0000000000
 50
113.1301020000
 51
173.1301020000
  0
LINE
  8
2
  6
CONTINUOUS
 62
3
 10
69.2645106558
 20
50.2716424853
 11
55.2645106558
 21
50.2716424853
  0
LINE
  8
2
  6
CONTINUOUS
 62
3
 10
58.1500136558
 20
50.2716424853
 11
58.1500136558
 21
53.7716424853
  0
LINE
  8
2
  6
CONTINUOUS
 62
3
 10
59.0865776558
 20
50.2716424853
 11
59.0865776558
 21
53.7716424853
  0
LINE
  8
2
  6
CONTINUOUS
 62
3
 10
58.2645106558
 20
46.2716424853
 11
66.2645106558
 21
46.2716424853
  0
LINE
  8
2
  6
CONTINUOUS
 62
3
 10
55.2645106558
 20
53.7716424853
 11
55.2645106558
 21
50.2716424853
  0
LINE
  8
2
  6
CONTINUOUS
 62
3
 10
68.7645106558
 20
54.2716424853
 11
63.2645106558
 21
54.2716424853
  0
LINE
  8
2
  6
CONTINUOUS
 62
3
 10
69.2645106558
 20
50.2716424853
 11
69.2645106558
 21
53.7716424853
  0
LINE
  8
2
  6
CONTINUOUS
 62
3
 10
60.1013916558
 20
50.2716424853
 11
60.1013916558
 21
53.7716424853
  0
LINE
  8
2
  6
CONTINUOUS
 62
3
 10
61.1694696558
 20
50.2716424853
 11
61.1694696558
 21
53.7716424853
  0
LINE
  8
2
  6
CONTINUOUS
 62
3
 10
63.3595516558
 20
50.2716424853
 11
63.3595516558
 21
53.7716424853
  0
LINE
  8
2
  6
CONTINUOUS
 62
3
 10
64.4276296558
 20
50.2716424853
 11
64.4276296558
 21
53.7716424853
  0
LINE
  8
2
  6
CONTINUOUS
 62
3
 10
65.4424446558
 20
50.2716424853
 11
65.4424446558
 21
53.7716424853
  0
LINE
  8
2
  6
CONTINUOUS
 62
3
 10
66.3790076558
 20
50.2716424853
 11
66.3790076558
 21
53.7716424853
  0
LINE
  8
2
  6
CONTINUOUS
 62
3
 10
57.2645106558
 20
46.2716424853
 11
57.2645106558
 21
45.2716424853
  0
LINE
  8
2
  6
CONTINUOUS
 62
3
 10
57.2645106558
 20
45.2716424853
 11
67.2645106558
 21
45.2716424853
  0
POINT
  8
5
  6
CONTINUOUS
 62
6
 10
8.9999999999
 20
262.0000000000
  0
POINT
  8
5
  6
CONTINUOUS
 62
6
 10
8.9999999999
 20
262.0000000000
  0
POINT
  8
1
  6
CONTINUOUS
 62
7
 10
8.9999999999
 20
262.0000000000
  0
POINT
  8
5
  6
CONTINUOUS
 62
6
 10
8.9999999999
 20
262.0000000000
  0
POINT
  8
5
  6
CONTINUOUS
 62
6
 10
8.9999999999
 20
262.0000000000
  0
POINT
  8
5
  6
CONTINUOUS
 62
6
 10
8.9999999999
 20
262.0000000000
  0
POINT
  8
5
  6
CONTINUOUS
 62
6
 10
8.9999999999
 20
262.0000000000
  0
INSERT
  8
1
  6
CONTINUOUS
 62
7
  2
S9
 10
8.9999999999
 20
262.0000000000
  0
INSERT
  8
1
  6
CONTINUOUS
 62
7
  2
S10
 10
8.9999999999
 20
262.0000000000
  0
TEXT
  8
1
  6
CONTINUOUS
 62
7
 10
15.125000
 20
260.750000
 40
2.500000
  1
'12.4.1
 41
0.774336
 50
0.000000
 51
0.000000
 72
   5
 73
   0
 11
23.875000
 21
260.750000
  0
TEXT
  8
1
  6
CONTINUOUS
 62
7
 10
26.926296
 20
260.273341
 40
3.200000
  1
RJ45取付方向180°変更
 41
0.826121
 50
0.000000
 51
0.000000
 72
   5
 73
   0
 11
60.526296
 21
260.273341
  0
TEXT
  8
1
  6
CONTINUOUS
 62
7
 10
90.500000
 20
260.000000
 40
4.000000
  1
山田
 41
0.921659
 50
0.000000
 51
0.000000
 72
   5
 73
   0
 11
98.500000
 21
260.000000
  0
TEXT
  8
1
  6
CONTINUOUS
 62
7
 10
89.249044
 20
-53.965523
 40
4.000000
  1
山田
 41
0.921659
 50
0.000000
 51
0.000000
 72
   5
 73
   0
 11
97.249044
 21
-53.965523
  0
TEXT
  8
1
  6
CONTINUOUS
 62
7
 10
25.675340
 20
-53.692182
 40
3.200000
  1
RJ45取付方向180°変更
 41
0.826121
 50
0.000000
 51
0.000000
 72
   5
 73
   0
 11
59.275340
 21
-53.692182
  0
TEXT
  8
1
  6
CONTINUOUS
 62
7
 10
13.874044
 20
-53.215523
 40
2.500000
  1
'12.4.1
 41
0.774336
 50
0.000000
 51
0.000000
 72
   5
 73
   0
 11
22.624044
 21
-53.215523
  0
POINT
  8
5
  6
CONTINUOUS
 62
6
 10
7.7490435001
 20
-51.9655230621
  0
INSERT
  8
1
  6
CONTINUOUS
 62
7
  2
S11
 10
7.7490435001
 20
-51.9655230621
  0
POINT
  8
5
  6
CONTINUOUS
 62
6
 10
7.7490435001
 20
-51.9655230621
  0
POINT
  8
5
  6
CONTINUOUS
 62
6
 10
7.7490435001
 20
-51.9655230621
  0
POINT
  8
1
  6
CONTINUOUS
 62
7
 10
7.7490435001
 20
-51.9655230621
  0
POINT
  8
5
  6
CONTINUOUS
 62
6
 10
7.7490435001
 20
-51.9655230621
  0
POINT
  8
5
  6
CONTINUOUS
 62
6
 10
7.7490435001
 20
-51.9655230621
  0
POINT
  8
5
  6
CONTINUOUS
 62
6
 10
7.7490435001
 20
-51.9655230621
  0
POINT
  8
5
  6
CONTINUOUS
 62
6
 10
7.7490435001
 20
-51.9655230621
  0
INSERT
  8
1
  6
CONTINUOUS
 62
7
  2
S12
 10
7.7490435001
 20
-51.9655230621
  0
INSERT
  8
1
  6
CONTINUOUS
 62
7
  2
S13
 10
7.7490435001
 20
-51.9655230621
  0
INSERT
  8
1
  6
CONTINUOUS
 62
7
  2
S14
 10
251.4119457554
 20
-147.3526631572
  0
TEXT
  8
1
  6
CONTINUOUS
 62
7
 10
174.418377
 20
246.460565
 40
3.500000
  1
①ﾍﾞｰｽ,②ｶﾊﾞｰ材質
 41
0.806452
 50
0.000000
 51
0.000000
 72
   5
 73
   0
 11
204.168377
 21
246.460565
  0
TEXT
  8
1
  6
CONTINUOUS
 62
7
 10
174.418377
 20
242.960565
 40
3.500000
  1
無印:ｱﾙﾐﾀﾞｲｷｬｽﾄ
 41
0.786164
 50
0.000000
 51
0.000000
 72
   5
 73
   0
 11
200.668377
 21
242.960565
  0
TEXT
  8
1
  6
CONTINUOUS
 62
7
 10
174.418377
 20
239.460565
 40
3.500000
  1
PB:PBT(UL:V-0)
 41
0.760043
 50
0.000000
 51
0.000000
 72
   5
 73
   0
 11
198.918377
 21
239.460565
  0
POINT
  8
5
  6
CONTINUOUS
 62
6
 10
168.6610564352
 20
248.9813479689
  0
POINT
  8
5
  6
CONTINUOUS
 62
6
 10
168.6610564352
 20
248.9813479689
  0
POINT
  8
1
  6
CONTINUOUS
 62
6
 10
168.6610564352
 20
248.9813479689
  0
POINT
  8
5
  6
CONTINUOUS
 62
6
 10
168.6610564351
 20
248.9813479689
  0
INSERT
  8
1
  6
CONTINUOUS
 62
7
  2
S15
 10
168.6610564351
 20
248.9813479689
  0
LINE
  8
1
  6
CONTINUOUS
 62
7
 10
215.0688404122
 20
255.7491616642
 11
176.4055417956
 21
255.7491616642
  0
LINE
  8
1
  6
CONTINUOUS
 62
7
 10
176.4055417956
 20
255.7491616642
 11
176.4055417956
 21
251.0591568369
  0
LINE
  8
1
  6
CONTINUOUS
 62
7
 10
215.0688404122
 20
265.7991720084
 11
215.0688404122
 21
255.7491616642
  0
POINT
  8
5
  6
CONTINUOUS
 62
6
 10
9.0000000001
 20
267.0000000000
  0
POINT
  8
5
  6
CONTINUOUS
 62
6
 10
9.0000000001
 20
267.0000000000
  0
POINT
  8
5
  6
CONTINUOUS
 62
6
 10
9.0000000001
 20
267.0000000000
  0
LINE
  8
1
  6
CONTINUOUS
 62
7
 10
11.5000000001
 20
265.0000000000
 11
6.5000000001
 21
265.0000000000
  0
TEXT
  8
1
  6
CONTINUOUS
 62
7
 10
7.904400
 20
264.621673
 40
3.300000
  1
C
 41
1.328000
 50
0.000000
 51
0.000000
 72
   5
 73
   0
 11
10.095600
 21
264.621673
  0
LINE
  8
1
  6
CONTINUOUS
 62
7
 10
9.0000000001
 20
269.0000000000
 11
6.5000000001
 21
265.0000000000
  0
LINE
  8
1
  6
CONTINUOUS
 62
7
 10
9.0000000001
 20
269.0000000000
 11
11.5000000001
 21
265.0000000000
  0
POINT
  8
1
  6
CONTINUOUS
 62
7
 10
9.0000000001
 20
267.0000000000
  0
TEXT
  8
1
  6
CONTINUOUS
 62
7
 10
14.836500
 20
265.500000
 40
3.000000
  1
'22.3.23
 41
0.599037
 50
0.000000
 51
0.000000
 72
   5
 73
   0
 11
24.163500
 21
265.500000
  0
TEXT
  8
1
  6
CONTINUOUS
 62
7
 10
28.160983
 20
265.056979
 40
4.000000
  1
PB追加に伴う変更
 41
0.854701
 50
0.000000
 51
0.000000
 72
   5
 73
   0
 11
60.160983
 21
265.056979
  0
TEXT
  8
1
  6
CONTINUOUS
 62
7
 10
91.000000
 20
265.250000
 40
3.500000
  1
山田
 41
0.921659
 50
0.000000
 51
0.000000
 72
   5
 73
   0
 11
98.000000
 21
265.250000
  0
POINT
  8
5
  6
CONTINUOUS
 62
6
 10
7.7490435001
 20
-46.9655230621
  0
INSERT
  8
1
  6
CONTINUOUS
 62
7
  2
S16
 10
7.7490435001
 20
-46.9655230621
  0
POINT
  8
5
  6
CONTINUOUS
 62
6
 10
7.7490435001
 20
-46.9655230621
  0
POINT
  8
5
  6
CONTINUOUS
 62
6
 10
7.7490435001
 20
-46.9655230621
  0
POINT
  8
5
  6
CONTINUOUS
 62
6
 10
7.7490435001
 20
-46.9655230621
  0
LINE
  8
1
  6
CONTINUOUS
 62
7
 10
10.2490435001
 20
-48.9655230621
 11
5.2490435001
 21
-48.9655230621
  0
TEXT
  8
1
  6
CONTINUOUS
 62
7
 10
6.653444
 20
-49.343850
 40
3.300000
  1
C
 41
1.328000
 50
0.000000
 51
0.000000
 72
   5
 73
   0
 11
8.844644
 21
-49.343850
  0
LINE
  8
1
  6
CONTINUOUS
 62
7
 10
7.7490435001
 20
-44.9655230621
 11
5.2490435001
 21
-48.9655230621
  0
LINE
  8
1
  6
CONTINUOUS
 62
7
 10
7.7490435001
 20
-44.9655230621
 11
10.2490435001
 21
-48.9655230621
  0
POINT
  8
1
  6
CONTINUOUS
 62
7
 10
7.7490435001
 20
-46.9655230621
  0
TEXT
  8
1
  6
CONTINUOUS
 62
7
 10
13.585544
 20
-48.465523
 40
3.000000
  1
'22.3.23
 41
0.599037
 50
0.000000
 51
0.000000
 72
   5
 73
   0
 11
22.912544
 21
-48.465523
  0
TEXT
  8
1
  6
CONTINUOUS
 62
7
 10
26.910027
 20
-48.908544
 40
4.000000
  1
PB追加に伴う変更
 41
0.854701
 50
0.000000
 51
0.000000
 72
   5
 73
   0
 11
58.910027
 21
-48.908544
  0
TEXT
  8
1
  6
CONTINUOUS
 62
7
 10
89.749044
 20
-48.715523
 40
3.500000
  1
山田
 41
0.921659
 50
0.000000
 51
0.000000
 72
   5
 73
   0
 11
96.749044
 21
-48.715523
  0
POINT
  8
5
  6
CONTINUOUS
 62
6
 10
309.3586496777
 20
267.1060627331
  0
POINT
  8
5
  6
CONTINUOUS
 62
6
 10
309.3586496777
 20
267.1060627331
  0
POINT
  8
1
  6
CONTINUOUS
 62
6
 10
309.3586496777
 20
267.1060627331
  0
POINT
  8
5
  6
CONTINUOUS
 62
6
 10
309.3586496777
 20
267.1060627331
  0
INSERT
  8
1
  6
CONTINUOUS
 62
7
  2
S17
 10
309.3586496777
 20
267.1060627331
  0
TEXT
  8
5
  6
CONTINUOUS
 62
7
 10
338.753123
 20
268.474804
 40
3.000000
  1
ｱﾙﾐﾀﾞｲｷｬｽﾄ銀色塗装
 41
0.833541
 50
0.000000
 51
0.000000
 72
   5
 73
   0
 11
366.785123
 21
268.474804
  0
TEXT
  8
5
  6
CONTINUOUS
 62
7
 10
338.753123
 20
265.474804
 40
3.000000
  1
又は
 41
0.921659
 50
0.000000
 51
0.000000
 72
   5
 73
   0
 11
344.753123
 21
265.474804
  0
TEXT
  8
5
  6
CONTINUOUS
 62
7
 10
338.753123
 20
262.474804
 40
3.000000
  1
PBT 黒色(UL  V-0)
 41
0.751838
 50
0.000000
 51
0.000000
 72
   5
 73
   0
 11
363.293123
 21
262.474804
  0
INSERT
  8
3
  6
CONTINUOUS
 62
5
  2
LTEX4
 10
134.5962334454
 20
86.7605564293
  0
POINT
  8
5
  6
CONTINUOUS
 62
6
 10
137.2868002249
 20
38.5097255163
  0
POINT
  8
5
  6
CONTINUOUS
 62
6
 10
137.2868002249
 20
38.5097255163
  0
POINT
  8
1
  6
CONTINUOUS
 62
6
 10
137.2868002249
 20
38.5097255163
  0
POINT
  8
5
  6
CONTINUOUS
 62
6
 10
137.2868002249
 20
38.5097255163
  0
INSERT
  8
1
  6
CONTINUOUS
 62
7
  2
S18
 10
137.2868002249
 20
38.5097255163
  0
INSERT
  8
3
  6
CONTINUOUS
 62
5
  2
LTEX5
 10
88.2645106558
 20
17.3439335173
  0
INSERT
  8
3
  6
CONTINUOUS
 62
5
  2
LTEX6
 10
39.2645106558
 20
18.7789024664
  0
TEXT
  8
3
  6
CONTINUOUS
 62
7
 10
14.626282
 20
-70.012595
 40
5.000000
  1
型番仕様
 41
0.886918
 50
0.000000
 51
0.000000
 72
   5
 73
   0
 11
34.626282
 21
-70.012595
  0
TEXT
  8
3
  6
CONTINUOUS
 62
7
 10
14.626282
 20
-77.012595
 40
5.000000
  1
　MCON-001-056 %%uPB%%u %%uA*%%u %%uR*%%u %%uU*%%u
 41
0.761124
 50
0.000000
 51
0.000000
 72
   5
 73
   0
 11
79.626282
 21
-77.012595
  0
LINE
  8
3
  6
CONTINUOUS
 62
7
 10
77.1061508706
 20
-77.2376908516
 11
77.1061508706
 21
-82.2376908516
  0
LINE
  8
3
  6
CONTINUOUS
 62
7
 10
77.1061508706
 20
-82.2376908516
 11
82.1061508707
 21
-82.2376908516
  0
LINE
  8
3
  6
CONTINUOUS
 62
7
 10
82.1061508706
 20
-94.7376908516
 11
69.5791859172
 21
-94.7376908516
  0
LINE
  8
3
  6
CONTINUOUS
 62
7
 10
69.5791859172
 20
-94.7376908515
 11
69.5791859172
 21
-77.2376908516
  0
LINE
  8
3
  6
CONTINUOUS
 62
7
 10
82.1061508706
 20
-107.2376908516
 11
61.6162074671
 21
-107.2376908516
  0
LINE
  8
3
  6
CONTINUOUS
 62
7
 10
61.6162074671
 20
-107.2376908516
 11
61.6162074671
 21
-77.2376908516
  0
TEXT
  8
1
  6
CONTINUOUS
 62
7
 10
14.349304
 20
-96.524897
 40
3.500000
  1
①ﾍﾞｰｽ,②ｶﾊﾞｰ材質
 41
0.806452
 50
0.000000
 51
0.000000
 72
   5
 73
   0
 11
44.099304
 21
-96.524897
  0
TEXT
  8
1
  6
CONTINUOUS
 62
7
 10
14.349304
 20
-100.024897
 40
3.500000
  1
無印:ｱﾙﾐﾀﾞｲｷｬｽﾄ
 41
0.786164
 50
0.000000
 51
0.000000
 72
   5
 73
   0
 11
40.599304
 21
-100.024897
  0
TEXT
  8
1
  6
CONTINUOUS
 62
7
 10
14.349304
 20
-103.524897
 40
3.500000
  1
PB:PBT(UL:V-0)
 41
0.760043
 50
0.000000
 51
0.000000
 72
   5
 73
   0
 11
38.849304
 21
-103.524897
  0
POINT
  8
5
  6
CONTINUOUS
 62
6
 10
8.5919831058
 20
-94.0041141853
  0
POINT
  8
5
  6
CONTINUOUS
 62
6
 10
8.5919831058
 20
-94.0041141853
  0
POINT
  8
1
  6
CONTINUOUS
 62
6
 10
8.5919831058
 20
-94.0041141853
  0
POINT
  8
5
  6
CONTINUOUS
 62
6
 10
8.5919831057
 20
-94.0041141853
  0
INSERT
  8
1
  6
CONTINUOUS
 62
7
  2
S19
 10
8.5919831057
 20
-94.0041141853
  0
LINE
  8
1
  6
CONTINUOUS
 62
7
 10
54.9997670828
 20
-87.2363004900
 11
16.3364684662
 21
-87.2363004900
  0
LINE
  8
1
  6
CONTINUOUS
 62
7
 10
16.3364684662
 20
-87.2363004900
 11
16.3364684662
 21
-91.9263053173
  0
LINE
  8
1
  6
CONTINUOUS
 62
7
 10
54.9997670828
 20
-77.1862901458
 11
54.9997670828
 21
-87.2363004900
  0
TEXT
  8
3
  6
CONTINUOUS
 62
7
 10
84.106151
 20
-84.897088
 40
4.500000
  1
⑪ U0:USB無し(ﾌﾞﾗﾝｸﾊﾟﾈﾙ)
 41
0.779221
 50
0.000000
 51
0.000000
 72
   5
 73
   0
 11
138.106151
 21
-84.897088
  0
TEXT
  8
3
  6
CONTINUOUS
 62
7
 10
84.106151
 20
-90.397088
 40
4.500000
  1
　 U1:USB有り
 41
0.809465
 50
0.000000
 51
0.000000
 72
   5
 73
   0
 11
113.356151
 21
-90.397088
  0
TEXT
  8
3
  6
CONTINUOUS
 62
7
 10
84.106151
 20
-97.579128
 40
4.500000
  1
⑩ R0:RJ45無し(ﾌﾞﾗﾝｸﾊﾟﾈﾙ)
 41
0.777847
 50
0.000000
 51
0.000000
 72
   5
 73
   0
 11
140.356151
 21
-97.579128
  0
TEXT
  8
3
  6
CONTINUOUS
 62
7
 10
84.106151
 20
-103.079128
 40
4.500000
  1
　 R1:RJ45有り
 41
0.804598
 50
0.000000
 51
0.000000
 72
   5
 73
   0
 11
115.606151
 21
-103.079128
  0
TEXT
  8
3
  6
CONTINUOUS
 62
7
 10
83.908293
 20
-110.347422
 40
4.500000
  1
⑨ A2:ACｱｳﾄﾚｯﾄ無し(ﾌﾞﾗﾝｸ)
 41
0.777847
 50
0.000000
 51
0.000000
 72
   5
 73
   0
 11
140.158293
 21
-110.347422
  0
TEXT
  8
3
  6
CONTINUOUS
 62
7
 10
83.908293
 20
-115.847422
 40
4.500000
  1
　 A3:ACｱｳﾄﾚｯﾄ(南ｱﾌﾘｶ,EU,US)
 41
0.767123
 50
0.000000
 51
0.000000
 72
   5
 73
   0
 11
146.908293
 21
-115.847422
  0
TEXT
  8
3
  6
CONTINUOUS
 62
7
 10
83.908293
 20
-121.347422
 40
4.500000
  1
　 A4:ACｱｳﾄﾚｯﾄ(EU-Ⅳ)
 41
0.774336
 50
0.000000
 51
0.000000
 72
   5
 73
   0
 11
131.158293
 21
-121.347422
  0
ENDSEC
  0
EOF
