  0
SECTION
  2
HEADER
  9
$ACADVER
  1
AC1009
  9
$DWGCODEPAGE
  3
dos932
  9
$INSBASE
 10
202.2490435001
 20
-18.2327615310
  9
$EXTMIN
 10
-429.7928127399
 20
-365.8004372917
  9
$EXTMAX
 10
834.2908997401
 20
329.3349142297
  9
$LIMMIN
 10
-429.7928127399
 20
-365.8004372917
  9
$LIMMAX
 10
834.2908997401
 20
329.3349142297
  9
$VIEWCTR
 10
0.0000000000
 20
0.0000000000
  9
$VIEWSIZE
 40
0.0000000000
  9
$SNAPMODE
 70
     0
  9
$SNAPUNIT
 10
20.0
 20
20.0
  9
$SNAPBASE
 10
0.000000
 20
0.000000
  9
$SNAPANG
 50
0.0
  9
$SNAPSTYLE
 70
     0
  9
$SNAPISOPAIR
 70
     0
  9
$GRIDMODE
 70
     0
  9
$GRIDUNIT
 10
10.000000
 20
10.000000
  9
$ORTHOMODE
 70
     0
  9
$REGENMODE
 70
     0
  9
$FILLMODE
 70
     1
  9
$QTEXTMODE
 70
     0
  9
$DRAGMODE
 70
     1
  9
$LTSCALE
 40
1.0
  9
$OSMODE
 70
     0
  9
$ATTMODE
 70
     1
  9
$TEXTSIZE
 40
4.000000
  9
$TRACEWID
 40
0.05
  9
$TEXTSTYLE
  7
STANDARD
  9
$CLAYER
  8
1
  9
$CELTYPE
  6
CONTINUOUS
  9
$CECOLOR
  62
7
  9
$DIMSCALE
 40
1.0000000000
  9
$DIMASZ
 40
2.0000000000
  9
$DIMEXO
 40
0.5000000000
  9
$DIMDLI
 40
7.000000
  9
$DIMRND
 40
0.0
  9
$DIMDLE
 40
0.0
  9
$DIMEXE
 40
1.0000000000
  9
$DIMTP
 40
0.0
  9
$DIMTM
 40
0.0
  9
$DIMTXT
 40
3.500000
  9
$DIMCEN
 40
0.09
  9
$DIMTSZ
 40
0.0
  9
$DIMTOL
 70
     0
  9
$DIMLIM
 70
     0
  9
$DIMTIH
 70
     0
  9
$DIMTOH
 70
     0
  9
$DIMSE1
 70
     0
  9
$DIMSE2
 70
     0
  9
$DIMTAD
 70
     1
  9
$DIMZIN
 70
     0
  9
$DIMBLK
  1

  9
$DIMASO
 70
     1
  9
$DIMSHO
 70
     0
  9
$DIMPOST
  1

  9
$DIMAPOST
  1

  9
$DIMALT
 70
     0
  9
$DIMALTD
 70
     3
  9
$DIMCLRD
 70
     5
  9
$DIMCLRE
 70
     5
  9
$DIMCLRT
 70
     7
  9
$DIMALTF
 40
25.4
  9
$DIMLFAC
 40
1.0
  9
$DIMTOFL
 70
     0
  9
$DIMTVP
 40
0.0
  9
$DIMTIX
 70
     0
  9
$DIMSOXD
 70
     0
  9
$DIMSAH
 70
     0
  9
$LUNITS
 70
     2
  9
$LUPREC
 70
     4
  9
$AXISMODE
 70
     0
  9
$AXISUNIT
 10
0.0
 20
0.0
  9
$SKETCHINC
 40
0.1
  9
$FILLETRAD
 40
0.0
  9
$AUNITS
 70
     0
  9
$AUPREC
 70
     0
  9
$MENU
  1
ACAD
  9
$ELEVATION
 40
0.0
  9
$THICKNESS
 40
0.0
  9
$VIEWDIR
 10
0.0
 20
0.0
 30
1.0
  9
$LIMCHECK
 70
     0
  9
$BLIPMODE
 70
     1
  9
$CHAMFERA
 40
0.0
  9
$CHAMFERB
 40
0.0
  9
$FASTZOOM
 70
     1
  9
$SKPOLY
 70
     0
  9
$TDCREATE
 40
2460019.0000000051
  9
$TDUPDATE
 40
2460019.0000000051
  9
$TDINDWG
 40
0.0000000000
  9
$TDUSRTIMER
 40
0.0000000000
  9
$USRTIMER
 70
     1
  9
$ANGBASE
 50
0.0
  9
$ANGDIR
 70
     0
  9
$PDMODE
 70
     65
  9
$PDSIZE
 40
0.2
  9
$PLINEWID
 40
0.0
  9
$COORDS
 70
     2
  9
$USERI1
 70
     0
  9
$USERI2
 70
     0
  9
$USERI3
 70
     0
  9
$USERI4
 70
     0
  9
$USERI5
 70
     0
  9
$USERR1
 40
0.0
  9
$USERR2
 40
0.0
  9
$USERR3
 40
0.0
  9
$USERR4
 40
0.0
  9
$USERR5
 40
0.0
  0
ENDSEC
  0
SECTION
  2
TABLES
  0
TABLE
  2
LTYPE
 70
     9
  0
LTYPE
  2
CONTINUOUS
 70
    64
  3
Solid line
 72
    65
 73
     0
 40
0.0
  0
LTYPE
  2
DASHED
 70
    64
  3
__ __ __ __ __ __ __ __ __ __ __ __ __ __ __
 72
    65
 73
     2
 40
3.0
 49
2.0
 49
-1.0
  0
LTYPE
  2
HIDDEN
 70
    64
  3
_ _ _ _ _ _ _ _ _ _ _ _ _ _ _ _ _ _ _ _ _ _ _
 72
    65
 73
     2
 40
1.5
 49
1.0
 49
-0.5
  0
LTYPE
  2
CENTER
 70
    64
  3
____ _ ____ _ ____ _ ____ _ ____ _ ____ _ ____
 72
    65
 73
     4
 40
24.0
 49
20.0
 49
-1.0
 49
2.0
 49
-1.0
  0
LTYPE
  2
PHANTOM
 70
    64
  3
_____ _ _ _____ _ _ _____ _ _ _____ _ _ ____
 72
    65
 73
     6
 40
27.0
 49
20.0
 49
-1.0
 49
2.0
 49
-1.0
 49
2.0
 49
-1.0
  0
LTYPE
  2
DOT
 70
    64
  3
...............................................
 72
    65
 73
     2
 40
1.5
 49
0.5
 49
-1.0
  0
LTYPE
  2
DASHDOT
 70
    64
  3
__ . __ . __ . __ . __ . __ . __ . __ . __ . __
 72
    65
 73
     4
 40
8.5
 49
6.0
 49
-1.0
 49
0.5
 49
-1.0
  0
LTYPE
  2
DIVIDE
 70
    64
  3
__ . . __ . . __ . . __ . . __ . . __ . . __
 72
    65
 73
     6
 40
10.0
 49
6.0
 49
-1.0
 49
0.5
 49
-1.0
 49
0.5
 49
-1.0
  0
LTYPE
  2
BORDER
 70
    64
  3
__ __ . __ __ . __ __ . __ __ . __ __ . __ __
 72
    65
 73
     6
 40
15.5
 49
6.0
 49
-1.0
 49
6.0
 49
-1.0
 49
0.5
 49
-1.0
  0
ENDTAB
  0
TABLE
  2
LAYER
 70
  8
  0
LAYER
  2
0
 70
    64
 62
     7
  6
CONTINUOUS
  0
LAYER
  2
1
 70
    64
 62
     7
  6
CONTINUOUS
  0
LAYER
  2
2
 70
    64
 62
     7
  6
CONTINUOUS
  0
LAYER
  2
3
 70
    64
 62
     7
  6
CONTINUOUS
  0
LAYER
  2
4
 70
    64
 62
     7
  6
CONTINUOUS
  0
LAYER
  2
5
 70
    64
 62
     7
  6
CONTINUOUS
  0
LAYER
  2
7
 70
    64
 62
     7
  6
CONTINUOUS
  0
LAYER
  2
DEFPOINTS
 70
     0
 62
    -7
  6
CONTINUOUS
  0
ENDTAB
  0
TABLE
  2
STYLE
 70
     1
  0
STYLE
  2
STANDARD
 70
    64
 40
0.0
 41
1.0
 71
     0
 42
4.000000
  3
TXT
  4
EXTFONT
 50
0.0
  0
ENDTAB
  0
TABLE
  2
VIEW
 70
     0
  0
ENDTAB
  0
ENDSEC
  0
SECTION
  2
BLOCKS
  0
BLOCK
  8
0
  2
CI
 70
   0
 10
0.0
 20
0.0
  0
CIRCLE
  8
0
  62
0
 10
0.0
 20
0.0
 40
0.1666666666
  0
ENDBLK
  8
0
  0
BLOCK
  8
5
  2
S0
 70
     0
 10
0.0000000000
 20
0.0000000000
  3
S0
  0
POINT
  8
5
  6
CONTINUOUS
 62
6
 10
-6.5000000000
 20
-6.5000000000
  0
LINE
  8
5
  6
CONTINUOUS
 62
6
 10
4.5000000000
 20
4.5000000000
 11
402.5000000000
 21
4.5000000000
  0
LINE
  8
5
  6
CONTINUOUS
 62
6
 10
4.5000000000
 20
4.5000000000
 11
4.5000000000
 21
279.5000000000
  0
LINE
  8
5
  6
CONTINUOUS
 62
6
 10
44.5000000000
 20
284.0000000000
 11
44.5000000000
 21
279.5000000000
  0
LINE
  8
5
  6
CONTINUOUS
 62
6
 10
44.5000000000
 20
4.5000000000
 11
44.5000000000
 21
0.0000000000
  0
LINE
  8
5
  6
CONTINUOUS
 62
6
 10
84.5000000000
 20
284.0000000000
 11
84.5000000000
 21
279.5000000000
  0
LINE
  8
5
  6
CONTINUOUS
 62
6
 10
124.5000000000
 20
284.0000000000
 11
124.5000000000
 21
279.5000000000
  0
LINE
  8
5
  6
CONTINUOUS
 62
6
 10
164.5000000000
 20
284.0000000000
 11
164.5000000000
 21
279.5000000000
  0
LINE
  8
5
  6
CONTINUOUS
 62
6
 10
204.5000000000
 20
284.0000000000
 11
204.5000000000
 21
279.5000000000
  0
LINE
  8
5
  6
CONTINUOUS
 62
6
 10
244.5000000000
 20
284.0000000000
 11
244.5000000000
 21
279.5000000000
  0
LINE
  8
5
  6
CONTINUOUS
 62
6
 10
84.5000000000
 20
4.5000000000
 11
84.5000000000
 21
0.0000000000
  0
LINE
  8
5
  6
CONTINUOUS
 62
6
 10
124.5000000000
 20
4.5000000000
 11
124.5000000000
 21
0.0000000000
  0
LINE
  8
5
  6
CONTINUOUS
 62
6
 10
164.5000000000
 20
4.5000000000
 11
164.5000000000
 21
0.0000000000
  0
LINE
  8
5
  6
CONTINUOUS
 62
6
 10
204.5000000000
 20
4.5000000000
 11
204.5000000000
 21
0.0000000000
  0
LINE
  8
5
  6
CONTINUOUS
 62
6
 10
244.5000000000
 20
4.5000000000
 11
244.5000000000
 21
0.0000000000
  0
LINE
  8
5
  6
CONTINUOUS
 62
6
 10
0.0000000000
 20
239.5000000000
 11
4.5000000000
 21
239.5000000000
  0
LINE
  8
5
  6
CONTINUOUS
 62
6
 10
402.5000000000
 20
239.5000000000
 11
407.0000000000
 21
239.5000000000
  0
LINE
  8
5
  6
CONTINUOUS
 62
6
 10
0.0000000000
 20
199.5000000000
 11
4.5000000000
 21
199.5000000000
  0
LINE
  8
5
  6
CONTINUOUS
 62
6
 10
0.0000000000
 20
159.5000000000
 11
4.5000000000
 21
159.5000000000
  0
LINE
  8
5
  6
CONTINUOUS
 62
6
 10
0.0000000000
 20
119.5000000000
 11
4.5000000000
 21
119.5000000000
  0
LINE
  8
5
  6
CONTINUOUS
 62
6
 10
402.5000000000
 20
199.5000000000
 11
407.0000000000
 21
199.5000000000
  0
LINE
  8
5
  6
CONTINUOUS
 62
6
 10
402.5000000000
 20
159.5000000000
 11
407.0000000000
 21
159.5000000000
  0
LINE
  8
5
  6
CONTINUOUS
 62
6
 10
402.5000000000
 20
119.5000000000
 11
407.0000000000
 21
119.5000000000
  0
TEXT
  8
5
  6
CONTINUOUS
 62
6
 10
23.500000
 20
279.500000
 40
4.000000
  1
1
 41
1.000000
 50
0.000000
 51
0.000000
 72
   5
 73
   0
 11
25.500000
 21
279.500000
  0
TEXT
  8
5
  6
CONTINUOUS
 62
6
 10
23.500000
 20
0.500000
 40
4.000000
  1
1
 41
1.000000
 50
0.000000
 51
0.000000
 72
   5
 73
   0
 11
25.500000
 21
0.500000
  0
TEXT
  8
5
  6
CONTINUOUS
 62
6
 10
63.500000
 20
279.500000
 40
4.000000
  1
2
 41
1.000000
 50
0.000000
 51
0.000000
 72
   5
 73
   0
 11
65.500000
 21
279.500000
  0
TEXT
  8
5
  6
CONTINUOUS
 62
6
 10
103.500000
 20
279.500000
 40
4.000000
  1
3
 41
1.000000
 50
0.000000
 51
0.000000
 72
   5
 73
   0
 11
105.500000
 21
279.500000
  0
TEXT
  8
5
  6
CONTINUOUS
 62
6
 10
143.500000
 20
279.500000
 40
4.000000
  1
4
 41
1.000000
 50
0.000000
 51
0.000000
 72
   5
 73
   0
 11
145.500000
 21
279.500000
  0
TEXT
  8
5
  6
CONTINUOUS
 62
6
 10
183.500000
 20
279.500000
 40
4.000000
  1
5
 41
1.000000
 50
0.000000
 51
0.000000
 72
   5
 73
   0
 11
185.500000
 21
279.500000
  0
TEXT
  8
5
  6
CONTINUOUS
 62
6
 10
223.500000
 20
279.500000
 40
4.000000
  1
6
 41
1.000000
 50
0.000000
 51
0.000000
 72
   5
 73
   0
 11
225.500000
 21
279.500000
  0
TEXT
  8
5
  6
CONTINUOUS
 62
6
 10
263.500000
 20
279.500000
 40
4.000000
  1
7
 41
1.000000
 50
0.000000
 51
0.000000
 72
   5
 73
   0
 11
265.500000
 21
279.500000
  0
TEXT
  8
5
  6
CONTINUOUS
 62
6
 10
63.500000
 20
0.500000
 40
4.000000
  1
2
 41
1.000000
 50
0.000000
 51
0.000000
 72
   5
 73
   0
 11
65.500000
 21
0.500000
  0
TEXT
  8
5
  6
CONTINUOUS
 62
6
 10
103.500000
 20
0.500000
 40
4.000000
  1
3
 41
1.000000
 50
0.000000
 51
0.000000
 72
   5
 73
   0
 11
105.500000
 21
0.500000
  0
TEXT
  8
5
  6
CONTINUOUS
 62
6
 10
143.500000
 20
0.500000
 40
4.000000
  1
4
 41
1.000000
 50
0.000000
 51
0.000000
 72
   5
 73
   0
 11
145.500000
 21
0.500000
  0
TEXT
  8
5
  6
CONTINUOUS
 62
6
 10
183.500000
 20
0.500000
 40
4.000000
  1
5
 41
1.000000
 50
0.000000
 51
0.000000
 72
   5
 73
   0
 11
185.500000
 21
0.500000
  0
TEXT
  8
5
  6
CONTINUOUS
 62
6
 10
223.500000
 20
0.500000
 40
4.000000
  1
6
 41
1.000000
 50
0.000000
 51
0.000000
 72
   5
 73
   0
 11
225.500000
 21
0.500000
  0
TEXT
  8
5
  6
CONTINUOUS
 62
6
 10
263.500000
 20
0.500000
 40
4.000000
  1
7
 41
1.000000
 50
0.000000
 51
0.000000
 72
   5
 73
   0
 11
265.500000
 21
0.500000
  0
TEXT
  8
5
  6
CONTINUOUS
 62
6
 10
1.626773
 20
257.454143
 40
4.000000
  1
A
 41
1.266000
 50
0.000000
 51
0.000000
 72
   5
 73
   0
 11
4.158773
 21
257.454143
  0
TEXT
  8
5
  6
CONTINUOUS
 62
6
 10
402.786513
 20
257.492354
 40
4.000000
  1
A
 41
1.266000
 50
0.000000
 51
0.000000
 72
   5
 73
   0
 11
405.318513
 21
257.492354
  0
TEXT
  8
5
  6
CONTINUOUS
 62
6
 10
1.610773
 20
217.454143
 40
4.000000
  1
B
 41
1.274000
 50
0.000000
 51
0.000000
 72
   5
 73
   0
 11
4.158773
 21
217.454143
  0
TEXT
  8
5
  6
CONTINUOUS
 62
6
 10
1.502773
 20
177.454143
 40
4.000000
  1
C
 41
1.328000
 50
0.000000
 51
0.000000
 72
   5
 73
   0
 11
4.158773
 21
177.454143
  0
TEXT
  8
5
  6
CONTINUOUS
 62
6
 10
1.566773
 20
137.454143
 40
4.000000
  1
D
 41
1.296000
 50
0.000000
 51
0.000000
 72
   5
 73
   0
 11
4.158773
 21
137.454143
  0
TEXT
  8
5
  6
CONTINUOUS
 62
6
 10
1.894773
 20
97.454143
 40
4.000000
  1
E
 41
1.132000
 50
0.000000
 51
0.000000
 72
   5
 73
   0
 11
4.158773
 21
97.454143
  0
TEXT
  8
5
  6
CONTINUOUS
 62
6
 10
402.786513
 20
217.492354
 40
4.000000
  1
B
 41
1.274000
 50
0.000000
 51
0.000000
 72
   5
 73
   0
 11
405.334513
 21
217.492354
  0
TEXT
  8
5
  6
CONTINUOUS
 62
6
 10
402.786513
 20
177.492354
 40
4.000000
  1
C
 41
1.328000
 50
0.000000
 51
0.000000
 72
   5
 73
   0
 11
405.442513
 21
177.492354
  0
TEXT
  8
5
  6
CONTINUOUS
 62
6
 10
402.786513
 20
137.492354
 40
4.000000
  1
D
 41
1.296000
 50
0.000000
 51
0.000000
 72
   5
 73
   0
 11
405.378513
 21
137.492354
  0
TEXT
  8
5
  6
CONTINUOUS
 62
6
 10
402.786513
 20
97.492354
 40
4.000000
  1
E
 41
1.132000
 50
0.000000
 51
0.000000
 72
   5
 73
   0
 11
405.050513
 21
97.492354
  0
LINE
  8
5
  6
CONTINUOUS
 62
6
 10
347.5000000000
 20
29.5000000000
 11
347.5000000000
 21
4.5000000000
  0
LINE
  8
5
  6
CONTINUOUS
 62
6
 10
347.5000000000
 20
14.5000000000
 11
402.5000000000
 21
14.5000000000
  0
LINE
  8
5
  6
CONTINUOUS
 62
6
 10
347.5000000000
 20
7.5000000000
 11
281.5000000000
 21
7.5000000000
  0
LINE
  8
5
  6
CONTINUOUS
 62
6
 10
303.5000000000
 20
4.5000000000
 11
303.5000000000
 21
21.0000000000
  0
LINE
  8
5
  6
CONTINUOUS
 62
6
 10
336.5000000000
 20
17.0000000000
 11
336.5000000000
 21
4.5000000000
  0
LINE
  8
5
  6
CONTINUOUS
 62
6
 10
325.5000000000
 20
4.5000000000
 11
325.4999999999
 21
21.0000000000
  0
LINE
  8
5
  6
CONTINUOUS
 62
6
 10
314.5000000000
 20
17.0000000000
 11
314.5000000000
 21
4.5000000000
  0
TEXT
  8
5
  6
CONTINUOUS
 62
6
 10
294.250000
 20
4.750000
 40
2.500000
  1
Design
 41
0.779221
 50
0.000000
 51
0.000000
 72
   5
 73
   0
 11
301.750000
 21
4.750000
  0
TEXT
  8
5
  6
CONTINUOUS
 62
6
 10
305.875000
 20
4.750000
 40
2.500000
  1
Draft
 41
0.786164
 50
0.000000
 51
0.000000
 72
   5
 73
   0
 11
312.125000
 21
4.750000
  0
TEXT
  8
5
  6
CONTINUOUS
 62
6
 10
316.875000
 20
4.750000
 40
2.500000
  1
Check
 41
0.786164
 50
0.000000
 51
0.000000
 72
   5
 73
   0
 11
323.125000
 21
4.750000
  0
LINE
  8
5
  6
CONTINUOUS
 62
6
 10
281.5000000000
 20
29.5000000000
 11
402.5000000000
 21
29.5000000000
  0
LINE
  8
5
  6
CONTINUOUS
 62
6
 10
281.5000000000
 20
17.0000000000
 11
347.5000000000
 21
17.0000000000
  0
LINE
  8
5
  6
CONTINUOUS
 62
6
 10
392.5000000000
 20
14.5000000000
 11
392.5000000000
 21
4.5000000000
  0
TEXT
  8
5
  6
CONTINUOUS
 62
6
 10
395.520000
 20
5.000000
 40
2.000000
  1
SIZE
 41
0.788845
 50
0.000000
 51
0.000000
 72
   5
 73
   0
 11
399.480000
 21
5.000000
  0
LINE
  8
5
  6
CONTINUOUS
 62
6
 10
392.5000000000
 20
7.5000000000
 11
402.5000000000
 21
7.5000000000
  0
TEXT
  8
5
  6
CONTINUOUS
 62
6
 10
394.005000
 20
8.500000
 40
5.000000
  1
Ａ３
 41
0.644240
 50
0.000000
 51
0.000000
 72
   5
 73
   0
 11
400.995000
 21
8.500000
  0
TEXT
  8
5
  6
CONTINUOUS
 62
6
 10
338.875000
 20
4.750000
 40
2.500000
  1
Scale
 41
0.786164
 50
0.000000
 51
0.000000
 72
   5
 73
   0
 11
345.125000
 21
4.750000
  0
TEXT
  8
5
  6
CONTINUOUS
 62
6
 10
338.250000
 20
9.750000
 40
5.000000
  1
1/1
 41
0.815217
 50
0.000000
 51
0.000000
 72
   5
 73
   0
 11
345.750000
 21
9.750000
  0
TEXT
  8
5
  6
CONTINUOUS
 62
6
 10
326.625000
 20
4.750000
 40
2.500000
  1
Confirm
 41
0.774336
 50
0.000000
 51
0.000000
 72
   5
 73
   0
 11
335.375000
 21
4.750000
  0
TEXT
  8
5
  6
CONTINUOUS
 62
6
 10
284.500000
 20
4.750000
 40
2.500000
  1
Date
 41
0.796813
 50
0.000000
 51
0.000000
 72
   5
 73
   0
 11
289.500000
 21
4.750000
  0
TEXT
  8
5
  6
CONTINUOUS
 62
6
 10
283.250000
 20
12.462500
 40
3.000000
  1
2009/
 41
0.786164
 50
0.000000
 51
0.000000
 72
   5
 73
   0
 11
290.750000
 21
12.462500
  0
TEXT
  8
5
  6
CONTINUOUS
 62
6
 10
283.250000
 20
9.037500
 40
3.000000
  1
10/19
 41
0.786164
 50
0.000000
 51
0.000000
 72
   5
 73
   0
 11
290.750000
 21
9.037500
  0
LINE
  8
5
  6
CONTINUOUS
 62
6
 10
292.5000000000
 20
17.0000000000
 11
292.5000000000
 21
4.5000000000
  0
LINE
  8
5
  6
CONTINUOUS
 62
6
 10
281.5000000000
 20
4.5000000000
 11
281.5000000000
 21
29.5000000000
  0
TEXT
  8
5
  6
CONTINUOUS
 62
6
 10
281.755293
 20
18.213190
 40
2.000000
  1
Material
 41
0.638921
 50
0.000000
 51
0.000000
 72
   5
 73
   0
 11
288.387293
 21
18.213190
  0
LINE
  8
5
  6
CONTINUOUS
 62
6
 10
288.5000000000
 20
21.0000000000
 11
288.5000000000
 21
17.0000000000
  0
TEXT
  8
5
  6
CONTINUOUS
 62
6
 10
303.605000
 20
18.000000
 40
2.000000
  1
Process
 41
0.751106
 50
0.000000
 51
0.000000
 72
   5
 73
   0
 11
310.395000
 21
18.000000
  0
LINE
  8
5
  6
CONTINUOUS
 62
6
 10
310.5000000000
 20
21.0000000000
 11
310.5000000000
 21
17.0000000000
  0
TEXT
  8
5
  6
CONTINUOUS
 62
6
 10
325.773000
 20
18.000000
 40
2.000000
  1
Amount
 41
0.838182
 50
0.000000
 51
0.000000
 72
   5
 73
   0
 11
332.227000
 21
18.000000
  0
LINE
  8
5
  6
CONTINUOUS
 62
6
 10
332.4999999999
 20
21.0000000000
 11
332.4999999999
 21
17.0000000000
  0
LINE
  8
5
  6
CONTINUOUS
 62
6
 10
347.5000000000
 20
21.0000000000
 11
281.5000000000
 21
21.0000000000
  0
POINT
  8
5
  6
CONTINUOUS
 62
6
 10
289.5000000000
 20
19.0000000000
  0
POINT
  8
5
  6
CONTINUOUS
 62
6
 10
311.5000000000
 20
19.0000000000
  0
POINT
  8
5
  6
CONTINUOUS
 62
6
 10
339.9999999999
 20
19.0000000000
  0
POINT
  8
5
  6
CONTINUOUS
 62
6
 10
298.0000000000
 20
12.2500000000
  0
POINT
  8
5
  6
CONTINUOUS
 62
6
 10
309.0000000000
 20
12.2500000000
  0
POINT
  8
5
  6
CONTINUOUS
 62
6
 10
320.0000000000
 20
12.2500000000
  0
POINT
  8
5
  6
CONTINUOUS
 62
6
 10
331.0000000000
 20
12.2500000000
  0
POINT
  8
5
  6
CONTINUOUS
 62
6
 10
0.0000000000
 20
0.0000000000
  0
TEXT
  8
5
  6
CONTINUOUS
 62
7
 10
301.099806
 20
20.780083
 40
4.000000
  1
MADOKA SYSTEM co,.ltd
 41
0.778201
 50
0.000000
 51
0.000000
 72
   5
 73
   0
 11
344.367806
 21
20.780083
  0
LINE
  8
5
  6
CONTINUOUS
 62
6
 10
284.5000000000
 20
284.0000000000
 11
284.5000000000
 21
279.5000000000
  0
LINE
  8
5
  6
CONTINUOUS
 62
6
 10
284.5000000000
 20
4.5000000000
 11
284.5000000000
 21
0.0000000000
  0
TEXT
  8
5
  6
CONTINUOUS
 62
6
 10
303.500000
 20
279.500000
 40
4.000000
  1
8
 41
1.000000
 50
0.000000
 51
0.000000
 72
   5
 73
   0
 11
305.500000
 21
279.500000
  0
TEXT
  8
5
  6
CONTINUOUS
 62
6
 10
303.500000
 20
0.500000
 40
4.000000
  1
8
 41
1.000000
 50
0.000000
 51
0.000000
 72
   5
 73
   0
 11
305.500000
 21
0.500000
  0
LINE
  8
5
  6
CONTINUOUS
 62
6
 10
324.5000000000
 20
284.0000000000
 11
324.5000000000
 21
279.5000000000
  0
LINE
  8
5
  6
CONTINUOUS
 62
6
 10
324.5000000000
 20
4.5000000000
 11
324.5000000000
 21
0.0000000000
  0
TEXT
  8
5
  6
CONTINUOUS
 62
6
 10
343.500000
 20
279.500000
 40
4.000000
  1
9
 41
1.000000
 50
0.000000
 51
0.000000
 72
   5
 73
   0
 11
345.500000
 21
279.500000
  0
TEXT
  8
5
  6
CONTINUOUS
 62
6
 10
343.500000
 20
0.500000
 40
4.000000
  1
9
 41
1.000000
 50
0.000000
 51
0.000000
 72
   5
 73
   0
 11
345.500000
 21
0.500000
  0
LINE
  8
5
  6
CONTINUOUS
 62
6
 10
364.5000000000
 20
284.0000000000
 11
364.5000000000
 21
279.5000000000
  0
LINE
  8
5
  6
CONTINUOUS
 62
6
 10
364.5000000000
 20
4.5000000000
 11
364.5000000000
 21
0.0000000000
  0
TEXT
  8
5
  6
CONTINUOUS
 62
6
 10
382.500000
 20
279.500000
 40
4.000000
  1
10
 41
0.854701
 50
0.000000
 51
0.000000
 72
   5
 73
   0
 11
386.500000
 21
279.500000
  0
TEXT
  8
5
  6
CONTINUOUS
 62
6
 10
382.500000
 20
0.500000
 40
4.000000
  1
10
 41
0.854701
 50
0.000000
 51
0.000000
 72
   5
 73
   0
 11
386.500000
 21
0.500000
  0
LINE
  8
5
  6
CONTINUOUS
 62
6
 10
0.0000000000
 20
79.5000000000
 11
4.5000000000
 21
79.5000000000
  0
LINE
  8
5
  6
CONTINUOUS
 62
6
 10
402.5000000000
 20
79.5000000000
 11
407.0000000000
 21
79.5000000000
  0
LINE
  8
5
  6
CONTINUOUS
 62
6
 10
0.0000000000
 20
39.5000000000
 11
4.5000000000
 21
39.5000000000
  0
LINE
  8
5
  6
CONTINUOUS
 62
6
 10
402.5000000000
 20
39.5000000000
 11
407.0000000000
 21
39.5000000000
  0
TEXT
  8
5
  6
CONTINUOUS
 62
6
 10
1.954773
 20
57.454143
 40
4.000000
  1
F
 41
1.102000
 50
0.000000
 51
0.000000
 72
   5
 73
   0
 11
4.158773
 21
57.454143
  0
TEXT
  8
5
  6
CONTINUOUS
 62
6
 10
402.786513
 20
57.492354
 40
4.000000
  1
F
 41
1.102000
 50
0.000000
 51
0.000000
 72
   5
 73
   0
 11
404.990513
 21
57.492354
  0
TEXT
  8
5
  6
CONTINUOUS
 62
6
 10
1.438773
 20
17.454143
 40
4.000000
  1
G
 41
1.360000
 50
0.000000
 51
0.000000
 72
   5
 73
   0
 11
4.158773
 21
17.454143
  0
TEXT
  8
5
  6
CONTINUOUS
 62
6
 10
402.786513
 20
17.492354
 40
4.000000
  1
G
 41
1.360000
 50
0.000000
 51
0.000000
 72
   5
 73
   0
 11
405.506513
 21
17.492354
  0
LINE
  8
5
  6
CONTINUOUS
 62
6
 10
4.5000000000
 20
279.5000000000
 11
402.5000000000
 21
279.5000000000
  0
LINE
  8
5
  6
CONTINUOUS
 62
6
 10
402.5000000000
 20
279.5000000000
 11
402.5000000000
 21
4.5000000000
  0
POINT
  8
5
  6
CONTINUOUS
 62
6
 10
353.5000000000
 20
20.5000000000
  0
POINT
  8
5
  6
CONTINUOUS
 62
6
 10
353.5000000000
 20
8.0000000000
  0
LINE
  8
5
  6
CONTINUOUS
 62
6
 10
347.5000000000
 20
26.5000000000
 11
402.5000000000
 21
26.5000000000
  0
LINE
  8
5
  6
CONTINUOUS
 62
6
 10
347.5000000000
 20
11.5000000000
 11
392.5000000000
 21
11.5000000000
  0
TEXT
  8
5
  6
CONTINUOUS
 62
7
 10
362.928500
 20
26.250000
 40
3.500000
  1
Document Name
 41
0.807728
 50
0.000000
 51
0.000000
 72
   5
 73
   0
 11
387.071500
 21
26.250000
  0
TEXT
  8
5
  6
CONTINUOUS
 62
7
 10
359.678500
 20
11.250000
 40
3.500000
  1
Document No.
 41
0.749428
 50
0.000000
 51
0.000000
 72
   5
 73
   0
 11
380.321500
 21
11.250000
  0
ENDBLK
  8
0
  0
BLOCK
  8
1
  2
*D0
 70
     1
 10
0.0000000000
 20
0.0000000000
  3
*D0
  0
LINE
  8
1
  6
BYBLOCK
 62
5
 10
127.9661466639
 20
94.3244525436
 11
127.9661466639
 21
99.7193009011
  0
LINE
  8
1
  6
BYBLOCK
 62
5
 10
111.4661466639
 20
94.3244525436
 11
111.4661466639
 21
99.7193009011
  0
LINE
  8
1
  6
BYBLOCK
 62
5
 10
111.4661466639
 20
98.7193009011
 11
127.9661466639
 21
98.7193009011
  0
SOLID
  8
1
  6
CONTINUOUS
 62
5
 10
126.0342950114
 20
98.2016628109
 11
126.0342950114
 21
99.2369389913
 12
127.9661466639
 22
98.7193009011
 13
127.9661466639
 23
98.7193009011
  0
SOLID
  8
1
  6
CONTINUOUS
 62
5
 10
113.3979983165
 20
99.2369389913
 11
113.3979983165
 21
98.2016628109
 12
111.4661466639
 22
98.7193009011
 13
111.4661466639
 23
98.7193009011
  0
TEXT
  8
1
  6
CONTINUOUS
 62
7
 10
116.216147
 20
99.719301
 40
3.500000
  1
16.5
 41
0.796813
 50
0.000000
 51
0.000000
 72
   5
 73
   0
 11
123.216147
 21
99.719301
  0
POINT
  8
DEFPOINTS
  6
BYBLOCK
 62
5
 10
127.9661466639
 20
93.8244525436
  0
POINT
  8
DEFPOINTS
  6
BYBLOCK
 62
5
 10
111.4661466639
 20
93.8244525436
  0
POINT
  8
DEFPOINTS
  6
BYBLOCK
 62
5
 10
111.4661466639
 20
98.7193009011
  0
ENDBLK
  8
0
  0
BLOCK
  8
1
  2
*D1
 70
     1
 10
0.0000000000
 20
0.0000000000
  3
*D1
  0
LINE
  8
1
  6
BYBLOCK
 62
5
 10
27.2645106558
 20
27.5484212565
 11
19.9779016700
 21
27.5484212565
  0
LINE
  8
1
  6
BYBLOCK
 62
5
 10
28.2645106558
 20
36.5484212565
 11
19.9779016700
 21
36.5484212565
  0
LINE
  8
1
  6
BYBLOCK
 62
5
 10
20.9779016700
 20
36.5484212565
 11
20.9779016700
 21
27.5484212565
  0
SOLID
  8
1
  6
CONTINUOUS
 62
5
 10
20.4602635798
 20
29.4802729091
 11
21.4955397602
 21
29.4802729091
 12
20.9779016700
 22
27.5484212565
 13
20.9779016700
 23
27.5484212565
  0
SOLID
  8
1
  6
CONTINUOUS
 62
5
 10
21.4955397602
 20
34.6165696039
 11
20.4602635798
 21
34.6165696039
 12
20.9779016700
 22
36.5484212565
 13
20.9779016700
 23
36.5484212565
  0
TEXT
  8
1
  6
CONTINUOUS
 62
7
 10
19.977902
 20
31.173421
 40
3.500000
  1
9
 41
1.000000
 50
90.000000
 51
0.000000
 72
   5
 73
   0
 11
19.977902
 21
32.923421
  0
POINT
  8
DEFPOINTS
  6
BYBLOCK
 62
5
 10
27.7645106558
 20
27.5484212565
  0
POINT
  8
DEFPOINTS
  6
BYBLOCK
 62
5
 10
28.7645106558
 20
36.5484212565
  0
POINT
  8
DEFPOINTS
  6
BYBLOCK
 62
5
 10
20.9779016700
 20
36.5484212565
  0
ENDBLK
  8
0
  0
BLOCK
  8
1
  2
*D2
 70
     1
 10
0.0000000000
 20
0.0000000000
  3
*D2
  0
LINE
  8
1
  6
BYBLOCK
 62
5
 10
29.2645106558
 20
37.0484212565
 11
19.7383253733
 21
37.0484212565
  0
LINE
  8
1
  6
BYBLOCK
 62
5
 10
35.7645106558
 20
51.5484212565
 11
19.7383253733
 21
51.5484212565
  0
LINE
  8
1
  6
BYBLOCK
 62
5
 10
20.7383253733
 20
51.5484212565
 11
20.7383253733
 21
37.0484212565
  0
SOLID
  8
1
  6
CONTINUOUS
 62
5
 10
20.2206872831
 20
38.9802729091
 11
21.2559634635
 21
38.9802729091
 12
20.7383253733
 22
37.0484212565
 13
20.7383253733
 23
37.0484212565
  0
SOLID
  8
1
  6
CONTINUOUS
 62
5
 10
21.2559634635
 20
49.6165696039
 11
20.2206872831
 21
49.6165696039
 12
20.7383253733
 22
51.5484212565
 13
20.7383253733
 23
51.5484212565
  0
TEXT
  8
1
  6
CONTINUOUS
 62
7
 10
19.738325
 20
40.798421
 40
3.500000
  1
14.5
 41
0.796813
 50
90.000000
 51
0.000000
 72
   5
 73
   0
 11
19.738325
 21
47.798421
  0
POINT
  8
DEFPOINTS
  6
BYBLOCK
 62
5
 10
29.7645106558
 20
37.0484212565
  0
POINT
  8
DEFPOINTS
  6
BYBLOCK
 62
5
 10
36.2645106558
 20
51.5484212565
  0
POINT
  8
DEFPOINTS
  6
BYBLOCK
 62
5
 10
20.7383253733
 20
51.5484212565
  0
ENDBLK
  8
0
  0
BLOCK
  8
1
  2
*D3
 70
     1
 10
0.0000000000
 20
0.0000000000
  3
*D3
  0
LINE
  8
1
  6
BYBLOCK
 62
5
 10
27.2645106558
 20
27.5484212565
 11
12.2316014101
 21
27.5484212565
  0
LINE
  8
1
  6
BYBLOCK
 62
5
 10
35.7645106558
 20
51.5484212565
 11
12.2316014101
 21
51.5484212565
  0
LINE
  8
1
  6
BYBLOCK
 62
5
 10
13.2316014101
 20
51.5484212565
 11
13.2316014101
 21
27.5484212565
  0
SOLID
  8
1
  6
CONTINUOUS
 62
5
 10
12.7139633199
 20
29.4802729091
 11
13.7492395003
 21
29.4802729091
 12
13.2316014101
 22
27.5484212565
 13
13.2316014101
 23
27.5484212565
  0
SOLID
  8
1
  6
CONTINUOUS
 62
5
 10
13.7492395003
 20
49.6165696039
 11
12.7139633199
 21
49.6165696039
 12
13.2316014101
 22
51.5484212565
 13
13.2316014101
 23
51.5484212565
  0
TEXT
  8
1
  6
CONTINUOUS
 62
7
 10
12.231601
 20
37.798421
 40
3.500000
  1
24
 41
0.854701
 50
90.000000
 51
0.000000
 72
   5
 73
   0
 11
12.231601
 21
41.298421
  0
POINT
  8
DEFPOINTS
  6
BYBLOCK
 62
5
 10
27.7645106558
 20
27.5484212565
  0
POINT
  8
DEFPOINTS
  6
BYBLOCK
 62
5
 10
36.2645106558
 20
51.5484212565
  0
POINT
  8
DEFPOINTS
  6
BYBLOCK
 62
5
 10
13.2316014101
 20
51.5484212565
  0
ENDBLK
  8
0
  0
BLOCK
  8
1
  2
*D4
 70
     1
 10
0.0000000000
 20
0.0000000000
  3
*D4
  0
LINE
  8
1
  6
BYBLOCK
 62
5
 10
27.2645106558
 20
220.1025214537
 11
16.2916228022
 21
220.1025214537
  0
LINE
  8
1
  6
BYBLOCK
 62
5
 10
27.2645106558
 20
64.6025214537
 11
16.2916228022
 21
64.6025214537
  0
LINE
  8
1
  6
BYBLOCK
 62
5
 10
17.2916228022
 20
64.6025214537
 11
17.2916228022
 21
220.1025214537
  0
SOLID
  8
1
  6
CONTINUOUS
 62
5
 10
17.8092608924
 20
218.1706698011
 11
16.7739847120
 21
218.1706698011
 12
17.2916228022
 22
220.1025214537
 13
17.2916228022
 23
220.1025214537
  0
SOLID
  8
1
  6
CONTINUOUS
 62
5
 10
16.7739847120
 20
66.5343731063
 11
17.8092608924
 21
66.5343731063
 12
17.2916228022
 22
64.6025214537
 13
17.2916228022
 23
64.6025214537
  0
TEXT
  8
1
  6
CONTINUOUS
 62
7
 10
16.291623
 20
136.102521
 40
5.000000
  1
155.5
 41
0.786164
 50
90.000000
 51
0.000000
 72
   5
 73
   0
 11
16.291623
 21
148.602521
  0
POINT
  8
DEFPOINTS
  6
BYBLOCK
 62
5
 10
27.7645106558
 20
220.1025214537
  0
POINT
  8
DEFPOINTS
  6
BYBLOCK
 62
5
 10
27.7645106558
 20
64.6025214537
  0
POINT
  8
DEFPOINTS
  6
BYBLOCK
 62
5
 10
17.2916228022
 20
64.6025214537
  0
ENDBLK
  8
0
  0
BLOCK
  8
1
  2
*D5
 70
     1
 10
0.0000000000
 20
0.0000000000
  3
*D5
  0
LINE
  8
1
  6
BYBLOCK
 62
5
 10
27.7645106558
 20
220.6025214537
 11
27.7645106558
 21
225.0648547044
  0
LINE
  8
1
  6
BYBLOCK
 62
5
 10
96.7645106558
 20
220.6025214537
 11
96.7645106558
 21
225.0648547044
  0
LINE
  8
1
  6
BYBLOCK
 62
5
 10
96.7645106558
 20
224.0648547044
 11
27.7645106558
 21
224.0648547044
  0
SOLID
  8
1
  6
CONTINUOUS
 62
5
 10
29.6963623084
 20
224.5824927946
 11
29.6963623084
 21
223.5472166142
 12
27.7645106558
 22
224.0648547044
 13
27.7645106558
 23
224.0648547044
  0
SOLID
  8
1
  6
CONTINUOUS
 62
5
 10
94.8326590033
 20
223.5472166142
 11
94.8326590033
 21
224.5824927946
 12
96.7645106558
 22
224.0648547044
 13
96.7645106558
 23
224.0648547044
  0
TEXT
  8
1
  6
CONTINUOUS
 62
7
 10
59.764511
 20
225.064855
 40
5.000000
  1
69
 41
0.854701
 50
0.000000
 51
0.000000
 72
   5
 73
   0
 11
64.764511
 21
225.064855
  0
POINT
  8
DEFPOINTS
  6
BYBLOCK
 62
5
 10
27.7645106558
 20
220.1025214537
  0
POINT
  8
DEFPOINTS
  6
BYBLOCK
 62
5
 10
96.7645106558
 20
220.1025214537
  0
POINT
  8
DEFPOINTS
  6
BYBLOCK
 62
5
 10
96.7645106558
 20
224.0648547044
  0
ENDBLK
  8
0
  0
BLOCK
  8
3
  2
S1
 70
     0
 10
199.2237887598
 20
116.0713569170
  3
S1
  0
CIRCLE
  8
3
  6
CONTINUOUS
 62
5
 10
199.2237887598
 20
116.0713569170
 40
1.5000000000
  0
LINE
  8
3
  6
CONTINUOUS
 62
5
 10
200.3487887599
 20
116.0713569170
 11
198.0987887599
 21
116.0713569170
  0
LINE
  8
3
  6
CONTINUOUS
 62
5
 10
199.9737887599
 20
115.5088569170
 11
198.4737887599
 21
115.5088569170
  0
LINE
  8
3
  6
CONTINUOUS
 62
5
 10
199.5987887599
 20
114.9463569170
 11
198.8487887599
 21
114.9463569170
  0
LINE
  8
3
  6
CONTINUOUS
 62
5
 10
199.2237887598
 20
116.0713569170
 11
199.2237887599
 21
117.1963569170
  0
ENDBLK
  8
0
  0
BLOCK
  8
3
  2
S2
 70
     0
 10
204.5996856920
 20
-68.2146259502
  3
S2
  0
CIRCLE
  8
3
  6
CONTINUOUS
 62
5
 10
204.5996856920
 20
-68.2146259502
 40
1.5000000000
  0
LINE
  8
3
  6
CONTINUOUS
 62
5
 10
205.7246856921
 20
-68.2146259502
 11
203.4746856921
 21
-68.2146259502
  0
LINE
  8
3
  6
CONTINUOUS
 62
5
 10
205.3496856921
 20
-68.7771259502
 11
203.8496856921
 21
-68.7771259502
  0
LINE
  8
3
  6
CONTINUOUS
 62
5
 10
204.9746856921
 20
-69.3396259502
 11
204.2246856921
 21
-69.3396259502
  0
LINE
  8
3
  6
CONTINUOUS
 62
5
 10
204.5996856920
 20
-68.2146259502
 11
204.5996856921
 21
-67.0896259502
  0
ENDBLK
  8
0
  0
BLOCK
  8
1
  2
BALN0
 70
     0
 10
65.1092980532
 20
67.0636039311
  3
BALN0
  0
SOLID
  8
1
  6
CONTINUOUS
 62
5
 10
67.0995994495
 20
66.8668798809
 11
66.7345875985
 21
65.8980852079
 12
65.1092980532
 22
67.0636039311
 13
65.1092980532
 23
67.0636039311
  0
LINE
  8
1
  6
BYBLOCK
 62
5
 10
65.1092980532
 20
67.0636039311
 11
88.4832927053
 21
58.2570061116
  0
CIRCLE
  8
1
  6
BYBLOCK
 62
5
 10
91.2906440902
 20
57.1992829901
 40
3.0000000000
  0
TEXT
  8
1
  6
CONTINUOUS
 62
7
 10
90.415644
 20
55.449283
 40
3.500000
  1
3
 41
1.000000
 50
0.000000
 51
0.000000
 72
   5
 73
   0
 11
92.165644
 21
55.449283
  0
ENDBLK
  8
0
  0
BLOCK
  8
1
  2
*D6
 70
     1
 10
0.0000000000
 20
0.0000000000
  3
*D6
  0
LINE
  8
1
  6
BYBLOCK
 62
5
 10
142.4822443727
 20
88.0542751045
 11
141.4983420815
 21
85.7560287554
  0
LINE
  8
1
  6
BYBLOCK
 62
5
 10
144.4500489552
 20
92.6507678028
 11
145.4339512464
 21
94.9490141519
  0
SOLID
  8
1
  6
CONTINUOUS
 62
5
 10
142.1978070062
 20
86.0746045803
 11
141.2460791254
 21
86.4820488227
 12
142.4822443727
 22
88.0542751045
 13
142.4822443727
 23
88.0542751045
  0
SOLID
  8
1
  6
CONTINUOUS
 62
5
 10
144.7344863217
 20
94.6304383270
 11
145.6862142025
 21
94.2229940847
 12
144.4500489552
 22
92.6507678028
 13
144.4500489552
 23
92.6507678028
  0
TEXT
  8
1
  6
CONTINUOUS
 62
7
 10
145.999175
 20
98.810194
 40
3.500000
  1
2-M5
 41
0.796813
 50
66.823748
 51
0.000000
 72
   5
 73
   0
 11
148.754102
 21
105.245284
  0
POINT
  8
DEFPOINTS
  6
BYBLOCK
 62
5
 10
142.4822443727
 20
88.0542751045
  0
POINT
  8
DEFPOINTS
  6
BYBLOCK
 62
5
 10
144.4500489552
 20
92.6507678028
  0
LINE
  8
1
  6
BYBLOCK
 62
5
 10
142.4822443727
 20
88.0542751045
 11
149.6734002150
 21
104.8517231924
  0
ENDBLK
  8
0
  0
BLOCK
  8
5
  2
S3
 70
     0
 10
-1.2509564999
 20
-313.9655230621
  3
S3
  0
POINT
  8
5
  6
CONTINUOUS
 62
6
 10
-7.7509564999
 20
-320.4655230621
  0
LINE
  8
5
  6
CONTINUOUS
 62
6
 10
3.2490435001
 20
-309.4655230621
 11
401.2490435001
 21
-309.4655230621
  0
LINE
  8
5
  6
CONTINUOUS
 62
6
 10
3.2490435001
 20
-309.4655230621
 11
3.2490435001
 21
-34.4655230621
  0
LINE
  8
5
  6
CONTINUOUS
 62
6
 10
43.2490435001
 20
-29.9655230621
 11
43.2490435001
 21
-34.4655230621
  0
LINE
  8
5
  6
CONTINUOUS
 62
6
 10
43.2490435001
 20
-309.4655230621
 11
43.2490435001
 21
-313.9655230621
  0
LINE
  8
5
  6
CONTINUOUS
 62
6
 10
83.2490435001
 20
-29.9655230621
 11
83.2490435001
 21
-34.4655230621
  0
LINE
  8
5
  6
CONTINUOUS
 62
6
 10
123.2490435001
 20
-29.9655230621
 11
123.2490435001
 21
-34.4655230621
  0
LINE
  8
5
  6
CONTINUOUS
 62
6
 10
163.2490435001
 20
-29.9655230621
 11
163.2490435001
 21
-34.4655230621
  0
LINE
  8
5
  6
CONTINUOUS
 62
6
 10
203.2490435001
 20
-29.9655230621
 11
203.2490435001
 21
-34.4655230621
  0
LINE
  8
5
  6
CONTINUOUS
 62
6
 10
243.2490435001
 20
-29.9655230621
 11
243.2490435001
 21
-34.4655230621
  0
LINE
  8
5
  6
CONTINUOUS
 62
6
 10
83.2490435001
 20
-309.4655230621
 11
83.2490435001
 21
-313.9655230621
  0
LINE
  8
5
  6
CONTINUOUS
 62
6
 10
123.2490435001
 20
-309.4655230621
 11
123.2490435001
 21
-313.9655230621
  0
LINE
  8
5
  6
CONTINUOUS
 62
6
 10
163.2490435001
 20
-309.4655230621
 11
163.2490435001
 21
-313.9655230621
  0
LINE
  8
5
  6
CONTINUOUS
 62
6
 10
203.2490435001
 20
-309.4655230621
 11
203.2490435001
 21
-313.9655230621
  0
LINE
  8
5
  6
CONTINUOUS
 62
6
 10
243.2490435001
 20
-309.4655230621
 11
243.2490435001
 21
-313.9655230621
  0
LINE
  8
5
  6
CONTINUOUS
 62
6
 10
-1.2509564999
 20
-74.4655230621
 11
3.2490435001
 21
-74.4655230621
  0
LINE
  8
5
  6
CONTINUOUS
 62
6
 10
401.2490435001
 20
-74.4655230621
 11
405.7490435001
 21
-74.4655230621
  0
LINE
  8
5
  6
CONTINUOUS
 62
6
 10
-1.2509564999
 20
-114.4655230621
 11
3.2490435001
 21
-114.4655230621
  0
LINE
  8
5
  6
CONTINUOUS
 62
6
 10
-1.2509564999
 20
-154.4655230621
 11
3.2490435001
 21
-154.4655230621
  0
LINE
  8
5
  6
CONTINUOUS
 62
6
 10
-1.2509564999
 20
-194.4655230621
 11
3.2490435001
 21
-194.4655230621
  0
LINE
  8
5
  6
CONTINUOUS
 62
6
 10
401.2490435001
 20
-114.4655230621
 11
405.7490435001
 21
-114.4655230621
  0
LINE
  8
5
  6
CONTINUOUS
 62
6
 10
401.2490435001
 20
-154.4655230621
 11
405.7490435001
 21
-154.4655230621
  0
LINE
  8
5
  6
CONTINUOUS
 62
6
 10
401.2490435001
 20
-194.4655230621
 11
405.7490435001
 21
-194.4655230621
  0
TEXT
  8
5
  6
CONTINUOUS
 62
6
 10
22.249044
 20
-34.465523
 40
4.000000
  1
1
 41
1.000000
 50
0.000000
 51
0.000000
 72
   5
 73
   0
 11
24.249044
 21
-34.465523
  0
TEXT
  8
5
  6
CONTINUOUS
 62
6
 10
22.249044
 20
-313.465523
 40
4.000000
  1
1
 41
1.000000
 50
0.000000
 51
0.000000
 72
   5
 73
   0
 11
24.249044
 21
-313.465523
  0
TEXT
  8
5
  6
CONTINUOUS
 62
6
 10
62.249044
 20
-34.465523
 40
4.000000
  1
2
 41
1.000000
 50
0.000000
 51
0.000000
 72
   5
 73
   0
 11
64.249044
 21
-34.465523
  0
TEXT
  8
5
  6
CONTINUOUS
 62
6
 10
102.249044
 20
-34.465523
 40
4.000000
  1
3
 41
1.000000
 50
0.000000
 51
0.000000
 72
   5
 73
   0
 11
104.249044
 21
-34.465523
  0
TEXT
  8
5
  6
CONTINUOUS
 62
6
 10
142.249044
 20
-34.465523
 40
4.000000
  1
4
 41
1.000000
 50
0.000000
 51
0.000000
 72
   5
 73
   0
 11
144.249044
 21
-34.465523
  0
TEXT
  8
5
  6
CONTINUOUS
 62
6
 10
182.249044
 20
-34.465523
 40
4.000000
  1
5
 41
1.000000
 50
0.000000
 51
0.000000
 72
   5
 73
   0
 11
184.249044
 21
-34.465523
  0
TEXT
  8
5
  6
CONTINUOUS
 62
6
 10
222.249044
 20
-34.465523
 40
4.000000
  1
6
 41
1.000000
 50
0.000000
 51
0.000000
 72
   5
 73
   0
 11
224.249044
 21
-34.465523
  0
TEXT
  8
5
  6
CONTINUOUS
 62
6
 10
262.249044
 20
-34.465523
 40
4.000000
  1
7
 41
1.000000
 50
0.000000
 51
0.000000
 72
   5
 73
   0
 11
264.249044
 21
-34.465523
  0
TEXT
  8
5
  6
CONTINUOUS
 62
6
 10
62.249044
 20
-313.465523
 40
4.000000
  1
2
 41
1.000000
 50
0.000000
 51
0.000000
 72
   5
 73
   0
 11
64.249044
 21
-313.465523
  0
TEXT
  8
5
  6
CONTINUOUS
 62
6
 10
102.249044
 20
-313.465523
 40
4.000000
  1
3
 41
1.000000
 50
0.000000
 51
0.000000
 72
   5
 73
   0
 11
104.249044
 21
-313.465523
  0
TEXT
  8
5
  6
CONTINUOUS
 62
6
 10
142.249044
 20
-313.465523
 40
4.000000
  1
4
 41
1.000000
 50
0.000000
 51
0.000000
 72
   5
 73
   0
 11
144.249044
 21
-313.465523
  0
TEXT
  8
5
  6
CONTINUOUS
 62
6
 10
182.249044
 20
-313.465523
 40
4.000000
  1
5
 41
1.000000
 50
0.000000
 51
0.000000
 72
   5
 73
   0
 11
184.249044
 21
-313.465523
  0
TEXT
  8
5
  6
CONTINUOUS
 62
6
 10
222.249044
 20
-313.465523
 40
4.000000
  1
6
 41
1.000000
 50
0.000000
 51
0.000000
 72
   5
 73
   0
 11
224.249044
 21
-313.465523
  0
TEXT
  8
5
  6
CONTINUOUS
 62
6
 10
262.249044
 20
-313.465523
 40
4.000000
  1
7
 41
1.000000
 50
0.000000
 51
0.000000
 72
   5
 73
   0
 11
264.249044
 21
-313.465523
  0
TEXT
  8
5
  6
CONTINUOUS
 62
6
 10
0.375816
 20
-56.511380
 40
4.000000
  1
A
 41
1.266000
 50
0.000000
 51
0.000000
 72
   5
 73
   0
 11
2.907816
 21
-56.511380
  0
TEXT
  8
5
  6
CONTINUOUS
 62
6
 10
401.535557
 20
-56.473169
 40
4.000000
  1
A
 41
1.266000
 50
0.000000
 51
0.000000
 72
   5
 73
   0
 11
404.067557
 21
-56.473169
  0
TEXT
  8
5
  6
CONTINUOUS
 62
6
 10
0.359816
 20
-96.511380
 40
4.000000
  1
B
 41
1.274000
 50
0.000000
 51
0.000000
 72
   5
 73
   0
 11
2.907816
 21
-96.511380
  0
TEXT
  8
5
  6
CONTINUOUS
 62
6
 10
0.251816
 20
-136.511380
 40
4.000000
  1
C
 41
1.328000
 50
0.000000
 51
0.000000
 72
   5
 73
   0
 11
2.907816
 21
-136.511380
  0
TEXT
  8
5
  6
CONTINUOUS
 62
6
 10
0.315816
 20
-176.511380
 40
4.000000
  1
D
 41
1.296000
 50
0.000000
 51
0.000000
 72
   5
 73
   0
 11
2.907816
 21
-176.511380
  0
TEXT
  8
5
  6
CONTINUOUS
 62
6
 10
0.643816
 20
-216.511380
 40
4.000000
  1
E
 41
1.132000
 50
0.000000
 51
0.000000
 72
   5
 73
   0
 11
2.907816
 21
-216.511380
  0
TEXT
  8
5
  6
CONTINUOUS
 62
6
 10
401.535557
 20
-96.473169
 40
4.000000
  1
B
 41
1.274000
 50
0.000000
 51
0.000000
 72
   5
 73
   0
 11
404.083557
 21
-96.473169
  0
TEXT
  8
5
  6
CONTINUOUS
 62
6
 10
401.535557
 20
-136.473169
 40
4.000000
  1
C
 41
1.328000
 50
0.000000
 51
0.000000
 72
   5
 73
   0
 11
404.191557
 21
-136.473169
  0
TEXT
  8
5
  6
CONTINUOUS
 62
6
 10
401.535557
 20
-176.473169
 40
4.000000
  1
D
 41
1.296000
 50
0.000000
 51
0.000000
 72
   5
 73
   0
 11
404.127557
 21
-176.473169
  0
TEXT
  8
5
  6
CONTINUOUS
 62
6
 10
401.535557
 20
-216.473169
 40
4.000000
  1
E
 41
1.132000
 50
0.000000
 51
0.000000
 72
   5
 73
   0
 11
403.799557
 21
-216.473169
  0
LINE
  8
5
  6
CONTINUOUS
 62
6
 10
346.2490435001
 20
-284.4655230621
 11
346.2490435001
 21
-309.4655230621
  0
LINE
  8
5
  6
CONTINUOUS
 62
6
 10
346.2490435001
 20
-299.4655230621
 11
401.2490435001
 21
-299.4655230621
  0
LINE
  8
5
  6
CONTINUOUS
 62
6
 10
346.2490435001
 20
-306.4655230621
 11
280.2490435001
 21
-306.4655230621
  0
LINE
  8
5
  6
CONTINUOUS
 62
6
 10
302.2490435001
 20
-309.4655230621
 11
302.2490435001
 21
-292.9655230621
  0
LINE
  8
5
  6
CONTINUOUS
 62
6
 10
335.2490435001
 20
-296.9655230621
 11
335.2490435001
 21
-309.4655230621
  0
LINE
  8
5
  6
CONTINUOUS
 62
6
 10
324.2490435001
 20
-309.4655230621
 11
324.2490434999
 21
-292.9655230621
  0
LINE
  8
5
  6
CONTINUOUS
 62
6
 10
313.2490435001
 20
-296.9655230621
 11
313.2490435001
 21
-309.4655230621
  0
TEXT
  8
5
  6
CONTINUOUS
 62
6
 10
293.272794
 20
-309.215523
 40
2.500000
  1
Design
 41
0.722338
 50
0.000000
 51
0.000000
 72
   5
 73
   0
 11
300.225294
 21
-309.215523
  0
TEXT
  8
5
  6
CONTINUOUS
 62
6
 10
305.087794
 20
-309.215523
 40
2.500000
  1
Draft
 41
0.669497
 50
0.000000
 51
0.000000
 72
   5
 73
   0
 11
310.410294
 21
-309.215523
  0
TEXT
  8
5
  6
CONTINUOUS
 62
6
 10
315.467794
 20
-309.215523
 40
2.500000
  1
Check
 41
0.825472
 50
0.000000
 51
0.000000
 72
   5
 73
   0
 11
322.030294
 21
-309.215523
  0
LINE
  8
5
  6
CONTINUOUS
 62
6
 10
280.2490435001
 20
-284.4655230621
 11
401.2490435001
 21
-284.4655230621
  0
LINE
  8
5
  6
CONTINUOUS
 62
6
 10
280.2490435001
 20
-296.9655230621
 11
346.2490435001
 21
-296.9655230621
  0
LINE
  8
5
  6
CONTINUOUS
 62
6
 10
391.2490435001
 20
-299.4655230621
 11
391.2490435001
 21
-309.4655230621
  0
TEXT
  8
5
  6
CONTINUOUS
 62
6
 10
394.269044
 20
-308.965523
 40
2.000000
  1
SIZE
 41
0.788845
 50
0.000000
 51
0.000000
 72
   5
 73
   0
 11
398.229044
 21
-308.965523
  0
LINE
  8
5
  6
CONTINUOUS
 62
6
 10
391.2490435001
 20
-306.4655230621
 11
401.2490435001
 21
-306.4655230621
  0
TEXT
  8
5
  6
CONTINUOUS
 62
6
 10
392.754044
 20
-305.465523
 40
5.000000
  1
Ａ３
 41
0.644240
 50
0.000000
 51
0.000000
 72
   5
 73
   0
 11
399.744044
 21
-305.465523
  0
TEXT
  8
5
  6
CONTINUOUS
 62
6
 10
337.887794
 20
-309.215523
 40
2.500000
  1
Scale
 41
0.719811
 50
0.000000
 51
0.000000
 72
   5
 73
   0
 11
343.610294
 21
-309.215523
  0
TEXT
  8
5
  6
CONTINUOUS
 62
6
 10
336.999044
 20
-304.215523
 40
5.000000
  1
1/1
 41
0.815217
 50
0.000000
 51
0.000000
 72
   5
 73
   0
 11
344.499044
 21
-304.215523
  0
TEXT
  8
5
  6
CONTINUOUS
 62
6
 10
325.661544
 20
-309.215523
 40
2.500000
  1
Confirm
 41
0.723451
 50
0.000000
 51
0.000000
 72
   5
 73
   0
 11
333.836544
 21
-309.215523
  0
TEXT
  8
5
  6
CONTINUOUS
 62
6
 10
283.277794
 20
-309.215523
 40
2.500000
  1
Date
 41
0.787649
 50
0.000000
 51
0.000000
 72
   5
 73
   0
 11
288.220294
 21
-309.215523
  0
TEXT
  8
5
  6
CONTINUOUS
 62
6
 10
281.999044
 20
-301.503023
 40
3.000000
  1
2009/
 41
0.786164
 50
0.000000
 51
0.000000
 72
   5
 73
   0
 11
289.499044
 21
-301.503023
  0
TEXT
  8
5
  6
CONTINUOUS
 62
6
 10
281.999044
 20
-304.928023
 40
3.000000
  1
10/19
 41
0.786164
 50
0.000000
 51
0.000000
 72
   5
 73
   0
 11
289.499044
 21
-304.928023
  0
LINE
  8
5
  6
CONTINUOUS
 62
6
 10
291.2490435001
 20
-296.9655230621
 11
291.2490435001
 21
-309.4655230621
  0
LINE
  8
5
  6
CONTINUOUS
 62
6
 10
280.2490435001
 20
-309.4655230621
 11
280.2490435001
 21
-284.4655230621
  0
TEXT
  8
5
  6
CONTINUOUS
 62
6
 10
280.504337
 20
-295.752333
 40
2.000000
  1
Material
 41
0.638921
 50
0.000000
 51
0.000000
 72
   5
 73
   0
 11
287.136337
 21
-295.752333
  0
LINE
  8
5
  6
CONTINUOUS
 62
6
 10
287.2490435001
 20
-292.9655230621
 11
287.2490435001
 21
-296.9655230621
  0
TEXT
  8
5
  6
CONTINUOUS
 62
6
 10
302.354044
 20
-295.965523
 40
2.000000
  1
Process
 41
0.751106
 50
0.000000
 51
0.000000
 72
   5
 73
   0
 11
309.144044
 21
-295.965523
  0
LINE
  8
5
  6
CONTINUOUS
 62
6
 10
309.2490435001
 20
-292.9655230621
 11
309.2490435001
 21
-296.9655230621
  0
TEXT
  8
5
  6
CONTINUOUS
 62
6
 10
324.522043
 20
-295.965523
 40
2.000000
  1
Amount
 41
0.838182
 50
0.000000
 51
0.000000
 72
   5
 73
   0
 11
330.976043
 21
-295.965523
  0
LINE
  8
5
  6
CONTINUOUS
 62
6
 10
331.2490435000
 20
-292.9655230621
 11
331.2490435000
 21
-296.9655230621
  0
LINE
  8
5
  6
CONTINUOUS
 62
6
 10
346.2490435001
 20
-292.9655230621
 11
280.2490435001
 21
-292.9655230621
  0
POINT
  8
5
  6
CONTINUOUS
 62
6
 10
288.2490435001
 20
-294.9655230621
  0
POINT
  8
5
  6
CONTINUOUS
 62
6
 10
310.2490435001
 20
-294.9655230621
  0
POINT
  8
5
  6
CONTINUOUS
 62
6
 10
338.7490435000
 20
-294.9655230621
  0
POINT
  8
5
  6
CONTINUOUS
 62
6
 10
296.7490435001
 20
-301.7155230621
  0
POINT
  8
5
  6
CONTINUOUS
 62
6
 10
307.7490435001
 20
-301.7155230621
  0
POINT
  8
5
  6
CONTINUOUS
 62
6
 10
318.7490435001
 20
-301.7155230621
  0
POINT
  8
5
  6
CONTINUOUS
 62
6
 10
329.7490435001
 20
-301.7155230621
  0
POINT
  8
5
  6
CONTINUOUS
 62
6
 10
-1.2509564999
 20
-313.9655230621
  0
TEXT
  8
5
  6
CONTINUOUS
 62
7
 10
299.848849
 20
-293.185440
 40
4.000000
  1
MADOKA SYSTEM co,.ltd
 41
0.778201
 50
0.000000
 51
0.000000
 72
   5
 73
   0
 11
343.116849
 21
-293.185440
  0
LINE
  8
5
  6
CONTINUOUS
 62
6
 10
283.2490435001
 20
-29.9655230621
 11
283.2490435001
 21
-34.4655230621
  0
LINE
  8
5
  6
CONTINUOUS
 62
6
 10
283.2490435001
 20
-309.4655230621
 11
283.2490435001
 21
-313.9655230621
  0
TEXT
  8
5
  6
CONTINUOUS
 62
6
 10
302.249044
 20
-34.465523
 40
4.000000
  1
8
 41
1.000000
 50
0.000000
 51
0.000000
 72
   5
 73
   0
 11
304.249044
 21
-34.465523
  0
TEXT
  8
5
  6
CONTINUOUS
 62
6
 10
302.249044
 20
-313.465523
 40
4.000000
  1
8
 41
1.000000
 50
0.000000
 51
0.000000
 72
   5
 73
   0
 11
304.249044
 21
-313.465523
  0
LINE
  8
5
  6
CONTINUOUS
 62
6
 10
323.2490435001
 20
-29.9655230621
 11
323.2490435001
 21
-34.4655230621
  0
LINE
  8
5
  6
CONTINUOUS
 62
6
 10
323.2490435001
 20
-309.4655230621
 11
323.2490435001
 21
-313.9655230621
  0
TEXT
  8
5
  6
CONTINUOUS
 62
6
 10
342.249044
 20
-34.465523
 40
4.000000
  1
9
 41
1.000000
 50
0.000000
 51
0.000000
 72
   5
 73
   0
 11
344.249044
 21
-34.465523
  0
TEXT
  8
5
  6
CONTINUOUS
 62
6
 10
342.249044
 20
-313.465523
 40
4.000000
  1
9
 41
1.000000
 50
0.000000
 51
0.000000
 72
   5
 73
   0
 11
344.249044
 21
-313.465523
  0
LINE
  8
5
  6
CONTINUOUS
 62
6
 10
363.2490435001
 20
-29.9655230621
 11
363.2490435001
 21
-34.4655230621
  0
LINE
  8
5
  6
CONTINUOUS
 62
6
 10
363.2490435001
 20
-309.4655230621
 11
363.2490435001
 21
-313.9655230621
  0
TEXT
  8
5
  6
CONTINUOUS
 62
6
 10
381.249044
 20
-34.465523
 40
4.000000
  1
10
 41
0.854701
 50
0.000000
 51
0.000000
 72
   5
 73
   0
 11
385.249044
 21
-34.465523
  0
TEXT
  8
5
  6
CONTINUOUS
 62
6
 10
381.249044
 20
-313.465523
 40
4.000000
  1
10
 41
0.854701
 50
0.000000
 51
0.000000
 72
   5
 73
   0
 11
385.249044
 21
-313.465523
  0
LINE
  8
5
  6
CONTINUOUS
 62
6
 10
-1.2509564999
 20
-234.4655230621
 11
3.2490435001
 21
-234.4655230621
  0
LINE
  8
5
  6
CONTINUOUS
 62
6
 10
401.2490435001
 20
-234.4655230621
 11
405.7490435001
 21
-234.4655230621
  0
LINE
  8
5
  6
CONTINUOUS
 62
6
 10
-1.2509564999
 20
-274.4655230621
 11
3.2490435001
 21
-274.4655230621
  0
LINE
  8
5
  6
CONTINUOUS
 62
6
 10
401.2490435001
 20
-274.4655230621
 11
405.7490435001
 21
-274.4655230621
  0
TEXT
  8
5
  6
CONTINUOUS
 62
6
 10
0.703816
 20
-256.511380
 40
4.000000
  1
F
 41
1.102000
 50
0.000000
 51
0.000000
 72
   5
 73
   0
 11
2.907816
 21
-256.511380
  0
TEXT
  8
5
  6
CONTINUOUS
 62
6
 10
401.535557
 20
-256.473169
 40
4.000000
  1
F
 41
1.102000
 50
0.000000
 51
0.000000
 72
   5
 73
   0
 11
403.739557
 21
-256.473169
  0
TEXT
  8
5
  6
CONTINUOUS
 62
6
 10
0.187816
 20
-296.511380
 40
4.000000
  1
G
 41
1.360000
 50
0.000000
 51
0.000000
 72
   5
 73
   0
 11
2.907816
 21
-296.511380
  0
TEXT
  8
5
  6
CONTINUOUS
 62
6
 10
401.535557
 20
-296.473169
 40
4.000000
  1
G
 41
1.360000
 50
0.000000
 51
0.000000
 72
   5
 73
   0
 11
404.255557
 21
-296.473169
  0
LINE
  8
5
  6
CONTINUOUS
 62
6
 10
3.2490435001
 20
-34.4655230621
 11
401.2490435001
 21
-34.4655230621
  0
LINE
  8
5
  6
CONTINUOUS
 62
6
 10
401.2490435001
 20
-34.4655230621
 11
401.2490435001
 21
-309.4655230621
  0
POINT
  8
5
  6
CONTINUOUS
 62
6
 10
352.2490435001
 20
-293.4655230621
  0
POINT
  8
5
  6
CONTINUOUS
 62
6
 10
352.2490435001
 20
-305.9655230621
  0
LINE
  8
5
  6
CONTINUOUS
 62
6
 10
346.2490435001
 20
-287.4655230621
 11
401.2490435001
 21
-287.4655230621
  0
LINE
  8
5
  6
CONTINUOUS
 62
6
 10
346.2490435001
 20
-302.4655230621
 11
391.2490435001
 21
-302.4655230621
  0
TEXT
  8
5
  6
CONTINUOUS
 62
7
 10
361.677544
 20
-287.715523
 40
3.500000
  1
Document Name
 41
0.807728
 50
0.000000
 51
0.000000
 72
   5
 73
   0
 11
385.820544
 21
-287.715523
  0
TEXT
  8
5
  6
CONTINUOUS
 62
7
 10
358.427544
 20
-302.715523
 40
3.500000
  1
Document No.
 41
0.749428
 50
0.000000
 51
0.000000
 72
   5
 73
   0
 11
379.070544
 21
-302.715523
  0
ENDBLK
  8
0
  0
BLOCK
  8
1
  2
LTEX0
 70
     0
 10
143.4661466639
 20
87.8525214537
  3
LTEX0
  0
SOLID
  8
1
  6
CONTINUOUS
 62
5
 10
143.3932367761
 20
85.8538508584
 11
142.4036695513
 21
86.1580768883
 12
143.4661466639
 22
87.8525214537
 13
143.4661466639
 23
87.8525214537
  0
TEXT
  8
1
  6
CONTINUOUS
 62
7
 10
135.592421
 20
63.241364
 40
5.000000
  1
 ⑥⑦
 41
0.880282
 50
0.000000
 51
0.000000
 72
   5
 73
   0
 11
148.092421
 21
63.241364
  0
LINE
  8
1
  6
BYBLOCK
 62
5
 10
143.4661466639
 20
87.8525214537
 11
135.5924212135
 21
62.2413643591
  0
LINE
  8
1
  6
BYBLOCK
 62
5
 10
135.5924212135
 20
62.2413643591
 11
148.0924212135
 21
62.2413643591
  0
ENDBLK
  8
0
  0
BLOCK
  8
3
  2
S4
 70
     0
 10
174.6310958456
 20
-63.8224587849
  3
S4
  0
CIRCLE
  8
3
  6
CONTINUOUS
 62
5
 10
174.6310958456
 20
-63.8224587849
 40
1.5000000000
  0
LINE
  8
3
  6
CONTINUOUS
 62
5
 10
175.7560958457
 20
-63.8224587849
 11
173.5060958457
 21
-63.8224587849
  0
LINE
  8
3
  6
CONTINUOUS
 62
5
 10
175.3810958457
 20
-64.3849587849
 11
173.8810958457
 21
-64.3849587849
  0
LINE
  8
3
  6
CONTINUOUS
 62
5
 10
175.0060958457
 20
-64.9474587849
 11
174.2560958457
 21
-64.9474587849
  0
LINE
  8
3
  6
CONTINUOUS
 62
5
 10
174.6310958456
 20
-63.8224587849
 11
174.6310958457
 21
-62.6974587849
  0
ENDBLK
  8
0
  0
BLOCK
  8
1
  2
BALN1
 70
     0
 10
162.3511050565
 20
-54.4770497385
  3
BALN1
  0
SOLID
  8
1
  6
CONTINUOUS
 62
5
 10
161.3188283599
 20
-52.7640392827
 11
162.3136324414
 21
-52.4774008186
 12
162.3511050565
 22
-54.4770497385
 13
162.3511050565
 23
-54.4770497385
  0
LINE
  8
1
  6
BYBLOCK
 62
5
 10
162.3511050565
 20
-54.4770497385
 11
159.4681521313
 21
-44.4715072337
  0
CIRCLE
  8
1
  6
BYBLOCK
 62
5
 10
158.6375376453
 20
-41.5887863704
 40
3.0000000000
  0
TEXT
  8
1
  6
CONTINUOUS
 62
7
 10
156.887538
 20
-43.338786
 40
3.500000
  1
91
 41
0.854701
 50
0.000000
 51
0.000000
 72
   5
 73
   0
 11
160.387538
 21
-43.338786
  0
ENDBLK
  8
0
  0
BLOCK
  8
1
  2
BALN2
 70
     0
 10
184.3874683405
 20
-54.4119746645
  3
BALN2
  0
SOLID
  8
1
  6
CONTINUOUS
 62
5
 10
183.2766123562
 20
-52.7488453905
 11
184.2570034752
 21
-52.4162344713
 12
184.3874683405
 22
-54.4119746645
 13
184.3874683405
 23
-54.4119746645
  0
LINE
  8
1
  6
BYBLOCK
 62
5
 10
184.3874683405
 20
-54.4119746645
 11
181.0008610716
 21
-44.4297416754
  0
CIRCLE
  8
1
  6
BYBLOCK
 62
5
 10
180.0370286408
 20
-41.5887863704
 40
3.0000000000
  0
TEXT
  8
1
  6
CONTINUOUS
 62
7
 10
178.287029
 20
-43.338786
 40
3.500000
  1
92
 41
0.854701
 50
0.000000
 51
0.000000
 72
   5
 73
   0
 11
181.787029
 21
-43.338786
  0
ENDBLK
  8
0
  0
BLOCK
  8
1
  2
BALN3
 70
     0
 10
230.3874683405
 20
-54.4119746645
  3
BALN3
  0
SOLID
  8
1
  6
CONTINUOUS
 62
5
 10
229.2766123562
 20
-52.7488453905
 11
230.2570034752
 21
-52.4162344713
 12
230.3874683405
 22
-54.4119746645
 13
230.3874683405
 23
-54.4119746645
  0
LINE
  8
1
  6
BYBLOCK
 62
5
 10
230.3874683405
 20
-54.4119746645
 11
227.0008610716
 21
-44.4297416754
  0
CIRCLE
  8
1
  6
BYBLOCK
 62
5
 10
226.0370286408
 20
-41.5887863704
 40
3.0000000000
  0
TEXT
  8
1
  6
CONTINUOUS
 62
7
 10
224.287029
 20
-43.338786
 40
3.500000
  1
94
 41
0.854701
 50
0.000000
 51
0.000000
 72
   5
 73
   0
 11
227.787029
 21
-43.338786
  0
ENDBLK
  8
0
  0
BLOCK
  8
1
  2
BALN4
 70
     0
 10
208.3511050565
 20
-54.4770497385
  3
BALN4
  0
SOLID
  8
1
  6
CONTINUOUS
 62
5
 10
207.3188283599
 20
-52.7640392827
 11
208.3136324414
 21
-52.4774008186
 12
208.3511050565
 22
-54.4770497385
 13
208.3511050565
 23
-54.4770497385
  0
LINE
  8
1
  6
BYBLOCK
 62
5
 10
208.3511050565
 20
-54.4770497385
 11
205.4681521313
 21
-44.4715072337
  0
CIRCLE
  8
1
  6
BYBLOCK
 62
5
 10
204.6375376453
 20
-41.5887863704
 40
3.0000000000
  0
TEXT
  8
1
  6
CONTINUOUS
 62
7
 10
202.887538
 20
-43.338786
 40
3.500000
  1
93
 41
0.854701
 50
0.000000
 51
0.000000
 72
   5
 73
   0
 11
206.387538
 21
-43.338786
  0
ENDBLK
  8
0
  0
BLOCK
  8
1
  2
BALN5
 70
     0
 10
276.3874683405
 20
-54.4119746645
  3
BALN5
  0
SOLID
  8
1
  6
CONTINUOUS
 62
5
 10
275.2766123562
 20
-52.7488453905
 11
276.2570034752
 21
-52.4162344713
 12
276.3874683405
 22
-54.4119746645
 13
276.3874683405
 23
-54.4119746645
  0
LINE
  8
1
  6
BYBLOCK
 62
5
 10
276.3874683405
 20
-54.4119746645
 11
273.0008610716
 21
-44.4297416754
  0
CIRCLE
  8
1
  6
BYBLOCK
 62
5
 10
272.0370286408
 20
-41.5887863704
 40
3.0000000000
  0
TEXT
  8
1
  6
CONTINUOUS
 62
7
 10
270.287029
 20
-43.338786
 40
3.500000
  1
96
 41
0.854701
 50
0.000000
 51
0.000000
 72
   5
 73
   0
 11
273.787029
 21
-43.338786
  0
ENDBLK
  8
0
  0
BLOCK
  8
1
  2
BALN6
 70
     0
 10
254.3511050565
 20
-54.4770497385
  3
BALN6
  0
SOLID
  8
1
  6
CONTINUOUS
 62
5
 10
253.3188283599
 20
-52.7640392827
 11
254.3136324414
 21
-52.4774008186
 12
254.3511050565
 22
-54.4770497385
 13
254.3511050565
 23
-54.4770497385
  0
LINE
  8
1
  6
BYBLOCK
 62
5
 10
254.3511050565
 20
-54.4770497385
 11
251.4681521313
 21
-44.4715072337
  0
CIRCLE
  8
1
  6
BYBLOCK
 62
5
 10
250.6375376453
 20
-41.5887863704
 40
3.0000000000
  0
TEXT
  8
1
  6
CONTINUOUS
 62
7
 10
248.887538
 20
-43.338786
 40
3.500000
  1
95
 41
0.854701
 50
0.000000
 51
0.000000
 72
   5
 73
   0
 11
252.387538
 21
-43.338786
  0
ENDBLK
  8
0
  0
BLOCK
  8
4
  2
*D7
 70
     1
 10
0.0000000000
 20
0.0000000000
  3
*D7
  0
LINE
  8
4
  6
BYBLOCK
 62
5
 10
323.7097392007
 20
173.1540475624
 11
323.7097392007
 21
184.8474963863
  0
LINE
  8
4
  6
BYBLOCK
 62
5
 10
330.2097392007
 20
176.1540475624
 11
330.2097392007
 21
184.8474963863
  0
LINE
  8
4
  6
BYBLOCK
 62
5
 10
330.2097392007
 20
183.8474963863
 11
323.7097392007
 21
183.8474963863
  0
SOLID
  8
4
  6
CONTINUOUS
 62
5
 10
325.6415908533
 20
184.3651344765
 11
325.6415908533
 21
183.3298582961
 12
323.7097392007
 22
183.8474963863
 13
323.7097392007
 23
183.8474963863
  0
SOLID
  8
4
  6
CONTINUOUS
 62
5
 10
328.2778875481
 20
183.3298582961
 11
328.2778875481
 21
184.3651344765
 12
330.2097392007
 22
183.8474963863
 13
330.2097392007
 23
183.8474963863
  0
TEXT
  8
4
  6
CONTINUOUS
 62
7
 10
324.334739
 20
184.847496
 40
3.500000
  1
6.5
 41
0.815217
 50
0.000000
 51
0.000000
 72
   5
 73
   0
 11
329.584739
 21
184.847496
  0
POINT
  8
DEFPOINTS
  6
BYBLOCK
 62
5
 10
323.7097392007
 20
172.6540475624
  0
POINT
  8
DEFPOINTS
  6
BYBLOCK
 62
5
 10
330.2097392007
 20
175.6540475624
  0
POINT
  8
DEFPOINTS
  6
BYBLOCK
 62
5
 10
330.2097392007
 20
183.8474963863
  0
ENDBLK
  8
0
  0
BLOCK
  8
4
  2
*D8
 70
     1
 10
0.0000000000
 20
0.0000000000
  3
*D8
  0
LINE
  8
4
  6
BYBLOCK
 62
5
 10
350.2097392007
 20
175.4040475624
 11
350.2097392007
 21
184.8474963863
  0
LINE
  8
4
  6
BYBLOCK
 62
5
 10
350.2097392007
 20
183.8474963863
 11
330.2097392007
 21
183.8474963863
  0
SOLID
  8
4
  6
CONTINUOUS
 62
5
 10
332.1415908533
 20
184.3651344765
 11
332.1415908533
 21
183.3298582961
 12
330.2097392007
 22
183.8474963863
 13
330.2097392007
 23
183.8474963863
  0
SOLID
  8
4
  6
CONTINUOUS
 62
5
 10
348.2778875481
 20
183.3298582961
 11
348.2778875481
 21
184.3651344765
 12
350.2097392007
 22
183.8474963863
 13
350.2097392007
 23
183.8474963863
  0
TEXT
  8
4
  6
CONTINUOUS
 62
7
 10
338.459739
 20
184.847496
 40
3.500000
  1
20
 41
0.854701
 50
0.000000
 51
0.000000
 72
   5
 73
   0
 11
341.959739
 21
184.847496
  0
POINT
  8
DEFPOINTS
  6
BYBLOCK
 62
5
 10
330.2097392007
 20
175.6540475624
  0
POINT
  8
DEFPOINTS
  6
BYBLOCK
 62
5
 10
350.2097392007
 20
174.9040475624
  0
POINT
  8
DEFPOINTS
  6
BYBLOCK
 62
5
 10
350.2097392007
 20
183.8474963863
  0
ENDBLK
  8
0
  0
BLOCK
  8
4
  2
*D9
 70
     1
 10
0.0000000000
 20
0.0000000000
  3
*D9
  0
LINE
  8
4
  6
BYBLOCK
 62
5
 10
370.2097392007
 20
176.1540475624
 11
370.2097392007
 21
184.8474963863
  0
LINE
  8
4
  6
BYBLOCK
 62
5
 10
370.2097392007
 20
183.8474963863
 11
350.2097392007
 21
183.8474963863
  0
SOLID
  8
4
  6
CONTINUOUS
 62
5
 10
352.1415908533
 20
184.3651344765
 11
352.1415908533
 21
183.3298582961
 12
350.2097392007
 22
183.8474963863
 13
350.2097392007
 23
183.8474963863
  0
SOLID
  8
4
  6
CONTINUOUS
 62
5
 10
368.2778875481
 20
183.3298582961
 11
368.2778875481
 21
184.3651344765
 12
370.2097392007
 22
183.8474963863
 13
370.2097392007
 23
183.8474963863
  0
TEXT
  8
4
  6
CONTINUOUS
 62
7
 10
358.459739
 20
184.847496
 40
3.500000
  1
20
 41
0.854701
 50
0.000000
 51
0.000000
 72
   5
 73
   0
 11
361.959739
 21
184.847496
  0
POINT
  8
DEFPOINTS
  6
BYBLOCK
 62
5
 10
350.2097392007
 20
174.9040475624
  0
POINT
  8
DEFPOINTS
  6
BYBLOCK
 62
5
 10
370.2097392007
 20
175.6540475624
  0
POINT
  8
DEFPOINTS
  6
BYBLOCK
 62
5
 10
370.2097392007
 20
183.8474963863
  0
ENDBLK
  8
0
  0
BLOCK
  8
4
  2
*D10
 70
     1
 10
0.0000000000
 20
0.0000000000
  3
*D10
  0
LINE
  8
4
  6
BYBLOCK
 62
5
 10
376.7097392007
 20
173.1540475624
 11
376.7097392007
 21
184.8474963863
  0
LINE
  8
4
  6
BYBLOCK
 62
5
 10
376.7097392007
 20
183.8474963863
 11
370.2097392007
 21
183.8474963863
  0
SOLID
  8
4
  6
CONTINUOUS
 62
5
 10
372.1415908533
 20
184.3651344765
 11
372.1415908533
 21
183.3298582961
 12
370.2097392007
 22
183.8474963863
 13
370.2097392007
 23
183.8474963863
  0
SOLID
  8
4
  6
CONTINUOUS
 62
5
 10
374.7778875481
 20
183.3298582961
 11
374.7778875481
 21
184.3651344765
 12
376.7097392007
 22
183.8474963863
 13
376.7097392007
 23
183.8474963863
  0
TEXT
  8
4
  6
CONTINUOUS
 62
7
 10
370.834739
 20
184.847496
 40
3.500000
  1
6.5
 41
0.815217
 50
0.000000
 51
0.000000
 72
   5
 73
   0
 11
376.084739
 21
184.847496
  0
POINT
  8
DEFPOINTS
  6
BYBLOCK
 62
5
 10
370.2097392007
 20
175.6540475624
  0
POINT
  8
DEFPOINTS
  6
BYBLOCK
 62
5
 10
376.7097392007
 20
172.6540475624
  0
POINT
  8
DEFPOINTS
  6
BYBLOCK
 62
5
 10
376.7097392007
 20
183.8474963863
  0
ENDBLK
  8
0
  0
BLOCK
  8
4
  2
*D11
 70
     1
 10
0.0000000000
 20
0.0000000000
  3
*D11
  0
LINE
  8
4
  6
BYBLOCK
 62
5
 10
323.7097392007
 20
184.8474963863
 11
323.7097392007
 21
191.8474963863
  0
LINE
  8
4
  6
BYBLOCK
 62
5
 10
376.7097392007
 20
173.1540475624
 11
376.7097392007
 21
191.8474963863
  0
LINE
  8
4
  6
BYBLOCK
 62
5
 10
376.7097392007
 20
190.8474963863
 11
323.7097392007
 21
190.8474963863
  0
SOLID
  8
4
  6
CONTINUOUS
 62
5
 10
325.6415908533
 20
191.3651344765
 11
325.6415908533
 21
190.3298582961
 12
323.7097392007
 22
190.8474963863
 13
323.7097392007
 23
190.8474963863
  0
SOLID
  8
4
  6
CONTINUOUS
 62
5
 10
374.7778875481
 20
190.3298582961
 11
374.7778875481
 21
191.3651344765
 12
376.7097392007
 22
190.8474963863
 13
376.7097392007
 23
190.8474963863
  0
TEXT
  8
4
  6
CONTINUOUS
 62
7
 10
348.459739
 20
191.847496
 40
3.500000
  1
53
 41
0.854701
 50
0.000000
 51
0.000000
 72
   5
 73
   0
 11
351.959739
 21
191.847496
  0
POINT
  8
DEFPOINTS
  6
BYBLOCK
 62
5
 10
323.7097392007
 20
172.6540475624
  0
POINT
  8
DEFPOINTS
  6
BYBLOCK
 62
5
 10
376.7097392007
 20
172.6540475624
  0
POINT
  8
DEFPOINTS
  6
BYBLOCK
 62
5
 10
376.7097392007
 20
190.8474963863
  0
ENDBLK
  8
0
  0
BLOCK
  8
4
  2
*D12
 70
     1
 10
0.0000000000
 20
0.0000000000
  3
*D12
  0
LINE
  8
4
  6
BYBLOCK
 62
5
 10
329.3588695761
 20
178.3893697398
 11
327.9407535351
 21
180.4482400354
  0
LINE
  8
4
  6
BYBLOCK
 62
5
 10
331.0606088253
 20
175.9187253850
 11
332.4787248663
 21
173.8598550893
  0
SOLID
  8
4
  6
CONTINUOUS
 62
5
 10
327.8367337741
 20
179.6867141813
 11
328.6893335243
 21
180.2739708847
 12
329.3588695761
 22
178.3893697398
 13
329.3588695761
 23
178.3893697398
  0
SOLID
  8
4
  6
CONTINUOUS
 62
5
 10
332.5827446274
 20
174.6213809434
 11
331.7301448771
 21
174.0341242401
 12
331.0606088253
 22
175.9187253850
 13
331.0606088253
 23
175.9187253850
  0
TEXT
  8
4
  6
CONTINUOUS
 62
7
 10
337.089904
 20
168.928087
 40
3.500000
  1
4-M3
 41
0.796813
 50
304.558432
 51
0.000000
 72
   5
 73
   0
 11
341.060629
 21
163.163250
  0
POINT
  8
DEFPOINTS
  6
BYBLOCK
 62
5
 10
329.3588695761
 20
178.3893697398
  0
POINT
  8
DEFPOINTS
  6
BYBLOCK
 62
5
 10
331.0606088253
 20
175.9187253850
  0
LINE
  8
4
  6
BYBLOCK
 62
5
 10
329.3588695761
 20
178.3893697398
 11
340.2370804662
 21
162.5960040178
  0
ENDBLK
  8
0
  0
BLOCK
  8
4
  2
*D13
 70
     1
 10
0.0000000000
 20
0.0000000000
  3
*D13
  0
LINE
  8
4
  6
BYBLOCK
 62
5
 10
348.8085413633
 20
178.9144863203
 11
347.2516548772
 21
180.8705293846
  0
LINE
  8
4
  6
BYBLOCK
 62
5
 10
351.6109370382
 20
175.3936088045
 11
353.1678235242
 21
173.4375657401
  0
SOLID
  8
4
  6
CONTINUOUS
 62
5
 10
347.2004629124
 20
180.1036388319
 11
348.0104808294
 21
180.7483618297
 12
348.8085413633
 22
178.9144863203
 13
348.8085413633
 23
178.9144863203
  0
SOLID
  8
4
  6
CONTINUOUS
 62
5
 10
353.2190154890
 20
174.2044562928
 11
352.4089975721
 21
173.5597332950
 12
351.6109370382
 22
175.3936088045
 13
351.6109370382
 23
175.3936088045
  0
TEXT
  8
4
  6
CONTINUOUS
 62
7
 10
358.235387
 20
168.676543
 40
3.500000
  1
2-φ4.5
 41
0.804598
 50
308.517570
 51
0.000000
 72
   5
 73
   0
 11
365.864131
 21
159.091932
  0
POINT
  8
DEFPOINTS
  6
BYBLOCK
 62
5
 10
348.8085413633
 20
178.9144863203
  0
POINT
  8
DEFPOINTS
  6
BYBLOCK
 62
5
 10
351.6109370382
 20
175.3936088045
  0
LINE
  8
4
  6
BYBLOCK
 62
5
 10
348.8085413633
 20
178.9144863203
 11
365.0817132872
 21
158.4691774542
  0
ENDBLK
  8
0
  0
BLOCK
  8
1
  2
*D14
 70
     1
 10
0.0000000000
 20
0.0000000000
  3
*D14
  0
LINE
  8
1
  6
BYBLOCK
 62
5
 10
371.2097392007
 20
60.1540475624
 11
310.5138729176
 21
60.1540475624
  0
LINE
  8
1
  6
BYBLOCK
 62
5
 10
323.2097392007
 20
64.6540475624
 11
310.5138729176
 21
64.6540475624
  0
LINE
  8
1
  6
BYBLOCK
 62
5
 10
311.5138729176
 20
67.1540475624
 11
311.5138729176
 21
57.6540475624
  0
SOLID
  8
1
  6
CONTINUOUS
 62
5
 10
312.0315110078
 20
58.2221959098
 11
310.9962348274
 21
58.2221959098
 12
311.5138729176
 22
60.1540475624
 13
311.5138729176
 23
60.1540475624
  0
SOLID
  8
1
  6
CONTINUOUS
 62
5
 10
310.9962348274
 20
66.5858992150
 11
312.0315110078
 21
66.5858992150
 12
311.5138729176
 22
64.6540475624
 13
311.5138729176
 23
64.6540475624
  0
TEXT
  8
1
  6
CONTINUOUS
 62
7
 10
310.513873
 20
60.154048
 40
3.000000
  1
4.5
 41
0.815217
 50
90.000000
 51
0.000000
 72
   5
 73
   0
 11
310.513873
 21
64.654048
  0
POINT
  8
DEFPOINTS
  6
BYBLOCK
 62
5
 10
371.7097392007
 20
60.1540475624
  0
POINT
  8
DEFPOINTS
  6
BYBLOCK
 62
5
 10
323.7097392007
 20
64.6540475624
  0
POINT
  8
DEFPOINTS
  6
BYBLOCK
 62
5
 10
311.5138729176
 20
64.6540475624
  0
ENDBLK
  8
0
  0
BLOCK
  8
1
  2
*D15
 70
     1
 10
0.0000000000
 20
0.0000000000
  3
*D15
  0
LINE
  8
1
  6
BYBLOCK
 62
5
 10
323.2097392007
 20
172.6540475624
 11
310.5138729176
 21
172.6540475624
  0
LINE
  8
1
  6
BYBLOCK
 62
5
 10
311.5138729176
 20
172.6540475624
 11
311.5138729176
 21
64.6540475624
  0
SOLID
  8
1
  6
CONTINUOUS
 62
5
 10
310.9962348274
 20
66.5858992150
 11
312.0315110078
 21
66.5858992150
 12
311.5138729176
 22
64.6540475624
 13
311.5138729176
 23
64.6540475624
  0
SOLID
  8
1
  6
CONTINUOUS
 62
5
 10
312.0315110078
 20
170.7221959098
 11
310.9962348274
 21
170.7221959098
 12
311.5138729176
 22
172.6540475624
 13
311.5138729176
 23
172.6540475624
  0
TEXT
  8
1
  6
CONTINUOUS
 62
7
 10
310.513873
 20
116.029048
 40
3.500000
  1
108
 41
0.815217
 50
90.000000
 51
0.000000
 72
   5
 73
   0
 11
310.513873
 21
121.279048
  0
POINT
  8
DEFPOINTS
  6
BYBLOCK
 62
5
 10
323.7097392007
 20
64.6540475624
  0
POINT
  8
DEFPOINTS
  6
BYBLOCK
 62
5
 10
323.7097392007
 20
172.6540475624
  0
POINT
  8
DEFPOINTS
  6
BYBLOCK
 62
5
 10
311.5138729176
 20
172.6540475624
  0
ENDBLK
  8
0
  0
BLOCK
  8
1
  2
*D16
 70
     1
 10
0.0000000000
 20
0.0000000000
  3
*D16
  0
LINE
  8
1
  6
BYBLOCK
 62
5
 10
371.2097392007
 20
177.1540475624
 11
310.5138729176
 21
177.1540475624
  0
LINE
  8
1
  6
BYBLOCK
 62
5
 10
311.5138729176
 20
179.6540475624
 11
311.5138729176
 21
170.1540475624
  0
SOLID
  8
1
  6
CONTINUOUS
 62
5
 10
312.0315110078
 20
170.7221959098
 11
310.9962348274
 21
170.7221959098
 12
311.5138729176
 22
172.6540475624
 13
311.5138729176
 23
172.6540475624
  0
SOLID
  8
1
  6
CONTINUOUS
 62
5
 10
310.9962348274
 20
179.0858992150
 11
312.0315110078
 21
179.0858992150
 12
311.5138729176
 22
177.1540475624
 13
311.5138729176
 23
177.1540475624
  0
TEXT
  8
1
  6
CONTINUOUS
 62
7
 10
309.513873
 20
172.654048
 40
3.000000
  1
4.5
 41
0.815217
 50
90.000000
 51
0.000000
 72
   5
 73
   0
 11
309.513873
 21
177.154048
  0
POINT
  8
DEFPOINTS
  6
BYBLOCK
 62
5
 10
323.7097392007
 20
172.6540475624
  0
POINT
  8
DEFPOINTS
  6
BYBLOCK
 62
5
 10
371.7097392007
 20
177.1540475624
  0
POINT
  8
DEFPOINTS
  6
BYBLOCK
 62
5
 10
311.5138729176
 20
177.1540475624
  0
ENDBLK
  8
0
  0
BLOCK
  8
1
  2
*D17
 70
     1
 10
0.0000000000
 20
0.0000000000
  3
*D17
  0
LINE
  8
1
  6
BYBLOCK
 62
5
 10
310.5138729176
 20
60.1540475624
 11
303.5138729176
 21
60.1540475624
  0
LINE
  8
1
  6
BYBLOCK
 62
5
 10
371.2097392007
 20
177.1540475624
 11
303.5138729176
 21
177.1540475624
  0
LINE
  8
1
  6
BYBLOCK
 62
5
 10
304.5138729176
 20
177.1540475624
 11
304.5138729176
 21
60.1540475624
  0
SOLID
  8
1
  6
CONTINUOUS
 62
5
 10
303.9962348274
 20
62.0858992150
 11
305.0315110078
 21
62.0858992150
 12
304.5138729176
 22
60.1540475624
 13
304.5138729176
 23
60.1540475624
  0
SOLID
  8
1
  6
CONTINUOUS
 62
5
 10
305.0315110078
 20
175.2221959098
 11
303.9962348274
 21
175.2221959098
 12
304.5138729176
 22
177.1540475624
 13
304.5138729176
 23
177.1540475624
  0
TEXT
  8
1
  6
CONTINUOUS
 62
7
 10
303.513873
 20
116.029048
 40
3.500000
  1
117
 41
0.815217
 50
90.000000
 51
0.000000
 72
   5
 73
   0
 11
303.513873
 21
121.279048
  0
POINT
  8
DEFPOINTS
  6
BYBLOCK
 62
5
 10
371.7097392007
 20
60.1540475624
  0
POINT
  8
DEFPOINTS
  6
BYBLOCK
 62
5
 10
371.7097392007
 20
177.1540475624
  0
POINT
  8
DEFPOINTS
  6
BYBLOCK
 62
5
 10
304.5138729176
 20
177.1540475624
  0
ENDBLK
  8
0
  0
BLOCK
  8
1
  2
*D18
 70
     1
 10
0.0000000000
 20
0.0000000000
  3
*D18
  0
LINE
  8
1
  6
BYBLOCK
 62
5
 10
385.2097392007
 20
44.4040475624
 11
393.3529732637
 21
44.4040475624
  0
LINE
  8
1
  6
BYBLOCK
 62
5
 10
377.2097392007
 20
64.6540475624
 11
393.3529732637
 21
64.6540475624
  0
LINE
  8
1
  6
BYBLOCK
 62
5
 10
392.3529732637
 20
64.6540475624
 11
392.3529732637
 21
44.4040475624
  0
SOLID
  8
1
  6
CONTINUOUS
 62
5
 10
391.8353351735
 20
46.3358992150
 11
392.8706113539
 21
46.3358992150
 12
392.3529732637
 22
44.4040475624
 13
392.3529732637
 23
44.4040475624
  0
SOLID
  8
1
  6
CONTINUOUS
 62
5
 10
392.8706113539
 20
62.7221959098
 11
391.8353351735
 21
62.7221959098
 12
392.3529732637
 22
64.6540475624
 13
392.3529732637
 23
64.6540475624
  0
TEXT
  8
1
  6
CONTINUOUS
 62
7
 10
391.352973
 20
50.154048
 40
3.500000
  1
20.25
 41
0.786164
 50
90.000000
 51
0.000000
 72
   5
 73
   0
 11
391.352973
 21
58.904048
  0
POINT
  8
DEFPOINTS
  6
BYBLOCK
 62
5
 10
384.7097392007
 20
44.4040475624
  0
POINT
  8
DEFPOINTS
  6
BYBLOCK
 62
5
 10
376.7097392007
 20
64.6540475624
  0
POINT
  8
DEFPOINTS
  6
BYBLOCK
 62
5
 10
392.3529732637
 20
64.6540475624
  0
ENDBLK
  8
0
  0
BLOCK
  8
1
  2
*D19
 70
     1
 10
0.0000000000
 20
0.0000000000
  3
*D19
  0
LINE
  8
1
  6
BYBLOCK
 62
5
 10
377.2097392007
 20
172.6540475624
 11
393.3529732637
 21
172.6540475624
  0
LINE
  8
1
  6
BYBLOCK
 62
5
 10
392.3529732637
 20
172.6540475624
 11
392.3529732637
 21
64.6540475624
  0
SOLID
  8
1
  6
CONTINUOUS
 62
5
 10
391.8353351735
 20
66.5858992150
 11
392.8706113539
 21
66.5858992150
 12
392.3529732637
 22
64.6540475624
 13
392.3529732637
 23
64.6540475624
  0
SOLID
  8
1
  6
CONTINUOUS
 62
5
 10
392.8706113539
 20
170.7221959098
 11
391.8353351735
 21
170.7221959098
 12
392.3529732637
 22
172.6540475624
 13
392.3529732637
 23
172.6540475624
  0
TEXT
  8
1
  6
CONTINUOUS
 62
7
 10
391.352973
 20
116.029048
 40
3.500000
  1
108
 41
0.815217
 50
90.000000
 51
0.000000
 72
   5
 73
   0
 11
391.352973
 21
121.279048
  0
POINT
  8
DEFPOINTS
  6
BYBLOCK
 62
5
 10
376.7097392007
 20
64.6540475624
  0
POINT
  8
DEFPOINTS
  6
BYBLOCK
 62
5
 10
376.7097392007
 20
172.6540475624
  0
POINT
  8
DEFPOINTS
  6
BYBLOCK
 62
5
 10
392.3529732637
 20
172.6540475624
  0
ENDBLK
  8
0
  0
BLOCK
  8
1
  2
*D20
 70
     1
 10
0.0000000000
 20
0.0000000000
  3
*D20
  0
LINE
  8
1
  6
BYBLOCK
 62
5
 10
385.2097392007
 20
199.9040475624
 11
393.3529732637
 21
199.9040475624
  0
LINE
  8
1
  6
BYBLOCK
 62
5
 10
392.3529732637
 20
199.9040475624
 11
392.3529732637
 21
172.6540475624
  0
SOLID
  8
1
  6
CONTINUOUS
 62
5
 10
391.8353351735
 20
174.5858992150
 11
392.8706113539
 21
174.5858992150
 12
392.3529732637
 22
172.6540475624
 13
392.3529732637
 23
172.6540475624
  0
SOLID
  8
1
  6
CONTINUOUS
 62
5
 10
392.8706113539
 20
197.9721959098
 11
391.8353351735
 21
197.9721959098
 12
392.3529732637
 22
199.9040475624
 13
392.3529732637
 23
199.9040475624
  0
TEXT
  8
1
  6
CONTINUOUS
 62
7
 10
391.352973
 20
181.904048
 40
3.500000
  1
27.25
 41
0.786164
 50
90.000000
 51
0.000000
 72
   5
 73
   0
 11
391.352973
 21
190.654048
  0
POINT
  8
DEFPOINTS
  6
BYBLOCK
 62
5
 10
376.7097392007
 20
172.6540475624
  0
POINT
  8
DEFPOINTS
  6
BYBLOCK
 62
5
 10
384.7097392007
 20
199.9040475624
  0
POINT
  8
DEFPOINTS
  6
BYBLOCK
 62
5
 10
392.3529732637
 20
199.9040475624
  0
ENDBLK
  8
0
  0
BLOCK
  8
1
  2
LTEX1
 70
     0
 10
328.5640805301
 20
44.4040475624
  3
LTEX1
  0
SOLID
  8
1
  6
CONTINUOUS
 62
5
 10
329.3863241380
 20
46.2272084026
 11
330.1877448027
 21
45.5718293613
 12
328.5640805301
 22
44.4040475624
 13
328.5640805301
 23
44.4040475624
  0
TEXT
  8
1
  6
CONTINUOUS
 62
7
 10
333.059582
 20
50.901306
 40
2.500000
  1
製品外形
 41
0.886918
 50
0.000000
 51
0.000000
 72
   5
 73
   0
 11
343.059582
 21
50.901306
  0
LINE
  8
1
  6
BYBLOCK
 62
5
 10
328.5640805301
 20
44.4040475624
 11
333.0595822602
 21
49.9013060307
  0
LINE
  8
1
  6
BYBLOCK
 62
5
 10
333.0595822602
 20
49.9013060307
 11
343.0595822602
 21
49.9013060307
  0
ENDBLK
  8
0
  0
BLOCK
  8
1
  2
BALN7
 70
     0
 10
112.1348058892
 20
202.0171741535
  3
BALN7
  0
SOLID
  8
1
  6
CONTINUOUS
 62
5
 10
111.3129917312
 20
203.8405286143
 11
112.3347711816
 21
204.0071525156
 12
112.1348058892
 22
202.0171741535
 13
112.1348058892
 23
202.0171741535
  0
LINE
  8
1
  6
BYBLOCK
 62
5
 10
112.1348058892
 20
202.0171741535
 11
108.4452807995
 21
224.6422650826
  0
CIRCLE
  8
1
  6
BYBLOCK
 62
5
 10
107.9624418108
 20
227.6031545623
 40
3.0000000000
  0
TEXT
  8
1
  6
CONTINUOUS
 62
7
 10
107.087442
 20
225.853155
 40
3.500000
  1
2
 41
1.000000
 50
0.000000
 51
0.000000
 72
   5
 73
   0
 11
108.837442
 21
225.853155
  0
ENDBLK
  8
0
  0
BLOCK
  8
1
  2
BALN8
 70
     0
 10
131.0889601190
 20
214.9344220794
  3
BALN8
  0
SOLID
  8
1
  6
CONTINUOUS
 62
5
 10
130.5959974970
 20
216.8727171687
 11
131.6311895099
 21
216.8595161778
 12
131.0889601190
 22
214.9344220794
 13
131.0889601190
 23
214.9344220794
  0
LINE
  8
1
  6
BYBLOCK
 62
5
 10
131.0889601190
 20
214.9344220794
 11
131.2122609828
 21
224.6033984610
  0
CIRCLE
  8
1
  6
BYBLOCK
 62
5
 10
131.2505145169
 20
227.6031545623
 40
3.0000000000
  0
TEXT
  8
1
  6
CONTINUOUS
 62
7
 10
130.375515
 20
225.853155
 40
3.500000
  1
1
 41
1.000000
 50
0.000000
 51
0.000000
 72
   5
 73
   0
 11
132.125515
 21
225.853155
  0
ENDBLK
  8
0
  0
BLOCK
  8
1
  2
BALN9
 70
     0
 10
173.9105182328
 20
197.3525214537
  3
BALN9
  0
SOLID
  8
1
  6
CONTINUOUS
 62
5
 10
173.0942453186
 20
199.1783633224
 11
174.1165260871
 21
199.3418833524
 12
173.9105182328
 22
197.3525214537
 13
173.9105182328
 23
197.3525214537
  0
LINE
  8
1
  6
BYBLOCK
 62
5
 10
173.9105182328
 20
197.3525214537
 11
169.5455900381
 21
224.6408123744
  0
CIRCLE
  8
1
  6
BYBLOCK
 62
5
 10
169.0717453780
 20
227.6031545623
 40
3.0000000000
  0
TEXT
  8
1
  6
CONTINUOUS
 62
7
 10
168.196745
 20
225.853155
 40
3.500000
  1
4
 41
1.000000
 50
0.000000
 51
0.000000
 72
   5
 73
   0
 11
169.946745
 21
225.853155
  0
ENDBLK
  8
0
  0
BLOCK
  8
1
  2
BALN10
 70
     0
 10
193.9105182328
 20
201.2525214536
  3
BALN10
  0
SOLID
  8
1
  6
CONTINUOUS
 62
5
 10
192.9155480690
 20
202.9874665171
 11
193.9163213267
 21
203.2525130346
 12
193.9105182328
 22
201.2525214536
 13
193.9105182328
 23
201.2525214536
  0
LINE
  8
1
  6
BYBLOCK
 62
5
 10
193.9105182328
 20
201.2525214536
 11
187.6998168917
 21
224.7031363548
  0
CIRCLE
  8
1
  6
BYBLOCK
 62
5
 10
186.9317710623
 20
227.6031545623
 40
3.0000000000
  0
TEXT
  8
1
  6
CONTINUOUS
 62
7
 10
186.056771
 20
225.853155
 40
3.500000
  1
5
 41
1.000000
 50
0.000000
 51
0.000000
 72
   5
 73
   0
 11
187.806771
 21
225.853155
  0
ENDBLK
  8
0
  0
BLOCK
  8
1
  2
BALN11
 70
     0
 10
208.7458902071
 20
187.3847268719
  3
BALN11
  0
SOLID
  8
1
  6
CONTINUOUS
 62
5
 10
207.9620613753
 20
189.2247302312
 11
208.9870762062
 21
189.3701309400
 12
208.7458902071
 22
187.3847268719
 13
208.7458902071
 23
187.3847268719
  0
LINE
  8
1
  6
BYBLOCK
 62
5
 10
208.7458902071
 20
187.3847268719
 11
203.4621527357
 21
224.6328896698
  0
CIRCLE
  8
1
  6
BYBLOCK
 62
5
 10
203.0408138365
 20
227.6031545623
 40
3.0000000000
  0
TEXT
  8
1
  6
CONTINUOUS
 62
7
 10
202.165814
 20
225.853155
 40
3.500000
  1
8
 41
1.000000
 50
0.000000
 51
0.000000
 72
   5
 73
   0
 11
203.915814
 21
225.853155
  0
ENDBLK
  8
0
  0
BLOCK
  8
3
  2
S5
 70
     0
 10
67.5852531539
 20
-235.3312885801
  3
S5
  0
CIRCLE
  8
3
  6
CONTINUOUS
 62
5
 10
67.5852531539
 20
-235.3312885801
 40
1.5000000000
  0
LINE
  8
3
  6
CONTINUOUS
 62
5
 10
68.7102531540
 20
-235.3312885801
 11
66.4602531540
 21
-235.3312885801
  0
LINE
  8
3
  6
CONTINUOUS
 62
5
 10
68.3352531540
 20
-235.8937885801
 11
66.8352531540
 21
-235.8937885801
  0
LINE
  8
3
  6
CONTINUOUS
 62
5
 10
67.9602531540
 20
-236.4562885801
 11
67.2102531540
 21
-236.4562885801
  0
LINE
  8
3
  6
CONTINUOUS
 62
5
 10
67.5852531539
 20
-235.3312885801
 11
67.5852531540
 21
-234.2062885801
  0
ENDBLK
  8
0
  0
BLOCK
  8
1
  2
BALN12
 70
     0
 10
148.7927919984
 20
-145.3406564734
  3
BALN12
  0
SOLID
  8
1
  6
CONTINUOUS
 62
5
 10
150.3942252676
 20
-144.1425698805
 11
150.7787171884
 21
-145.1037996826
 12
148.7927919984
 22
-145.3406564734
 13
148.7927919984
 23
-145.3406564734
  0
LINE
  8
1
  6
BYBLOCK
 62
5
 10
148.7927919984
 20
-145.3406564734
 11
158.5073619257
 21
-141.4548285025
  0
CIRCLE
  8
1
  6
BYBLOCK
 62
5
 10
161.2927919984
 20
-140.3406564734
 40
3.0000000000
  0
TEXT
  8
1
  6
CONTINUOUS
 62
7
 10
158.667792
 20
-142.090656
 40
3.500000
  1
101
 41
0.815217
 50
0.000000
 51
0.000000
 72
   5
 73
   0
 11
163.917792
 21
-142.090656
  0
ENDBLK
  8
0
  0
BLOCK
  8
1
  2
BALN13
 70
     0
 10
173.7927919984
 20
-145.3406564734
  3
BALN13
  0
SOLID
  8
1
  6
CONTINUOUS
 62
5
 10
171.8068668083
 20
-145.1037996826
 11
172.1913587291
 21
-144.1425698805
 12
173.7927919984
 22
-145.3406564734
 13
173.7927919984
 23
-145.3406564734
  0
LINE
  8
1
  6
BYBLOCK
 62
5
 10
173.7927919984
 20
-145.3406564734
 11
164.0782220710
 21
-141.4548285025
  0
CIRCLE
  8
1
  6
BYBLOCK
 62
5
 10
161.2927919984
 20
-140.3406564734
 40
3.0000000000
  0
TEXT
  8
1
  6
CONTINUOUS
 62
7
 10
160.417792
 20
-142.090656
 40
3.500000
  1
 
 41
1.000000
 50
0.000000
 51
0.000000
 72
   5
 73
   0
 11
162.167792
 21
-142.090656
  0
ENDBLK
  8
0
  0
BLOCK
  8
1
  2
BALN14
 70
     0
 10
228.7427919984
 20
-145.3406564734
  3
BALN14
  0
SOLID
  8
1
  6
CONTINUOUS
 62
5
 10
229.5483217219
 20
-143.5100495073
 11
230.3557046855
 21
-144.1580691981
 12
228.7427919984
 22
-145.3406564734
 13
228.7427919984
 23
-145.3406564734
  0
LINE
  8
1
  6
BYBLOCK
 62
5
 10
228.7427919984
 20
-145.3406564734
 11
230.8780626017
 21
-142.6802726422
  0
CIRCLE
  8
1
  6
BYBLOCK
 62
5
 10
232.7558794678
 20
-140.3406564734
 40
3.0000000000
  0
TEXT
  8
1
  6
CONTINUOUS
 62
7
 10
230.130879
 20
-142.090656
 40
3.500000
  1
104
 41
0.815217
 50
0.000000
 51
0.000000
 72
   5
 73
   0
 11
235.380879
 21
-142.090656
  0
ENDBLK
  8
0
  0
BLOCK
  8
1
  2
BALN15
 70
     0
 10
203.7427919984
 20
-145.3406564734
  3
BALN15
  0
SOLID
  8
1
  6
CONTINUOUS
 62
5
 10
202.1298793112
 20
-144.1580691981
 11
202.9372622748
 21
-143.5100495073
 12
203.7427919984
 22
-145.3406564734
 13
203.7427919984
 23
-145.3406564734
  0
LINE
  8
1
  6
BYBLOCK
 62
5
 10
203.7427919984
 20
-145.3406564734
 11
201.6075213950
 21
-142.6802726422
  0
CIRCLE
  8
1
  6
BYBLOCK
 62
5
 10
199.7297045289
 20
-140.3406564734
 40
3.0000000000
  0
TEXT
  8
1
  6
CONTINUOUS
 62
7
 10
197.104705
 20
-142.090656
 40
3.500000
  1
102
 41
0.815217
 50
0.000000
 51
0.000000
 72
   5
 73
   0
 11
202.354705
 21
-142.090656
  0
ENDBLK
  8
0
  0
BLOCK
  8
1
  2
BALN16
 70
     0
 10
203.7427919984
 20
-149.9406564734
  3
BALN16
  0
SOLID
  8
1
  6
CONTINUOUS
 62
5
 10
204.4126535328
 20
-148.0561709933
 11
205.2651518442
 21
-148.6435749418
 12
203.7427919984
 22
-149.9406564734
 13
203.7427919984
 23
-149.9406564734
  0
LINE
  8
1
  6
BYBLOCK
 62
5
 10
203.7427919984
 20
-149.9406564734
 11
208.6553933087
 21
-142.8110068811
  0
CIRCLE
  8
1
  6
BYBLOCK
 62
5
 10
210.3575592416
 20
-140.3406564734
 40
3.0000000000
  0
TEXT
  8
1
  6
CONTINUOUS
 62
7
 10
207.732559
 20
-142.090656
 40
3.500000
  1
103
 41
0.815217
 50
0.000000
 51
0.000000
 72
   5
 73
   0
 11
212.982559
 21
-142.090656
  0
ENDBLK
  8
0
  0
BLOCK
  8
1
  2
BALN17
 70
     0
 10
258.6927919984
 20
-149.9406564734
  3
BALN17
  0
SOLID
  8
1
  6
CONTINUOUS
 62
5
 10
259.3626535328
 20
-148.0561709933
 11
260.2151518442
 21
-148.6435749418
 12
258.6927919984
 22
-149.9406564734
 13
258.6927919984
 23
-149.9406564734
  0
LINE
  8
1
  6
BYBLOCK
 62
5
 10
258.6927919984
 20
-149.9406564734
 11
263.6053933087
 21
-142.8110068811
  0
CIRCLE
  8
1
  6
BYBLOCK
 62
5
 10
265.3075592416
 20
-140.3406564734
 40
3.0000000000
  0
TEXT
  8
1
  6
CONTINUOUS
 62
7
 10
262.682559
 20
-142.090656
 40
3.500000
  1
106
 41
0.815217
 50
0.000000
 51
0.000000
 72
   5
 73
   0
 11
267.932559
 21
-142.090656
  0
ENDBLK
  8
0
  0
BLOCK
  8
1
  2
BALN18
 70
     0
 10
258.6927919984
 20
-145.3406564734
  3
BALN18
  0
SOLID
  8
1
  6
CONTINUOUS
 62
5
 10
257.0798793112
 20
-144.1580691981
 11
257.8872622748
 21
-143.5100495073
 12
258.6927919984
 22
-145.3406564734
 13
258.6927919984
 23
-145.3406564734
  0
LINE
  8
1
  6
BYBLOCK
 62
5
 10
258.6927919984
 20
-145.3406564734
 11
256.5575213950
 21
-142.6802726422
  0
CIRCLE
  8
1
  6
BYBLOCK
 62
5
 10
254.6797045289
 20
-140.3406564734
 40
3.0000000000
  0
TEXT
  8
1
  6
CONTINUOUS
 62
7
 10
252.054705
 20
-142.090656
 40
3.500000
  1
105
 41
0.815217
 50
0.000000
 51
0.000000
 72
   5
 73
   0
 11
257.304705
 21
-142.090656
  0
ENDBLK
  8
0
  0
BLOCK
  8
1
  2
BALN19
 70
     0
 10
283.6927919984
 20
-149.9406564734
  3
BALN19
  0
SOLID
  8
1
  6
CONTINUOUS
 62
5
 10
284.3626535328
 20
-148.0561709933
 11
285.2151518442
 21
-148.6435749418
 12
283.6927919984
 22
-149.9406564734
 13
283.6927919984
 23
-149.9406564734
  0
LINE
  8
1
  6
BYBLOCK
 62
5
 10
283.6927919984
 20
-149.9406564734
 11
288.6053933087
 21
-142.8110068811
  0
CIRCLE
  8
1
  6
BYBLOCK
 62
5
 10
290.3075592416
 20
-140.3406564734
 40
3.0000000000
  0
TEXT
  8
1
  6
CONTINUOUS
 62
7
 10
287.682559
 20
-142.090656
 40
3.500000
  1
106
 41
0.815217
 50
0.000000
 51
0.000000
 72
   5
 73
   0
 11
292.932559
 21
-142.090656
  0
ENDBLK
  8
0
  0
BLOCK
  8
1
  2
BALN20
 70
     0
 10
283.6927919984
 20
-145.3406564734
  3
BALN20
  0
SOLID
  8
1
  6
CONTINUOUS
 62
5
 10
282.0798793112
 20
-144.1580691981
 11
282.8872622748
 21
-143.5100495073
 12
283.6927919984
 22
-145.3406564734
 13
283.6927919984
 23
-145.3406564734
  0
LINE
  8
1
  6
BYBLOCK
 62
5
 10
283.6927919984
 20
-145.3406564734
 11
281.5575213950
 21
-142.6802726422
  0
CIRCLE
  8
1
  6
BYBLOCK
 62
5
 10
279.6797045289
 20
-140.3406564734
 40
3.0000000000
  0
TEXT
  8
1
  6
CONTINUOUS
 62
7
 10
277.054705
 20
-142.090656
 40
3.500000
  1
105
 41
0.815217
 50
0.000000
 51
0.000000
 72
   5
 73
   0
 11
282.304705
 21
-142.090656
  0
ENDBLK
  8
0
  0
BLOCK
  8
1
  2
S6
 70
     0
 10
9.0000000001
 20
262.0000000000
  3
S6
  0
POINT
  8
1
  6
CONTINUOUS
 62
6
 10
9.0000000001
 20
262.0000000000
  0
ENDBLK
  8
0
  0
BLOCK
  8
1
  2
S7
 70
     0
 10
9.0000000001
 20
262.0000000000
  3
S7
  0
LINE
  8
1
  6
CONTINUOUS
 62
6
 10
11.5000000001
 20
260.0000000000
 11
6.5000000001
 21
260.0000000000
  0
TEXT
  8
1
  6
CONTINUOUS
 62
6
 10
7.948950
 20
259.621673
 40
3.300000
  1
B
 41
1.274000
 50
0.000000
 51
0.000000
 72
   5
 73
   0
 11
10.051050
 21
259.621673
  0
LINE
  8
1
  6
CONTINUOUS
 62
6
 10
9.0000000001
 20
264.0000000000
 11
6.5000000001
 21
260.0000000000
  0
LINE
  8
1
  6
CONTINUOUS
 62
6
 10
9.0000000001
 20
264.0000000000
 11
11.5000000001
 21
260.0000000000
  0
POINT
  8
1
  6
CONTINUOUS
 62
6
 10
9.0000000001
 20
262.0000000000
  0
ENDBLK
  8
0
  0
BLOCK
  8
1
  2
S8
 70
     0
 10
7.7490435002
 20
-51.9655230621
  3
S8
  0
POINT
  8
1
  6
CONTINUOUS
 62
6
 10
7.7490435002
 20
-51.9655230621
  0
ENDBLK
  8
0
  0
BLOCK
  8
1
  2
S9
 70
     0
 10
7.7490435002
 20
-51.9655230621
  3
S9
  0
LINE
  8
1
  6
CONTINUOUS
 62
6
 10
10.2490435001
 20
-53.9655230621
 11
5.2490435001
 21
-53.9655230621
  0
TEXT
  8
1
  6
CONTINUOUS
 62
6
 10
6.697994
 20
-54.343850
 40
3.300000
  1
B
 41
1.274000
 50
0.000000
 51
0.000000
 72
   5
 73
   0
 11
8.800094
 21
-54.343850
  0
LINE
  8
1
  6
CONTINUOUS
 62
6
 10
7.7490435001
 20
-49.9655230621
 11
5.2490435001
 21
-53.9655230621
  0
LINE
  8
1
  6
CONTINUOUS
 62
6
 10
7.7490435001
 20
-49.9655230621
 11
10.2490435001
 21
-53.9655230621
  0
POINT
  8
1
  6
CONTINUOUS
 62
6
 10
7.7490435002
 20
-51.9655230621
  0
ENDBLK
  8
0
  0
BLOCK
  8
1
  2
S10
 70
     0
 10
166.4235700656
 20
249.8830107178
  3
S10
  0
LINE
  8
1
  6
CONTINUOUS
 62
6
 10
168.9235700656
 20
247.8830107178
 11
163.9235700656
 21
247.8830107177
  0
TEXT
  8
1
  6
CONTINUOUS
 62
6
 10
165.372520
 20
247.504683
 40
3.300000
  1
B
 41
1.274000
 50
0.000000
 51
0.000000
 72
   5
 73
   0
 11
167.474620
 21
247.504683
  0
LINE
  8
1
  6
CONTINUOUS
 62
6
 10
166.4235700656
 20
251.8830107178
 11
163.9235700656
 21
247.8830107177
  0
LINE
  8
1
  6
CONTINUOUS
 62
6
 10
166.4235700656
 20
251.8830107178
 11
168.9235700656
 21
247.8830107178
  0
POINT
  8
1
  6
CONTINUOUS
 62
6
 10
166.4235700656
 20
249.8830107178
  0
ENDBLK
  8
0
  0
BLOCK
  8
1
  2
S11
 70
     0
 10
15.3753467910
 20
-111.1961015257
  3
S11
  0
LINE
  8
1
  6
CONTINUOUS
 62
6
 10
17.8753467910
 20
-113.1961015257
 11
12.8753467910
 21
-113.1961015258
  0
TEXT
  8
1
  6
CONTINUOUS
 62
6
 10
14.324297
 20
-113.574429
 40
3.300000
  1
B
 41
1.274000
 50
0.000000
 51
0.000000
 72
   5
 73
   0
 11
16.426397
 21
-113.574429
  0
LINE
  8
1
  6
CONTINUOUS
 62
6
 10
15.3753467910
 20
-109.1961015257
 11
12.8753467910
 21
-113.1961015258
  0
LINE
  8
1
  6
CONTINUOUS
 62
6
 10
15.3753467910
 20
-109.1961015257
 11
17.8753467910
 21
-113.1961015257
  0
POINT
  8
1
  6
CONTINUOUS
 62
6
 10
15.3753467910
 20
-111.1961015257
  0
ENDBLK
  8
0
  0
BLOCK
  8
1
  2
S12
 70
     0
 10
309.6589196101
 20
266.9570411776
  3
S12
  0
LINE
  8
1
  6
CONTINUOUS
 62
6
 10
312.1589196101
 20
264.9570411776
 11
307.1589196101
 21
264.9570411776
  0
TEXT
  8
1
  6
CONTINUOUS
 62
6
 10
308.607870
 20
264.578714
 40
3.300000
  1
B
 41
1.274000
 50
0.000000
 51
0.000000
 72
   5
 73
   0
 11
310.709970
 21
264.578714
  0
LINE
  8
1
  6
CONTINUOUS
 62
6
 10
309.6589196101
 20
268.9570411776
 11
307.1589196101
 21
264.9570411776
  0
LINE
  8
1
  6
CONTINUOUS
 62
6
 10
309.6589196101
 20
268.9570411776
 11
312.1589196101
 21
264.9570411776
  0
POINT
  8
1
  6
CONTINUOUS
 62
6
 10
309.6589196101
 20
266.9570411776
  0
ENDBLK
  8
0
  0
BLOCK
  8
3
  2
LTEX2
 70
     0
 10
134.5962334454
 20
86.7605564293
  3
LTEX2
  0
SOLID
  8
3
  6
CONTINUOUS
 62
5
 10
135.0708243304
 20
84.8176813710
 11
134.0358036791
 21
84.8406818299
 12
134.5962334454
 22
86.7605564293
 13
134.5962334454
 23
86.7605564293
  0
TEXT
  8
3
  6
CONTINUOUS
 62
7
 10
133.340636
 20
31.258654
 40
3.500000
  1
 PBT品はｱｰｽ部(2箇所) は無いです
 41
0.820106
 50
0.000000
 51
0.000000
 72
   5
 73
   0
 11
187.590636
 21
31.258654
  0
LINE
  8
3
  6
BYBLOCK
 62
5
 10
134.5962334454
 20
86.7605564293
 11
133.3406356149
 21
30.2586540591
  0
LINE
  8
3
  6
BYBLOCK
 62
5
 10
133.3406356149
 20
30.2586540591
 11
187.5906356149
 21
30.2586540591
  0
ENDBLK
  8
0
  0
BLOCK
  8
1
  2
S13
 70
     0
 10
137.2868002249
 20
38.5097255163
  3
S13
  0
LINE
  8
1
  6
CONTINUOUS
 62
6
 10
139.7868002249
 20
36.5097255163
 11
134.7868002249
 21
36.5097255163
  0
TEXT
  8
1
  6
CONTINUOUS
 62
6
 10
136.235750
 20
36.131398
 40
3.300000
  1
B
 41
1.274000
 50
0.000000
 51
0.000000
 72
   5
 73
   0
 11
138.337850
 21
36.131398
  0
LINE
  8
1
  6
CONTINUOUS
 62
6
 10
137.2868002249
 20
40.5097255163
 11
134.7868002249
 21
36.5097255163
  0
LINE
  8
1
  6
CONTINUOUS
 62
6
 10
137.2868002249
 20
40.5097255163
 11
139.7868002249
 21
36.5097255163
  0
POINT
  8
1
  6
CONTINUOUS
 62
6
 10
137.2868002249
 20
38.5097255163
  0
ENDBLK
  8
0
  0
BLOCK
  8
3
  2
LTEX3
 70
     0
 10
88.2645106558
 20
17.3439335173
  3
LTEX3
  0
SOLID
  8
3
  6
CONTINUOUS
 62
5
 10
89.9790701192
 20
18.3736353414
 11
90.2642136195
 21
17.3784017236
 12
88.2645106558
 22
17.3439335173
 13
88.2645106558
 23
17.3439335173
  0
TEXT
  8
3
  6
CONTINUOUS
 62
7
 10
133.340636
 20
31.258654
 40
3.500000
  1
 
 41
1.000000
 50
0.000000
 51
0.000000
 72
   5
 73
   0
 11
135.090636
 21
31.258654
  0
LINE
  8
3
  6
BYBLOCK
 62
5
 10
88.2645106558
 20
17.3439335173
 11
133.3406356149
 21
30.2586540591
  0
LINE
  8
3
  6
BYBLOCK
 62
5
 10
133.3406356149
 20
30.2586540591
 11
135.0906356149
 21
30.2586540591
  0
ENDBLK
  8
0
  0
BLOCK
  8
3
  2
LTEX4
 70
     0
 10
39.2645106558
 20
18.7789024664
  3
LTEX4
  0
SOLID
  8
3
  6
CONTINUOUS
 62
5
 10
41.1194376375
 20
19.5267299150
 11
41.2448382684
 21
18.4990765437
 12
39.2645106558
 22
18.7789024664
 13
39.2645106558
 23
18.7789024664
  0
TEXT
  8
3
  6
CONTINUOUS
 62
7
 10
133.340636
 20
31.258654
 40
3.500000
  1
 
 41
1.000000
 50
0.000000
 51
0.000000
 72
   5
 73
   0
 11
135.090636
 21
31.258654
  0
LINE
  8
3
  6
BYBLOCK
 62
5
 10
39.2645106558
 20
18.7789024664
 11
133.3406356149
 21
30.2586540591
  0
LINE
  8
3
  6
BYBLOCK
 62
5
 10
133.3406356149
 20
30.2586540591
 11
135.0906356149
 21
30.2586540591
  0
ENDBLK
  8
0
  0
BLOCK
  8
1
  2
LTEX5
 70
     0
 10
208.1607622865
 20
127.0062661343
  3
LTEX5
  0
SOLID
  8
1
  6
CONTINUOUS
 62
5
 10
207.1019260423
 20
128.7029882117
 11
208.0921442393
 21
129.0050886786
 12
208.1607622865
 22
127.0062661343
 13
208.1607622865
 23
127.0062661343
  0
TEXT
  8
1
  6
CONTINUOUS
 62
7
 10
177.268871
 20
139.124134
 40
5.000000
  1
⑨ ACｱｳﾄﾚｯﾄ
 41
0.782361
 50
0.000000
 51
0.000000
 72
   5
 73
   0
 11
204.768871
 21
139.124134
  0
LINE
  8
1
  6
BYBLOCK
 62
5
 10
208.1607622865
 20
127.0062661343
 11
204.7688705144
 21
138.1241336095
  0
LINE
  8
1
  6
BYBLOCK
 62
5
 10
204.7688705144
 20
138.1241336095
 11
177.2688705144
 21
138.1241336095
  0
ENDBLK
  8
0
  0
BLOCK
  8
1
  2
S14
 70
     0
 10
190.4105182328
 20
130.8525214537
  3
S14
  0
CIRCLE
  8
1
  6
HIDDEN
 62
6
 10
190.4105182328
 20
130.8525214537
 40
4.5000000000
  0
LINE
  8
1
  6
HIDDEN
 62
6
 10
193.7855182330
 20
130.8525214537
 11
187.0355182330
 21
130.8525214537
  0
LINE
  8
1
  6
HIDDEN
 62
6
 10
192.6605182330
 20
129.1650214537
 11
188.1605182330
 21
129.1650214537
  0
LINE
  8
1
  6
HIDDEN
 62
6
 10
191.5355182330
 20
127.4775214537
 11
189.2855182330
 21
127.4775214537
  0
LINE
  8
1
  6
HIDDEN
 62
6
 10
190.4105182328
 20
130.8525214537
 11
190.4105182330
 21
134.2275214537
  0
ENDBLK
  8
0
  0
BLOCK
  8
1
  2
S15
 70
     0
 10
145.4123684031
 20
132.5342321022
  3
S15
  0
LINE
  8
1
  6
CONTINUOUS
 62
6
 10
147.9123684031
 20
130.5342321022
 11
142.9123684031
 21
130.5342321022
  0
TEXT
  8
1
  6
CONTINUOUS
 62
6
 10
144.361318
 20
130.155905
 40
3.300000
  1
B
 41
1.274000
 50
0.000000
 51
0.000000
 72
   5
 73
   0
 11
146.463418
 21
130.155905
  0
LINE
  8
1
  6
CONTINUOUS
 62
6
 10
145.4123684031
 20
134.5342321022
 11
142.9123684031
 21
130.5342321022
  0
LINE
  8
1
  6
CONTINUOUS
 62
6
 10
145.4123684031
 20
134.5342321022
 11
147.9123684031
 21
130.5342321022
  0
POINT
  8
1
  6
CONTINUOUS
 62
6
 10
145.4123684031
 20
132.5342321022
  0
ENDBLK
  8
0
  0
BLOCK
  8
1
  2
LTEX6
 70
     0
 10
170.6605182328
 20
130.8525214537
  3
LTEX6
  0
SOLID
  8
1
  6
CONTINUOUS
 62
5
 10
169.0671664016
 20
129.6437080098
 11
168.6762283479
 21
130.6023342184
 12
170.6605182328
 22
130.8525214537
 13
170.6605182328
 23
130.8525214537
  0
TEXT
  8
1
  6
CONTINUOUS
 62
7
 10
142.878466
 20
126.232053
 40
3.500000
  1
M4ｱｰｽﾎﾞｽ
 41
0.770713
 50
0.000000
 51
0.000000
 72
   5
 73
   0
 11
156.878466
 21
126.232053
  0
LINE
  8
1
  6
BYBLOCK
 62
5
 10
170.6605182328
 20
130.8525214537
 11
156.8784659416
 21
125.2320526510
  0
LINE
  8
1
  6
BYBLOCK
 62
5
 10
156.8784659416
 20
125.2320526510
 11
142.8784659416
 21
125.2320526510
  0
ENDBLK
  8
0
  0
BLOCK
  8
1
  2
LTEX7
 70
     0
 10
76.5222266806
 20
-224.3963793629
  3
LTEX7
  0
SOLID
  8
1
  6
CONTINUOUS
 62
5
 10
75.4633904364
 20
-222.6996572854
 11
76.4536086334
 21
-222.3975568186
 12
76.5222266806
 22
-224.3963793629
 13
76.5222266806
 23
-224.3963793629
  0
TEXT
  8
1
  6
CONTINUOUS
 62
7
 10
45.630335
 20
-212.278512
 40
5.000000
  1
⑨ ACｱｳﾄﾚｯﾄ
 41
0.782361
 50
0.000000
 51
0.000000
 72
   5
 73
   0
 11
73.130335
 21
-212.278512
  0
LINE
  8
1
  6
BYBLOCK
 62
5
 10
76.5222266806
 20
-224.3963793629
 11
73.1303349085
 21
-213.2785118877
  0
LINE
  8
1
  6
BYBLOCK
 62
5
 10
73.1303349085
 20
-213.2785118877
 11
45.6303349085
 21
-213.2785118877
  0
ENDBLK
  8
0
  0
BLOCK
  8
1
  2
S16
 70
     0
 10
58.7719826269
 20
-220.5501240435
  3
S16
  0
CIRCLE
  8
1
  6
HIDDEN
 62
6
 10
58.7719826269
 20
-220.5501240435
 40
4.5000000000
  0
LINE
  8
1
  6
HIDDEN
 62
6
 10
62.1469826271
 20
-220.5501240435
 11
55.3969826271
 21
-220.5501240435
  0
LINE
  8
1
  6
HIDDEN
 62
6
 10
61.0219826271
 20
-222.2376240435
 11
56.5219826271
 21
-222.2376240435
  0
LINE
  8
1
  6
HIDDEN
 62
6
 10
59.8969826271
 20
-223.9251240435
 11
57.6469826271
 21
-223.9251240435
  0
LINE
  8
1
  6
HIDDEN
 62
6
 10
58.7719826269
 20
-220.5501240435
 11
58.7719826271
 21
-217.1751240435
  0
ENDBLK
  8
0
  0
BLOCK
  8
1
  2
S17
 70
     0
 10
13.7738327972
 20
-218.8684133949
  3
S17
  0
LINE
  8
1
  6
CONTINUOUS
 62
6
 10
16.2738327972
 20
-220.8684133949
 11
11.2738327972
 21
-220.8684133950
  0
TEXT
  8
1
  6
CONTINUOUS
 62
6
 10
12.722783
 20
-221.246741
 40
3.300000
  1
B
 41
1.274000
 50
0.000000
 51
0.000000
 72
   5
 73
   0
 11
14.824883
 21
-221.246741
  0
LINE
  8
1
  6
CONTINUOUS
 62
6
 10
13.7738327972
 20
-216.8684133949
 11
11.2738327972
 21
-220.8684133950
  0
LINE
  8
1
  6
CONTINUOUS
 62
6
 10
13.7738327972
 20
-216.8684133949
 11
16.2738327972
 21
-220.8684133949
  0
POINT
  8
1
  6
CONTINUOUS
 62
6
 10
13.7738327972
 20
-218.8684133949
  0
ENDBLK
  8
0
  0
BLOCK
  8
1
  2
LTEX8
 70
     0
 10
39.0219826269
 20
-220.5501240435
  3
LTEX8
  0
SOLID
  8
1
  6
CONTINUOUS
 62
5
 10
37.4286307957
 20
-221.7589374873
 11
37.0376927420
 21
-220.8003112787
 12
39.0219826269
 22
-220.5501240435
 13
39.0219826269
 23
-220.5501240435
  0
TEXT
  8
1
  6
CONTINUOUS
 62
7
 10
11.239930
 20
-225.170593
 40
3.500000
  1
M4ｱｰｽﾎﾞｽ
 41
0.770713
 50
0.000000
 51
0.000000
 72
   5
 73
   0
 11
25.239930
 21
-225.170593
  0
LINE
  8
1
  6
BYBLOCK
 62
5
 10
39.0219826269
 20
-220.5501240435
 11
25.2399303357
 21
-226.1705928462
  0
LINE
  8
1
  6
BYBLOCK
 62
5
 10
25.2399303357
 20
-226.1705928462
 11
11.2399303357
 21
-226.1705928462
  0
ENDBLK
  8
0
  0
BLOCK
  8
1
  2
S18
 70
     0
 10
309.3497198050
 20
234.4360296824
  3
S18
  0
LINE
  8
1
  6
CONTINUOUS
 62
6
 10
311.8497198050
 20
232.4360296824
 11
306.8497198050
 21
232.4360296824
  0
TEXT
  8
1
  6
CONTINUOUS
 62
6
 10
308.298670
 20
232.057702
 40
3.300000
  1
B
 41
1.274000
 50
0.000000
 51
0.000000
 72
   5
 73
   0
 11
310.400770
 21
232.057702
  0
LINE
  8
1
  6
CONTINUOUS
 62
6
 10
309.3497198050
 20
236.4360296824
 11
306.8497198050
 21
232.4360296824
  0
LINE
  8
1
  6
CONTINUOUS
 62
6
 10
309.3497198050
 20
236.4360296824
 11
311.8497198050
 21
232.4360296824
  0
POINT
  8
1
  6
CONTINUOUS
 62
6
 10
309.3497198050
 20
234.4360296824
  0
ENDBLK
  8
0
  0
ENDSEC
  0
SECTION
  2
ENTITIES
  0
LINE
  8
1
  6
CONTINUOUS
 62
7
 10
95.7645106558
 20
65.6025214537
 11
95.7645106558
 21
209.4775214537
  0
LINE
  8
1
  6
CONTINUOUS
 62
7
 10
28.7645106558
 20
209.4775214537
 11
28.7645106558
 21
65.6025214537
  0
LINE
  8
1
  6
CONTINUOUS
 62
7
 10
96.7645106558
 20
64.6025214537
 11
96.7645106558
 21
220.1025214537
  0
LINE
  8
1
  6
CONTINUOUS
 62
7
 10
27.7645106558
 20
220.1025214537
 11
27.7645106558
 21
64.6025214537
  0
LINE
  8
1
  6
DASHDOT
 62
1
 10
101.7645106558
 20
213.1025214537
 11
22.7645106558
 21
213.1025214537
  0
LINE
  8
1
  6
CONTINUOUS
 62
7
 10
96.7645106558
 20
64.6025214537
 11
76.7270138153
 21
64.6025214537
  0
LINE
  8
1
  6
CONTINUOUS
 62
7
 10
47.8020074964
 20
64.6025214537
 11
27.7645106558
 21
64.6025214537
  0
LINE
  8
1
  6
CONTINUOUS
 62
7
 10
28.7645106558
 20
65.6025214537
 11
45.5659395189
 21
65.6025214537
  0
LINE
  8
1
  6
CONTINUOUS
 62
7
 10
78.9630817928
 20
65.6025214537
 11
95.7645106558
 21
65.6025214537
  0
LINE
  8
1
  6
CONTINUOUS
 62
7
 10
124.4661466639
 20
207.1025214537
 11
124.4661466639
 21
65.6025214537
  0
CIRCLE
  8
1
  6
CONTINUOUS
 62
7
 10
121.4661466639
 20
213.1025214537
 40
2.0000000000
  0
ARC
  8
1
  6
CONTINUOUS
 62
7
 10
121.4661466639
 20
213.1025214537
 40
6.0000000000
 50
90.0000000000
 51
270.0000000000
  0
LINE
  8
1
  6
CONTINUOUS
 62
7
 10
124.4661466639
 20
207.1025214537
 11
121.4661466639
 21
207.1025214537
  0
LINE
  8
1
  6
CONTINUOUS
 62
7
 10
124.4661466639
 20
219.1025214537
 11
121.4661466639
 21
219.1025214537
  0
LINE
  8
1
  6
CONTINUOUS
 62
7
 10
133.4661466639
 20
220.1025214537
 11
133.4661466639
 21
64.6025214537
  0
LINE
  8
1
  6
CONTINUOUS
 62
7
 10
28.7645106558
 20
207.1025214537
 11
28.7645106558
 21
219.1025214537
  0
LINE
  8
1
  6
CONTINUOUS
 62
7
 10
28.7645106558
 20
219.1025214537
 11
33.7645106558
 21
219.1025214537
  0
LINE
  8
1
  6
CONTINUOUS
 62
7
 10
33.7645106558
 20
219.1025214537
 11
33.7645106558
 21
207.1025214537
  0
LINE
  8
1
  6
CONTINUOUS
 62
7
 10
33.7645106558
 20
207.1025214537
 11
28.7645106558
 21
207.1025214537
  0
LINE
  8
1
  6
CONTINUOUS
 62
7
 10
95.7645106558
 20
219.1025214537
 11
90.7645106558
 21
219.1025214537
  0
LINE
  8
1
  6
CONTINUOUS
 62
7
 10
90.7645106558
 20
219.1025214537
 11
90.7645106558
 21
207.1025214537
  0
LINE
  8
1
  6
CONTINUOUS
 62
7
 10
90.7645106558
 20
207.1025214537
 11
95.7645106558
 21
207.1025214537
  0
LINE
  8
1
  6
CONTINUOUS
 62
7
 10
95.7645106558
 20
207.1025214537
 11
95.7645106558
 21
219.1025214537
  0
LINE
  8
1
  6
CONTINUOUS
 62
7
 10
90.7645106558
 20
207.1025214537
 11
90.7645106558
 21
206.1025214537
  0
LINE
  8
1
  6
CONTINUOUS
 62
7
 10
33.7645106558
 20
206.1025214537
 11
33.7645106558
 21
207.1025214537
  0
LINE
  8
1
  6
CONTINUOUS
 62
7
 10
96.7645106558
 20
220.1025214537
 11
27.7645106558
 21
220.1025214537
  0
LINE
  8
1
  6
CONTINUOUS
 62
7
 10
96.7645106558
 20
27.5484212565
 11
27.7645106558
 21
27.5484212565
  0
LINE
  8
1
  6
CONTINUOUS
 62
7
 10
28.7645106558
 20
36.5484212565
 11
95.7645106558
 21
36.5484212565
  0
LINE
  8
1
  6
CONTINUOUS
 62
7
 10
133.4661466639
 20
64.6025214537
 11
124.4661466639
 21
65.6025214537
  0
LINE
  8
1
  6
CONTINUOUS
 62
7
 10
133.4661466639
 20
220.1025214537
 11
124.4661466639
 21
219.1025214537
  0
LINE
  8
1
  6
CONTINUOUS
 62
7
 10
28.7645106558
 20
36.5484212565
 11
27.7645106558
 21
27.5484212565
  0
LINE
  8
1
  6
CONTINUOUS
 62
7
 10
95.7645106558
 20
36.5484212565
 11
96.7645106558
 21
27.5484212565
  0
LINE
  8
1
  6
HIDDEN
 62
7
 10
124.4661466639
 20
206.1025214537
 11
127.9661466639
 21
206.1025214537
  0
LINE
  8
1
  6
HIDDEN
 62
7
 10
127.9661466639
 20
206.1025214537
 11
127.9661466639
 21
219.4914103426
  0
LINE
  8
1
  6
HIDDEN
 62
7
 10
34.7645106558
 20
33.5484212565
 11
34.7645106558
 21
36.5484212565
  0
LINE
  8
1
  6
HIDDEN
 62
7
 10
89.7645106558
 20
33.5484212565
 11
34.7645106558
 21
33.5484212565
  0
LINE
  8
1
  6
HIDDEN
 62
7
 10
89.7645106558
 20
33.5484212565
 11
89.7645106558
 21
36.5484212565
  0
LINE
  8
1
  6
HIDDEN
 62
7
 10
85.5145106558
 20
33.5484212565
 11
85.5145106558
 21
29.5484212565
  0
LINE
  8
1
  6
HIDDEN
 62
7
 10
85.5145106558
 20
29.5484212565
 11
84.0145106559
 21
29.5484212565
  0
LINE
  8
1
  6
HIDDEN
 62
7
 10
80.5145106559
 20
29.5484212565
 11
79.0145106558
 21
29.5484212565
  0
LINE
  8
1
  6
HIDDEN
 62
7
 10
79.0145106558
 20
29.5484212565
 11
79.0145106558
 21
33.5484212565
  0
LINE
  8
1
  6
HIDDEN
 62
7
 10
80.5145106559
 20
29.5484212565
 11
80.5145106556
 21
27.5484212565
  0
LINE
  8
1
  6
HIDDEN
 62
7
 10
84.0145106559
 20
29.5484212565
 11
84.0145106558
 21
27.5484212565
  0
LINE
  8
1
  6
HIDDEN
 62
7
 10
39.0145106558
 20
33.5484212565
 11
39.0145106558
 21
29.5484212565
  0
LINE
  8
1
  6
HIDDEN
 62
7
 10
39.0145106558
 20
29.5484212565
 11
40.5145106558
 21
29.5484212565
  0
LINE
  8
1
  6
HIDDEN
 62
7
 10
44.0145106558
 20
29.5484212565
 11
45.5145106558
 21
29.5484212565
  0
LINE
  8
1
  6
HIDDEN
 62
7
 10
45.5145106558
 20
29.5484212565
 11
45.5145106558
 21
33.5484212565
  0
LINE
  8
1
  6
HIDDEN
 62
7
 10
44.0145106558
 20
29.5484212565
 11
44.0145106561
 21
27.5484212565
  0
LINE
  8
1
  6
HIDDEN
 62
7
 10
40.5145106558
 20
29.5484212565
 11
40.5145106559
 21
27.5484212565
  0
LINE
  8
1
  6
HIDDEN
 62
7
 10
60.2645106558
 20
33.5484212565
 11
60.2645106558
 21
27.5484212565
  0
LINE
  8
1
  6
HIDDEN
 62
7
 10
64.2645106558
 20
33.5484212565
 11
64.2645106558
 21
27.5484212565
  0
LINE
  8
1
  6
HIDDEN
 62
7
 10
63.9145106558
 20
33.5484212565
 11
63.9145106558
 21
27.5484212565
  0
LINE
  8
1
  6
HIDDEN
 62
7
 10
60.6145106558
 20
33.5484212565
 11
60.6145106558
 21
27.5484212565
  0
LINE
  8
1
  6
HIDDEN
 62
7
 10
124.4661466639
 20
201.1025214537
 11
127.9661466639
 21
201.1025214537
  0
LINE
  8
1
  6
HIDDEN
 62
7
 10
127.9661466639
 20
200.4775214537
 11
127.9661466639
 21
76.6025214537
  0
LINE
  8
1
  6
HIDDEN
 62
7
 10
127.9661466639
 20
76.6025214537
 11
124.4661466639
 21
76.6025214537
  0
LINE
  8
1
  6
HIDDEN
 62
7
 10
127.9661466639
 20
85.3525214537
 11
133.4661466639
 21
85.3525214537
  0
LINE
  8
1
  6
HIDDEN
 62
7
 10
127.9661466639
 20
192.3525214537
 11
133.4661466639
 21
192.3525214537
  0
LINE
  8
1
  6
HIDDEN
 62
7
 10
127.9661466639
 20
83.6025214537
 11
131.9661466639
 21
83.6025214537
  0
LINE
  8
1
  6
HIDDEN
 62
7
 10
131.9661466639
 20
83.6025214537
 11
131.9661466639
 21
82.1025214537
  0
LINE
  8
1
  6
HIDDEN
 62
7
 10
131.9661466639
 20
78.6025214537
 11
131.9661466639
 21
77.1025214537
  0
LINE
  8
1
  6
HIDDEN
 62
7
 10
131.9661466639
 20
77.1025214537
 11
127.9661466639
 21
77.1025214537
  0
LINE
  8
1
  6
HIDDEN
 62
7
 10
131.9661466639
 20
78.6025214537
 11
133.4661466639
 21
78.6025214535
  0
LINE
  8
1
  6
HIDDEN
 62
7
 10
131.9661466639
 20
82.1025214537
 11
133.4661466639
 21
82.1025214648
  0
LINE
  8
1
  6
HIDDEN
 62
7
 10
127.9661466639
 20
194.1025214537
 11
131.9661466639
 21
194.1025214537
  0
LINE
  8
1
  6
HIDDEN
 62
7
 10
131.9661466639
 20
194.1025214537
 11
131.9661466639
 21
195.6025214537
  0
LINE
  8
1
  6
HIDDEN
 62
7
 10
131.9661466639
 20
199.1025214537
 11
131.9661466639
 21
200.6025214537
  0
LINE
  8
1
  6
HIDDEN
 62
7
 10
131.9661466639
 20
200.6025214537
 11
127.9661466639
 21
200.6025214537
  0
LINE
  8
1
  6
HIDDEN
 62
7
 10
131.9661466639
 20
199.1025214537
 11
133.4661466639
 21
199.1025214539
  0
LINE
  8
1
  6
HIDDEN
 62
7
 10
131.9661466639
 20
195.6025214537
 11
133.4661466639
 21
195.6025214425
  0
ARC
  8
2
  6
HIDDEN
 62
5
 10
121.4661466639
 20
213.1025214537
 40
6.0000000000
 50
294.6243183522
 51
164.1092389898
  0
LINE
  8
2
  6
HIDDEN
 62
5
 10
123.9661466639
 20
207.6481653964
 11
123.9661466639
 21
207.1025214537
  0
LINE
  8
2
  6
CONTINUOUS
 62
5
 10
123.9661466639
 20
207.1025214537
 11
123.9661466639
 21
65.6025214537
  0
LINE
  8
2
  6
CONTINUOUS
 62
5
 10
115.8202125868
 20
65.6025214537
 11
123.9661466639
 21
65.6025214537
  0
LINE
  8
2
  6
CONTINUOUS
 62
5
 10
109.4661466639
 20
61.6025214537
 11
109.4661466639
 21
192.4775214537
  0
LINE
  8
2
  6
CONTINUOUS
 62
5
 10
123.9661466639
 20
206.1025214537
 11
113.2892089437
 21
206.1025214537
  0
CIRCLE
  8
2
  6
CONTINUOUS
 62
5
 10
121.4661466639
 20
213.1025214537
 40
2.0000000000
  0
LINE
  8
2
  6
CONTINUOUS
 62
5
 10
29.7645106558
 20
206.1025214537
 11
33.9645106558
 21
206.1025214537
  0
LINE
  8
2
  6
CONTINUOUS
 62
5
 10
33.9645106558
 20
206.1025214537
 11
33.9645106558
 21
219.1025214537
  0
LINE
  8
2
  6
CONTINUOUS
 62
5
 10
33.9645106558
 20
219.1025214537
 11
90.5645106558
 21
219.1025214537
  0
LINE
  8
2
  6
CONTINUOUS
 62
5
 10
90.5645106558
 20
219.1025214537
 11
90.5645106558
 21
206.1025214537
  0
LINE
  8
2
  6
CONTINUOUS
 62
5
 10
90.5645106558
 20
206.1025214537
 11
94.7645106558
 21
206.1025214537
  0
LINE
  8
2
  6
CONTINUOUS
 62
5
 10
94.7645106558
 20
206.1025214537
 11
94.7645106558
 21
65.6025214537
  0
LINE
  8
2
  6
CONTINUOUS
 62
5
 10
78.9630817928
 20
65.6025214537
 11
94.7645106558
 21
65.6025214537
  0
LINE
  8
2
  6
CONTINUOUS
 62
5
 10
45.5659395189
 20
65.6025214537
 11
29.7645106558
 21
65.6025214537
  0
LINE
  8
2
  6
CONTINUOUS
 62
5
 10
29.7645106558
 20
65.6025214537
 11
29.7645106558
 21
206.1025214537
  0
LINE
  8
2
  6
CONTINUOUS
 62
5
 10
49.3906030156
 20
62.0590341874
 11
48.1384182961
 21
64.1460087200
  0
LINE
  8
2
  6
CONTINUOUS
 62
5
 10
72.5659395189
 20
60.6025214537
 11
51.9630817928
 21
60.6025214537
  0
ARC
  8
2
  6
CONTINUOUS
 62
5
 10
45.5659395189
 20
62.6025214537
 40
3.0000000000
 50
30.9637565321
 51
90.0000000000
  0
ARC
  8
2
  6
CONTINUOUS
 62
5
 10
51.9630817928
 20
63.6025214537
 40
3.0000000000
 50
210.9637565321
 51
270.0000000000
  0
LINE
  8
2
  6
CONTINUOUS
 62
5
 10
75.1384182961
 20
62.0590341874
 11
76.3906030156
 21
64.1460087200
  0
ARC
  8
2
  6
CONTINUOUS
 62
5
 10
78.9630817928
 20
62.6025214537
 40
3.0000000000
 50
90.0000000000
 51
149.0362434679
  0
ARC
  8
2
  6
CONTINUOUS
 62
5
 10
72.5659395189
 20
63.6025214537
 40
3.0000000000
 50
270.0000000000
 51
329.0362434679
  0
LINE
  8
2
  6
HIDDEN
 62
5
 10
109.4661466639
 20
70.7525214537
 11
111.4661466639
 21
70.7525214537
  0
LINE
  8
2
  6
HIDDEN
 62
5
 10
111.4661466639
 20
71.1025214537
 11
109.4661466639
 21
71.1025214537
  0
LINE
  8
2
  6
HIDDEN
 62
5
 10
111.4661466639
 20
71.3525214537
 11
123.9661466639
 21
71.3525214537
  0
LINE
  8
2
  6
HIDDEN
 62
5
 10
109.4661466639
 20
67.4525214537
 11
111.4661466639
 21
67.4525214537
  0
LINE
  8
2
  6
HIDDEN
 62
5
 10
111.4661466639
 20
67.1025214537
 11
109.4661466639
 21
67.1025214537
  0
LINE
  8
2
  6
HIDDEN
 62
5
 10
111.4661466639
 20
66.8525214537
 11
123.9661466639
 21
66.8525214537
  0
LINE
  8
2
  6
HIDDEN
 62
5
 10
111.4661466639
 20
71.3525214537
 11
111.4661466639
 21
66.8525214537
  0
LINE
  8
1
  6
HIDDEN
 62
7
 10
124.4661466639
 20
71.1025214537
 11
133.4661466639
 21
71.1025214537
  0
LINE
  8
1
  6
HIDDEN
 62
7
 10
124.4661466639
 20
70.7525214537
 11
133.4661466639
 21
70.7525214537
  0
LINE
  8
1
  6
HIDDEN
 62
7
 10
124.4661466639
 20
67.4525214537
 11
133.4661466639
 21
67.4525214537
  0
LINE
  8
1
  6
HIDDEN
 62
7
 10
124.4661466639
 20
67.1025214537
 11
133.4661466639
 21
67.1025214537
  0
LINE
  8
2
  6
CONTINUOUS
 62
5
 10
113.9632592050
 20
64.3453028064
 11
112.7175903934
 21
61.2311307773
  0
LINE
  8
2
  6
CONTINUOUS
 62
5
 10
111.7891137025
 20
60.6025214537
 11
110.4661466639
 21
60.6025214537
  0
LINE
  8
2
  6
CONTINUOUS
 62
5
 10
36.2645106558
 20
51.5484212565
 11
88.2645106558
 21
51.5484212565
  0
LINE
  8
2
  6
CONTINUOUS
 62
5
 10
94.7645106558
 20
43.5484212565
 11
94.7645106558
 21
37.0484212565
  0
LINE
  8
2
  6
CONTINUOUS
 62
5
 10
94.7645106558
 20
37.0484212565
 11
29.7645106558
 21
37.0484212565
  0
LINE
  8
2
  6
CONTINUOUS
 62
5
 10
29.7645106558
 20
37.0484212565
 11
29.7645106558
 21
43.5484212565
  0
LINE
  8
2
  6
CONTINUOUS
 62
5
 10
94.7645106558
 20
43.5484212565
 11
88.2645106558
 21
51.5484212565
  0
LINE
  8
2
  6
CONTINUOUS
 62
5
 10
36.2645106558
 20
51.5484212565
 11
29.7645106558
 21
43.5484212565
  0
LINE
  8
2
  6
CONTINUOUS
 62
5
 10
33.8539337328
 20
206.1025214537
 11
36.2645106558
 21
192.4775214537
  0
LINE
  8
2
  6
CONTINUOUS
 62
5
 10
36.2645106558
 20
192.4775214537
 11
88.2645106558
 21
192.4775214537
  0
LINE
  8
2
  6
CONTINUOUS
 62
5
 10
88.2645106558
 20
192.4775214537
 11
90.6750875789
 21
206.1025214537
  0
LINE
  8
2
  6
CONTINUOUS
 62
5
 10
88.2645106558
 20
192.4775214537
 11
88.2645106558
 21
65.6025214537
  0
LINE
  8
2
  6
CONTINUOUS
 62
5
 10
36.2645106558
 20
65.6025214537
 11
36.2645106558
 21
192.4775214537
  0
LINE
  8
2
  6
CONTINUOUS
 62
5
 10
45.5659395189
 20
51.5484212565
 11
45.5659395189
 21
46.5484212565
  0
LINE
  8
2
  6
CONTINUOUS
 62
5
 10
45.5659395189
 20
46.5484212565
 11
51.9630817928
 21
48.5484212565
  0
LINE
  8
2
  6
CONTINUOUS
 62
5
 10
51.9630817928
 20
48.5484212565
 11
72.5659395189
 21
48.5484212565
  0
LINE
  8
2
  6
CONTINUOUS
 62
5
 10
72.5659395189
 20
48.5484212565
 11
78.9630817928
 21
46.5484212565
  0
LINE
  8
2
  6
CONTINUOUS
 62
5
 10
78.9630817928
 20
46.5484212565
 11
78.9630817928
 21
51.5484212565
  0
LINE
  8
2
  6
CONTINUOUS
 62
5
 10
51.9630817928
 20
51.5484212565
 11
51.9630817928
 21
48.5484212565
  0
LINE
  8
2
  6
CONTINUOUS
 62
5
 10
72.5659395189
 20
51.5484212565
 11
72.5659395189
 21
48.5484212565
  0
LINE
  8
2
  6
CONTINUOUS
 62
5
 10
45.5659395189
 20
46.5484212565
 11
78.9630817928
 21
46.5484212565
  0
ARC
  8
2
  6
CONTINUOUS
 62
5
 10
110.4661466639
 20
61.6025214537
 40
1.0000000000
 50
180.0000000000
 51
270.0000000000
  0
ARC
  8
2
  6
CONTINUOUS
 62
5
 10
111.7891137025
 20
61.6025214537
 40
1.0000000000
 50
270.0000000000
 51
338.1985905136
  0
ARC
  8
2
  6
CONTINUOUS
 62
5
 10
115.8202125868
 20
63.6025214537
 40
2.0000000000
 50
90.0000000000
 51
158.1985905136
  0
LINE
  8
1
  6
CONTINUOUS
 62
7
 10
96.7645106558
 20
27.5484212565
 11
27.7645106558
 21
27.5484212565
  0
LINE
  8
2
  6
CONTINUOUS
 62
5
 10
124.9661466639
 20
204.3525214537
 11
123.9661466639
 21
204.3525214537
  0
LINE
  8
2
  6
CONTINUOUS
 62
5
 10
124.9661466639
 20
204.3525214537
 11
124.9661466639
 21
203.8525214537
  0
LINE
  8
2
  6
CONTINUOUS
 62
5
 10
124.9661466639
 20
203.8525214537
 11
123.9661466639
 21
203.8525214537
  0
LINE
  8
2
  6
HIDDEN
 62
5
 10
123.9661466639
 20
203.8525214537
 11
114.7351177630
 21
203.8525214537
  0
LINE
  8
2
  6
CONTINUOUS
 62
5
 10
123.9661466639
 20
73.3525214537
 11
124.9661466639
 21
73.3525214537
  0
LINE
  8
2
  6
CONTINUOUS
 62
5
 10
124.9661466639
 20
73.3525214537
 11
124.9661466639
 21
73.8525214537
  0
LINE
  8
2
  6
CONTINUOUS
 62
5
 10
124.9661466639
 20
73.8525214537
 11
123.9661466639
 21
73.8525214537
  0
LINE
  8
2
  6
HIDDEN
 62
5
 10
123.9661466639
 20
73.8525214537
 11
111.4661466639
 21
73.8525214537
  0
LINE
  8
1
  6
CONTINUOUS
 62
7
 10
219.9105182328
 20
201.1025214537
 11
167.9105182328
 21
201.1025214537
  0
LINE
  8
1
  6
CONTINUOUS
 62
7
 10
221.4105182328
 20
78.1025214537
 11
221.4105182328
 21
199.6025214537
  0
LINE
  8
1
  6
CONTINUOUS
 62
7
 10
167.9105182328
 20
76.6025214537
 11
219.9105182328
 21
76.6025214537
  0
LINE
  8
1
  6
CONTINUOUS
 62
7
 10
166.4105182328
 20
78.1025214537
 11
166.4105182328
 21
199.6025214537
  0
LINE
  8
1
  6
CONTINUOUS
 62
7
 10
223.4105182328
 20
75.6025214537
 11
223.4105182328
 21
202.1025214537
  0
LINE
  8
1
  6
CONTINUOUS
 62
7
 10
222.4105182328
 20
203.1025214537
 11
165.4105182328
 21
203.1025214537
  0
LINE
  8
1
  6
CONTINUOUS
 62
7
 10
164.4105182328
 20
75.6025214537
 11
164.4105182328
 21
202.1025214537
  0
LINE
  8
1
  6
CONTINUOUS
 62
7
 10
165.4105182328
 20
74.6025214537
 11
222.4105182328
 21
74.6025214537
  0
ARC
  8
1
  6
CONTINUOUS
 62
7
 10
167.9105182328
 20
199.6025214537
 40
1.5000000000
 50
90.0000000000
 51
180.0000000000
  0
ARC
  8
1
  6
CONTINUOUS
 62
7
 10
219.9105182328
 20
199.6025214537
 40
1.5000000000
 50
0.0000000000
 51
90.0000000000
  0
ARC
  8
1
  6
CONTINUOUS
 62
7
 10
219.9105182328
 20
78.1025214537
 40
1.5000000000
 50
270.0000000000
 51
0.0000000000
  0
ARC
  8
1
  6
CONTINUOUS
 62
7
 10
167.9105182328
 20
78.1025214537
 40
1.5000000000
 50
180.0000000000
 51
270.0000000000
  0
CIRCLE
  8
1
  6
HIDDEN
 62
3
 10
173.9105182328
 20
197.3525214537
 40
1.7500000000
  0
CIRCLE
  8
1
  6
HIDDEN
 62
3
 10
173.9105182328
 20
197.3525214537
 40
3.2500000000
  0
CIRCLE
  8
1
  6
HIDDEN
 62
3
 10
213.9105182328
 20
197.3525214537
 40
1.7500000000
  0
CIRCLE
  8
1
  6
HIDDEN
 62
3
 10
213.9105182328
 20
197.3525214537
 40
3.2500000000
  0
LINE
  8
1
  6
HIDDEN
 62
3
 10
216.9105182328
 20
192.3525214537
 11
219.9105182328
 21
192.3525214537
  0
LINE
  8
1
  6
HIDDEN
 62
3
 10
168.9105182328
 20
192.3525214537
 11
216.9105182328
 21
192.3525214537
  0
CIRCLE
  8
1
  6
HIDDEN
 62
3
 10
173.9105182328
 20
80.3525214537
 40
1.7500000000
  0
CIRCLE
  8
1
  6
HIDDEN
 62
3
 10
173.9105182328
 20
80.3525214537
 40
3.2500000000
  0
CIRCLE
  8
1
  6
HIDDEN
 62
3
 10
213.9105182328
 20
80.3525214537
 40
1.7500000000
  0
CIRCLE
  8
1
  6
HIDDEN
 62
3
 10
213.9105182328
 20
80.3525214537
 40
3.2500000000
  0
CIRCLE
  8
1
  6
HIDDEN
 62
3
 10
193.9105182328
 20
197.3525214537
 40
2.0000000000
  0
LINE
  8
1
  6
CONTINUOUS
 62
7
 10
225.4105182328
 20
75.6025214537
 11
225.4105182328
 21
202.1025214537
  0
LINE
  8
1
  6
CONTINUOUS
 62
7
 10
222.4105182328
 20
205.1025214537
 11
165.4105182328
 21
205.1025214537
  0
LINE
  8
1
  6
CONTINUOUS
 62
7
 10
162.4105182328
 20
75.6025214537
 11
162.4105182328
 21
202.1025214537
  0
LINE
  8
1
  6
CONTINUOUS
 62
7
 10
165.4105182328
 20
72.6025214537
 11
222.4105182328
 21
72.6025214537
  0
LINE
  8
1
  6
CONTINUOUS
 62
7
 10
227.4105182328
 20
65.6025214537
 11
227.4105182328
 21
209.4775214537
  0
LINE
  8
1
  6
CONTINUOUS
 62
7
 10
160.4105182328
 20
209.4775214537
 11
160.4105182328
 21
65.6025214537
  0
LINE
  8
1
  6
CONTINUOUS
 62
7
 10
228.4105182328
 20
64.6025214537
 11
228.4105182328
 21
220.1025214537
  0
LINE
  8
1
  6
CONTINUOUS
 62
7
 10
159.4105182328
 20
220.1025214537
 11
159.4105182328
 21
64.6025214537
  0
ARC
  8
1
  6
CONTINUOUS
 62
7
 10
165.4105182328
 20
202.1025214537
 40
1.0000000000
 50
90.0000000000
 51
180.0000000000
  0
ARC
  8
1
  6
CONTINUOUS
 62
7
 10
222.4105182328
 20
202.1025214537
 40
1.0000000000
 50
0.0000000000
 51
90.0000000000
  0
ARC
  8
1
  6
CONTINUOUS
 62
7
 10
222.4105182328
 20
75.6025214537
 40
1.0000000000
 50
270.0000000000
 51
0.0000000000
  0
ARC
  8
1
  6
CONTINUOUS
 62
7
 10
165.4105182328
 20
75.6025214537
 40
1.0000000000
 50
180.0000000000
 51
270.0000000000
  0
LINE
  8
1
  6
HIDDEN
 62
3
 10
219.9105182328
 20
182.3525214537
 11
219.9105182328
 21
192.3525214537
  0
ARC
  8
1
  6
CONTINUOUS
 62
7
 10
165.4105182328
 20
202.1025214537
 40
3.0000000000
 50
90.0000000000
 51
180.0000000000
  0
ARC
  8
1
  6
CONTINUOUS
 62
7
 10
222.4105182328
 20
202.1025214537
 40
3.0000000000
 50
0.0000000000
 51
90.0000000000
  0
ARC
  8
1
  6
CONTINUOUS
 62
7
 10
222.4105182328
 20
75.6025214537
 40
3.0000000000
 50
270.0000000000
 51
0.0000000000
  0
ARC
  8
1
  6
CONTINUOUS
 62
7
 10
165.4105182328
 20
75.6025214537
 40
3.0000000000
 50
180.0000000000
 51
270.0000000000
  0
LINE
  8
1
  6
DASHDOT
 62
1
 10
230.4105182328
 20
213.1025214537
 11
157.4105182328
 21
213.1025214537
  0
LINE
  8
1
  6
CONTINUOUS
 62
7
 10
228.4105182328
 20
64.6025214537
 11
159.4105182328
 21
64.6025214537
  0
LINE
  8
1
  6
CONTINUOUS
 62
7
 10
160.4105182328
 20
65.6025214537
 11
227.4105182328
 21
65.6025214537
  0
LINE
  8
1
  6
CONTINUOUS
 62
7
 10
160.4105182328
 20
207.1025214537
 11
160.4105182328
 21
219.1025214537
  0
LINE
  8
1
  6
CONTINUOUS
 62
7
 10
160.4105182328
 20
219.1025214537
 11
165.4105182328
 21
219.1025214537
  0
LINE
  8
1
  6
CONTINUOUS
 62
7
 10
165.4105182328
 20
219.1025214537
 11
165.4105182328
 21
207.1025214537
  0
LINE
  8
1
  6
CONTINUOUS
 62
7
 10
165.4105182328
 20
207.1025214537
 11
160.4105182328
 21
207.1025214537
  0
LINE
  8
1
  6
CONTINUOUS
 62
7
 10
227.4105182328
 20
219.1025214537
 11
222.4105182328
 21
219.1025214537
  0
LINE
  8
1
  6
CONTINUOUS
 62
7
 10
222.4105182328
 20
219.1025214537
 11
222.4105182328
 21
207.1025214537
  0
LINE
  8
1
  6
CONTINUOUS
 62
7
 10
222.4105182328
 20
207.1025214537
 11
227.4105182328
 21
207.1025214537
  0
LINE
  8
1
  6
CONTINUOUS
 62
7
 10
227.4105182328
 20
207.1025214537
 11
227.4105182328
 21
219.1025214537
  0
LINE
  8
1
  6
CONTINUOUS
 62
7
 10
222.4105182328
 20
207.1025214537
 11
222.4105182328
 21
206.1025214537
  0
LINE
  8
1
  6
CONTINUOUS
 62
7
 10
222.4105182328
 20
206.1025214537
 11
165.4105182328
 21
206.1025214537
  0
LINE
  8
1
  6
CONTINUOUS
 62
7
 10
165.4105182328
 20
206.1025214537
 11
165.4105182328
 21
207.1025214537
  0
LINE
  8
1
  6
CONTINUOUS
 62
7
 10
228.4105182328
 20
220.1025214537
 11
159.4105182328
 21
220.1025214537
  0
CIRCLE
  8
1
  6
HIDDEN
 62
3
 10
193.9105182328
 20
197.3525214537
 40
1.6500000000
  0
CIRCLE
  8
1
  6
HIDDEN
 62
3
 10
193.9105182328
 20
80.3525214537
 40
2.0000000000
  0
CIRCLE
  8
1
  6
HIDDEN
 62
3
 10
193.9105182328
 20
80.3525214537
 40
1.6500000000
  0
CIRCLE
  8
1
  6
HIDDEN
 62
7
 10
193.9105182328
 20
69.1025214537
 40
2.0000000000
  0
CIRCLE
  8
1
  6
CONTINUOUS
 62
7
 10
193.9105182328
 20
69.1025214537
 40
1.6500000000
  0
INSERT
  8
5
  6
CONTINUOUS
 62
7
  2
S0
 10
0.0000000000
 20
0.0000000000
  0
TEXT
  8
5
  6
CONTINUOUS
 62
7
 10
349.684277
 20
5.000000
 40
6.000000
  1
M0051A059B
 41
0.765697
 50
0.000000
 51
0.000000
 72
   5
 73
   0
 11
379.684277
 21
5.000000
  0
TEXT
  8
5
  6
CONTINUOUS
 62
7
 10
293.500000
 20
10.750000
 40
3.000000
  1
Yamada
 41
0.779221
 50
0.000000
 51
0.000000
 72
   5
 73
   0
 11
302.500000
 21
10.750000
  0
TEXT
  8
5
  6
CONTINUOUS
 62
7
 10
304.500000
 20
10.750000
 40
3.000000
  1
Yamada
 41
0.779221
 50
0.000000
 51
0.000000
 72
   5
 73
   0
 11
313.500000
 21
10.750000
  0
TEXT
  8
1
  6
CONTINUOUS
 62
7
 10
178.408984
 20
56.344007
 40
4.000000
  1
内 部 図
 41
0.854701
 50
0.000000
 51
0.000000
 72
   5
 73
   0
 11
194.408984
 21
56.344007
  0
DIMENSION
  8
1
  6
CONTINUOUS
 62
5
  2
*D0
 10
111.4661466639
 20
98.7193009011
 11
119.7161466639
 21
101.4693009011
  70
0
 13
127.9661466639
 23
93.8244525436
 14
111.4661466639
 24
93.8244525436
 50
0.000000
  0
CIRCLE
  8
1
  6
CONTINUOUS
 62
5
 10
137.4661466639
 20
187.3525214537
 40
2.0000000000
  0
LINE
  8
1
  6
CONTINUOUS
 62
5
 10
135.9661466638
 20
187.3525214537
 11
138.9661466638
 21
187.3525214537
  0
LINE
  8
1
  6
CONTINUOUS
 62
5
 10
136.4661466638
 20
186.6025214537
 11
138.4661466638
 21
186.6025214537
  0
LINE
  8
1
  6
CONTINUOUS
 62
5
 10
136.9661466638
 20
185.8525214537
 11
137.9661466638
 21
185.8525214537
  0
LINE
  8
1
  6
CONTINUOUS
 62
5
 10
137.4661466639
 20
187.3525214537
 11
137.4661466638
 21
188.8525214537
  0
LINE
  8
1
  6
HIDDEN
 62
3
 10
219.9105182328
 20
182.3525214537
 11
216.9105182328
 21
182.3525214537
  0
LINE
  8
1
  6
HIDDEN
 62
3
 10
216.9105182328
 20
182.3525214537
 11
216.9105182328
 21
192.3525214537
  0
LINE
  8
1
  6
CONTINUOUS
 62
7
 10
133.4661466639
 20
192.3525214537
 11
148.4661466639
 21
192.3525214537
  0
LINE
  8
1
  6
CONTINUOUS
 62
7
 10
148.4661466639
 20
192.3525214537
 11
148.4661466639
 21
182.3525214537
  0
LINE
  8
1
  6
CONTINUOUS
 62
7
 10
148.4661466639
 20
182.3525214537
 11
133.4661466639
 21
182.3525214537
  0
CIRCLE
  8
1
  6
CONTINUOUS
 62
7
 10
143.4661466639
 20
187.3525214537
 40
2.0000000000
  0
CIRCLE
  8
1
  6
HIDDEN
 62
7
 10
143.4661466639
 20
187.3525214537
 40
2.5000000000
  0
CIRCLE
  8
1
  6
HIDDEN
 62
5
 10
137.4661466639
 20
90.3525214537
 40
2.0000000000
  0
LINE
  8
1
  6
HIDDEN
 62
5
 10
135.9661466638
 20
90.3525214537
 11
138.9661466638
 21
90.3525214537
  0
LINE
  8
1
  6
HIDDEN
 62
5
 10
136.4661466638
 20
89.6025214537
 11
138.4661466638
 21
89.6025214537
  0
LINE
  8
1
  6
HIDDEN
 62
5
 10
136.9661466638
 20
88.8525214537
 11
137.9661466638
 21
88.8525214537
  0
LINE
  8
1
  6
HIDDEN
 62
5
 10
137.4661466639
 20
90.3525214537
 11
137.4661466638
 21
91.8525214537
  0
LINE
  8
1
  6
CONTINUOUS
 62
7
 10
133.4661466639
 20
95.3525214537
 11
148.4661466639
 21
95.3525214537
  0
LINE
  8
1
  6
CONTINUOUS
 62
7
 10
148.4661466639
 20
95.3525214537
 11
148.4661466639
 21
85.3525214537
  0
LINE
  8
1
  6
CONTINUOUS
 62
7
 10
148.4661466639
 20
85.3525214537
 11
133.4661466639
 21
85.3525214537
  0
CIRCLE
  8
1
  6
CONTINUOUS
 62
7
 10
143.4661466639
 20
90.3525214537
 40
2.0000000000
  0
CIRCLE
  8
1
  6
HIDDEN
 62
7
 10
143.4661466639
 20
90.3525214537
 40
2.5000000000
  0
DIMENSION
  8
1
  6
CONTINUOUS
 62
5
  2
*D1
 10
20.9779016700
 20
36.5484212565
 11
18.2279016700
 21
32.0484212565
  70
0
 13
27.7645106558
 23
27.5484212565
 14
28.7645106558
 24
36.5484212565
 50
90.000000
  0
DIMENSION
  8
1
  6
CONTINUOUS
 62
5
  2
*D2
 10
20.7383253733
 20
51.5484212565
 11
17.9883253733
 21
44.2984212565
  70
0
 13
29.7645106558
 23
37.0484212565
 14
36.2645106558
 24
51.5484212565
 50
90.000000
  0
DIMENSION
  8
1
  6
CONTINUOUS
 62
5
  2
*D3
 10
13.2316014101
 20
51.5484212565
 11
10.4816014101
 21
39.5484212565
  70
0
 13
27.7645106558
 23
27.5484212565
 14
36.2645106558
 24
51.5484212565
 50
90.000000
  0
LINE
  8
1
  6
CONTINUOUS
 62
7
 10
36.2645106558
 20
27.5484212565
 11
36.2645106558
 21
12.5484212565
  0
LINE
  8
1
  6
CONTINUOUS
 62
7
 10
36.2645106558
 20
12.5484212565
 11
39.2645106558
 21
12.5484212565
  0
LINE
  8
1
  6
CONTINUOUS
 62
7
 10
39.2645106558
 20
12.5484212565
 11
39.2645106558
 21
27.5484212565
  0
LINE
  8
1
  6
CONTINUOUS
 62
7
 10
88.2645106558
 20
27.5484212565
 11
88.2645106558
 21
12.5484212565
  0
LINE
  8
1
  6
CONTINUOUS
 62
7
 10
88.2645106558
 20
12.5484212565
 11
85.2645106558
 21
12.5484212565
  0
LINE
  8
1
  6
CONTINUOUS
 62
7
 10
85.2645106558
 20
12.5484212565
 11
85.2645106558
 21
27.5484212565
  0
LINE
  8
1
  6
HIDDEN
 62
3
 10
167.9105182328
 20
85.3525214537
 11
170.9105182328
 21
85.3525214537
  0
LINE
  8
1
  6
HIDDEN
 62
3
 10
218.9105182328
 20
85.3525214537
 11
170.9105182328
 21
85.3525214537
  0
LINE
  8
1
  6
HIDDEN
 62
3
 10
167.9105182328
 20
95.3525214537
 11
170.9105182328
 21
95.3525214537
  0
LINE
  8
3
  6
HIDDEN
 62
3
 10
170.9105182328
 20
95.3525214537
 11
170.9105182328
 21
85.3525214537
  0
LINE
  8
1
  6
HIDDEN
 62
3
 10
167.9105182328
 20
95.3525214537
 11
167.9105182328
 21
85.3525214537
  0
LINE
  8
1
  6
HIDDEN
 62
3
 10
219.9105182328
 20
86.3525214537
 11
219.9105182328
 21
182.3525214537
  0
LINE
  8
1
  6
HIDDEN
 62
3
 10
167.9105182328
 20
191.3525214537
 11
167.9105182328
 21
95.3525214537
  0
LINE
  8
2
  6
CONTINUOUS
 62
5
 10
115.6954338248
 20
214.7453462552
 11
109.4661466639
 21
192.4775214537
  0
LINE
  8
2
  6
HIDDEN
 62
5
 10
114.7351177630
 20
203.8525214537
 11
111.4661466639
 21
192.2022453229
  0
LINE
  8
2
  6
HIDDEN
 62
5
 10
111.4661466639
 20
192.2022453229
 11
111.4661466639
 21
73.8525214537
  0
DIMENSION
  8
1
  6
CONTINUOUS
 62
5
  2
*D4
 10
17.2916228022
 20
64.6025214537
 11
13.7916228022
 21
142.3525214537
  70
0
 13
27.7645106558
 23
220.1025214537
 14
27.7645106558
 24
64.6025214537
 50
90.000000
  0
DIMENSION
  8
1
  6
CONTINUOUS
 62
5
  2
*D5
 10
96.7645106558
 20
224.0648547044
 11
62.2645106558
 21
227.5648547044
  70
0
 13
27.7645106558
 23
220.1025214537
 14
96.7645106558
 24
220.1025214537
 50
0.000000
  0
LINE
  8
2
  6
CONTINUOUS
 62
5
 10
31.5145106558
 20
37.0484212565
 11
31.5145106558
 21
36.0484212565
  0
LINE
  8
2
  6
CONTINUOUS
 62
5
 10
31.5145106558
 20
36.0484212565
 11
32.0145106558
 21
36.0484212565
  0
LINE
  8
2
  6
CONTINUOUS
 62
5
 10
32.0145106558
 20
36.0484212565
 11
32.0145106558
 21
37.0484212565
  0
LINE
  8
2
  6
CONTINUOUS
 62
5
 10
93.0145106558
 20
37.0484212565
 11
93.0145106558
 21
36.0484212565
  0
LINE
  8
2
  6
CONTINUOUS
 62
5
 10
93.0145106558
 20
36.0484212565
 11
92.5145106558
 21
36.0484212565
  0
LINE
  8
2
  6
CONTINUOUS
 62
5
 10
92.5145106558
 20
36.0484212565
 11
92.5145106558
 21
37.0484212565
  0
ARC
  8
1
  6
HIDDEN
 62
3
 10
168.9105182328
 20
191.3525214537
 40
1.0000000000
 50
90.0000000000
 51
180.0000000000
  0
ARC
  8
1
  6
HIDDEN
 62
3
 10
218.9105182328
 20
86.3525214537
 40
1.0000000000
 50
270.0000000000
 51
0.0000000000
  0
CIRCLE
  8
1
  6
CONTINUOUS
 62
7
 10
62.2645106558
 20
69.1025214537
 40
4.0000000000
  0
LINE
  8
1
  6
CONTINUOUS
 62
7
 10
60.4967437029
 20
70.8702884066
 11
64.0322776088
 21
67.3347545007
  0
LINE
  8
1
  6
CONTINUOUS
 62
7
 10
60.4967437029
 20
67.3347545007
 11
64.0322776088
 21
70.8702884066
  0
CIRCLE
  8
1
  6
CONTINUOUS
 62
7
 10
62.2645106558
 20
69.1025214537
 40
3.5000000000
  0
POINT
  8
1
  6
CONTINUOUS
 62
7
 10
62.2645106558
 20
51.5484212565
  0
LINE
  8
1
  6
CONTINUOUS
 62
7
 10
58.7645106558
 20
51.5484212586
 11
65.7645106558
 21
51.5484212543
  0
LINE
  8
1
  6
CONTINUOUS
 62
7
 10
61.4478439892
 20
54.2317545903
 11
63.0811773225
 21
54.2317545893
  0
ARC
  8
1
  6
CONTINUOUS
 62
7
 10
61.4478439892
 20
51.5484212570
 40
2.6833333333
 50
90.0000000000
 51
179.9999999648
  0
ARC
  8
1
  6
CONTINUOUS
 62
7
 10
63.0811773225
 20
51.5484212560
 40
2.6833333333
 50
359.9999999648
 51
90.0000000000
  0
POINT
  8
1
  6
CONTINUOUS
 62
7
 10
62.2645106558
 20
51.5484212565
  0
POINT
  8
1
  6
CONTINUOUS
 62
7
 10
62.2645106558
 20
51.5484212565
  0
POINT
  8
1
  6
CONTINUOUS
 62
7
 10
109.4661466639
 20
69.1025214537
  0
LINE
  8
1
  6
CONTINUOUS
 62
7
 10
109.4690741866
 20
65.5995939289
 11
109.4690741909
 21
72.5995939289
  0
LINE
  8
1
  6
CONTINUOUS
 62
7
 10
106.7857408549
 20
68.2829272622
 11
106.7857408559
 21
69.9162605955
  0
ARC
  8
1
  6
CONTINUOUS
 62
7
 10
109.4690741882
 20
68.2829272622
 40
2.6833333333
 50
180.0000000000
 51
269.9999999648
  0
ARC
  8
1
  6
CONTINUOUS
 62
7
 10
109.4690741892
 20
69.9162605955
 40
2.6833333333
 50
89.9999999648
 51
180.0000000000
  0
POINT
  8
1
  6
CONTINUOUS
 62
7
 10
109.4661466639
 20
69.1025214537
  0
POINT
  8
1
  6
CONTINUOUS
 62
7
 10
109.4661466639
 20
69.1025214537
  0
LINE
  8
7
  6
CONTINUOUS
 62
7
 10
221.1605182328
 20
77.8525214539
 11
221.1605182328
 21
199.8525214535
  0
LINE
  8
7
  6
CONTINUOUS
 62
7
 10
220.1605182328
 20
200.8525214535
 11
167.6605182328
 21
200.8525214539
  0
LINE
  8
7
  6
CONTINUOUS
 62
7
 10
166.6605182328
 20
77.8525214535
 11
166.6605182328
 21
199.8525214539
  0
LINE
  8
7
  6
CONTINUOUS
 62
7
 10
220.1605182328
 20
76.8525214539
 11
167.6605182328
 21
76.8525214535
  0
LINE
  8
7
  6
CONTINUOUS
 62
7
 10
167.6605182328
 20
200.8525214539
 11
166.6605182328
 21
199.8525214539
  0
LINE
  8
7
  6
CONTINUOUS
 62
7
 10
221.1605182328
 20
199.8525214535
 11
220.1605182328
 21
200.8525214535
  0
LINE
  8
7
  6
CONTINUOUS
 62
7
 10
221.1605182328
 20
77.8525214539
 11
220.1605182328
 21
76.8525214539
  0
LINE
  8
7
  6
CONTINUOUS
 62
7
 10
167.6605182328
 20
76.8525214535
 11
166.6605182328
 21
77.8525214535
  0
CIRCLE
  8
3
  6
CONTINUOUS
 62
6
 10
193.9105182328
 20
197.3525214536
 40
3.9000000000
  0
LINE
  8
3
  6
CONTINUOUS
 62
6
 10
192.1869454536
 20
199.0760942328
 11
195.6340910119
 21
195.6289486745
  0
LINE
  8
3
  6
CONTINUOUS
 62
6
 10
192.1869454536
 20
195.6289486745
 11
195.6340910119
 21
199.0760942328
  0
CIRCLE
  8
3
  6
CONTINUOUS
 62
6
 10
193.9105182328
 20
197.3525214536
 40
3.4125000000
  0
CIRCLE
  8
3
  6
CONTINUOUS
 62
6
 10
193.9105182328
 20
80.3525214537
 40
3.9000000000
  0
LINE
  8
3
  6
CONTINUOUS
 62
6
 10
192.1869454536
 20
82.0760942328
 11
195.6340910119
 21
78.6289486745
  0
LINE
  8
3
  6
CONTINUOUS
 62
6
 10
192.1869454536
 20
78.6289486745
 11
195.6340910119
 21
82.0760942328
  0
CIRCLE
  8
3
  6
CONTINUOUS
 62
6
 10
193.9105182328
 20
80.3525214537
 40
3.4125000000
  0
LINE
  8
3
  6
CONTINUOUS
 62
7
 10
209.4105182328
 20
128.3525214537
 11
178.4105182328
 21
128.3525214537
  0
LINE
  8
3
  6
CONTINUOUS
 62
7
 10
215.4105182328
 20
91.3525214537
 11
215.4105182328
 21
122.3525214537
  0
LINE
  8
3
  6
CONTINUOUS
 62
7
 10
178.4105182328
 20
85.3525214537
 11
209.4105182328
 21
85.3525214537
  0
LINE
  8
3
  6
CONTINUOUS
 62
7
 10
172.4105182328
 20
91.3525214537
 11
172.4105182328
 21
122.3525214537
  0
POINT
  8
3
  6
CONTINUOUS
 62
7
 10
193.9105182328
 20
106.8525214537
  0
CIRCLE
  8
3
  6
CONTINUOUS
 62
7
 10
193.9105182328
 20
106.8525214537
 40
17.2500000000
  0
CIRCLE
  8
3
  6
CONTINUOUS
 62
7
 10
210.1739742001
 20
123.1159774210
 40
2.0000000000
  0
CIRCLE
  8
3
  6
CONTINUOUS
 62
7
 10
177.6470622655
 20
90.5890654864
 40
2.0000000000
  0
CIRCLE
  8
3
  6
CONTINUOUS
 62
7
 10
210.1739742001
 20
123.1159774210
 40
3.0000000000
  0
CIRCLE
  8
3
  6
CONTINUOUS
 62
7
 10
177.6470622655
 20
90.5890654864
 40
3.0000000000
  0
TEXT
  8
3
  6
CONTINUOUS
 62
7
 10
191.285518
 20
99.926764
 40
3.500000
  1
125
 41
0.815217
 50
0.000000
 51
0.000000
 72
   5
 73
   0
 11
196.535518
 21
99.926764
  0
TEXT
  8
3
  6
CONTINUOUS
 62
7
 10
193.160518
 20
97.245019
 40
3.000000
  1
V
 41
1.000000
 50
0.000000
 51
0.000000
 72
   5
 73
   0
 11
194.660518
 21
97.245019
  0
INSERT
  8
3
  6
CONTINUOUS
 62
7
  2
S1
 10
199.2237887598
 20
116.0713569170
  0
ARC
  8
3
  6
CONTINUOUS
 62
7
 10
178.4105182328
 20
122.3525214537
 40
6.0000000000
 50
90.0000000000
 51
180.0000000000
  0
ARC
  8
3
  6
CONTINUOUS
 62
7
 10
209.4105182328
 20
122.3525214537
 40
6.0000000000
 50
0.0000000000
 51
90.0000000000
  0
ARC
  8
3
  6
CONTINUOUS
 62
7
 10
209.4105182328
 20
91.3525214537
 40
6.0000000000
 50
270.0000000000
 51
0.0000000000
  0
ARC
  8
3
  6
CONTINUOUS
 62
7
 10
178.4105182328
 20
91.3525214537
 40
6.0000000000
 50
180.0000000000
 51
270.0000000000
  0
ARC
  8
3
  6
CONTINUOUS
 62
5
 10
193.9105182328
 20
116.0025214537
 40
2.6500000000
 50
180.0000000000
 51
0.0000000000
  0
LINE
  8
3
  6
CONTINUOUS
 62
5
 10
191.2605182328
 20
116.0025214537
 11
191.2605182328
 21
118.6525214537
  0
LINE
  8
3
  6
CONTINUOUS
 62
5
 10
191.2605182328
 20
118.6525214537
 11
196.5605182328
 21
118.6525214537
  0
LINE
  8
3
  6
CONTINUOUS
 62
5
 10
196.5605182328
 20
118.6525214537
 11
196.5605182328
 21
116.0025214537
  0
LINE
  8
3
  6
CONTINUOUS
 62
5
 10
199.2105182328
 20
108.4525214537
 11
201.4105182328
 21
108.4525214537
  0
LINE
  8
3
  6
CONTINUOUS
 62
5
 10
201.4105182328
 20
108.4525214537
 11
201.4105182328
 21
99.7525214537
  0
LINE
  8
3
  6
CONTINUOUS
 62
5
 10
201.4105182328
 20
99.7525214537
 11
199.2105182328
 21
99.7525214537
  0
LINE
  8
3
  6
CONTINUOUS
 62
5
 10
199.2105182328
 20
99.7525214537
 11
199.2105182328
 21
108.4525214537
  0
LINE
  8
3
  6
CONTINUOUS
 62
5
 10
186.4105182328
 20
107.6025214537
 11
188.6105182328
 21
107.6025214537
  0
LINE
  8
3
  6
CONTINUOUS
 62
5
 10
188.6105182328
 20
107.6025214537
 11
188.6105182328
 21
100.6025214537
  0
LINE
  8
3
  6
CONTINUOUS
 62
5
 10
188.6105182328
 20
100.6025214537
 11
186.4105182328
 21
100.6025214537
  0
LINE
  8
3
  6
CONTINUOUS
 62
5
 10
186.4105182328
 20
100.6025214537
 11
186.4105182328
 21
107.6025214537
  0
CIRCLE
  8
3
  6
CONTINUOUS
 62
5
 10
203.7984145650
 20
104.1025214537
 40
1.5000000000
  0
TEXT
  8
3
  6
CONTINUOUS
 62
5
 10
203.173415
 20
102.852521
 40
2.500000
  1
N
 41
1.000000
 50
0.000000
 51
0.000000
 72
   5
 73
   0
 11
204.423415
 21
102.852521
  0
TEXT
  8
3
  6
CONTINUOUS
 62
7
 10
191.660518
 20
106.852521
 40
4.500000
  1
15
 41
0.854701
 50
0.000000
 51
0.000000
 72
   5
 73
   0
 11
196.160518
 21
106.852521
  0
TEXT
  8
3
  6
CONTINUOUS
 62
7
 10
193.160518
 20
103.852521
 40
3.000000
  1
A
 41
1.000000
 50
0.000000
 51
0.000000
 72
   5
 73
   0
 11
194.660518
 21
103.852521
  0
LINE
  8
3
  6
CONTINUOUS
 62
7
 10
230.8178253186
 20
-51.5412942482
 11
199.8178253186
 21
-51.5412942482
  0
LINE
  8
3
  6
CONTINUOUS
 62
7
 10
236.8178253186
 20
-88.5412942482
 11
236.8178253186
 21
-57.5412942482
  0
LINE
  8
3
  6
CONTINUOUS
 62
7
 10
199.8178253186
 20
-94.5412942482
 11
230.8178253186
 21
-94.5412942482
  0
LINE
  8
3
  6
CONTINUOUS
 62
7
 10
193.8178253186
 20
-88.5412942482
 11
193.8178253186
 21
-57.5412942482
  0
POINT
  8
3
  6
CONTINUOUS
 62
7
 10
215.3178253186
 20
-73.0412942482
  0
CIRCLE
  8
3
  6
CONTINUOUS
 62
7
 10
215.3178253186
 20
-73.0412942482
 40
17.2500000000
  0
CIRCLE
  8
3
  6
CONTINUOUS
 62
7
 10
231.5812812859
 20
-56.7778382809
 40
3.0000000000
  0
CIRCLE
  8
3
  6
CONTINUOUS
 62
7
 10
199.0543693513
 20
-89.3047502155
 40
3.0000000000
  0
POINT
  8
3
  6
CONTINUOUS
 62
7
 10
215.8178253186
 20
-76.0412942482
  0
ARC
  8
3
  6
CONTINUOUS
 62
7
 10
215.8178253186
 20
-76.0412942482
 40
5.2500000000
 50
145.1500954210
 51
238.9972808661
  0
ARC
  8
3
  6
CONTINUOUS
 62
7
 10
215.8178253186
 20
-76.0412942482
 40
5.2500000000
 50
325.1500954210
 51
58.9972808661
  0
ARC
  8
3
  6
CONTINUOUS
 62
7
 10
215.8178253186
 20
-76.0412942482
 40
8.2500000000
 50
145.1500954210
 51
238.9972808661
  0
ARC
  8
3
  6
CONTINUOUS
 62
7
 10
215.8178253186
 20
-76.0412942482
 40
8.2500000000
 50
325.1500954210
 51
58.9972808661
  0
LINE
  8
3
  6
CONTINUOUS
 62
7
 10
211.5094033337
 20
-73.0412942482
 11
209.0474479137
 21
-71.3270085339
  0
LINE
  8
3
  6
CONTINUOUS
 62
7
 10
213.1136618620
 20
-80.5412942482
 11
211.5684256011
 21
-83.1127228197
  0
LINE
  8
3
  6
CONTINUOUS
 62
7
 10
220.1262473035
 20
-79.0412942482
 11
222.5882027234
 21
-80.7555799625
  0
LINE
  8
3
  6
CONTINUOUS
 62
7
 10
218.5219887752
 20
-71.5412942482
 11
220.0672250361
 21
-68.9698656768
  0
ARC
  8
3
  6
CONTINUOUS
 62
7
 10
215.8178253186
 20
-76.0412942482
 40
9.5000000000
 50
79.1657616991
 51
124.6994185999
  0
ARC
  8
3
  6
CONTINUOUS
 62
7
 10
215.8178253186
 20
-76.0412942482
 40
15.0000000000
 50
75.4243256941
 51
128.4408546048
  0
LINE
  8
3
  6
CONTINUOUS
 62
7
 10
220.2884124819
 20
-62.8120142068
 11
219.3065288932
 21
-65.7175862240
  0
LINE
  8
3
  6
CONTINUOUS
 62
7
 10
206.3770931530
 20
-65.7518542160
 11
208.4505791716
 21
-68.0117435628
  0
ARC
  8
3
  6
CONTINUOUS
 62
7
 10
209.5558423295
 20
-66.9976462539
 40
1.5000000000
 50
222.5368983630
 51
304.6994185999
  0
ARC
  8
3
  6
CONTINUOUS
 62
7
 10
217.8854762616
 20
-65.2373681296
 40
1.5000000000
 50
259.1657616991
 51
341.3282819360
  0
ARC
  8
3
  6
CONTINUOUS
 62
7
 10
219.3410440608
 20
-62.4918688104
 40
1.0000000000
 50
341.3282819360
 51
75.4243256941
  0
ARC
  8
3
  6
CONTINUOUS
 62
7
 10
207.1139352582
 20
-65.0757893434
 40
1.0000000000
 50
128.4408546048
 51
222.5368983630
  0
TEXT
  8
3
  6
CONTINUOUS
 62
7
 10
213.067825
 20
-73.041294
 40
4.500000
  1
15
 41
0.854701
 50
0.000000
 51
0.000000
 72
   5
 73
   0
 11
217.567825
 21
-73.041294
  0
TEXT
  8
3
  6
CONTINUOUS
 62
7
 10
214.567825
 20
-76.041294
 40
3.000000
  1
A
 41
1.000000
 50
0.000000
 51
0.000000
 72
   5
 73
   0
 11
216.067825
 21
-76.041294
  0
TEXT
  8
3
  6
CONTINUOUS
 62
7
 10
212.692825
 20
-79.967052
 40
3.500000
  1
125
 41
0.815217
 50
0.000000
 51
0.000000
 72
   5
 73
   0
 11
217.942825
 21
-79.967052
  0
TEXT
  8
3
  6
CONTINUOUS
 62
7
 10
214.567825
 20
-82.648797
 40
3.000000
  1
V
 41
1.000000
 50
0.000000
 51
0.000000
 72
   5
 73
   0
 11
216.067825
 21
-82.648797
  0
INSERT
  8
3
  6
CONTINUOUS
 62
7
  2
S2
 10
204.5996856920
 20
-68.2146259502
  0
ARC
  8
3
  6
CONTINUOUS
 62
7
 10
199.8178253186
 20
-57.5412942482
 40
6.0000000000
 50
90.0000000000
 51
180.0000000000
  0
ARC
  8
3
  6
CONTINUOUS
 62
7
 10
230.8178253186
 20
-57.5412942482
 40
6.0000000000
 50
0.0000000000
 51
90.0000000000
  0
ARC
  8
3
  6
CONTINUOUS
 62
7
 10
230.8178253186
 20
-88.5412942482
 40
6.0000000000
 50
270.0000000000
 51
0.0000000000
  0
ARC
  8
3
  6
CONTINUOUS
 62
7
 10
199.8178253186
 20
-88.5412942482
 40
6.0000000000
 50
180.0000000000
 51
270.0000000000
  0
LINE
  8
5
  6
CONTINUOUS
 62
6
 10
312.9235759729
 20
271.9463679840
 11
312.9235759729
 21
276.9463679840
  0
LINE
  8
5
  6
CONTINUOUS
 62
6
 10
312.9235759729
 20
276.9463679840
 11
317.9235759729
 21
276.9463679840
  0
LINE
  8
5
  6
CONTINUOUS
 62
6
 10
317.9235759729
 20
276.9463679840
 11
337.9235759729
 21
276.9463679840
  0
LINE
  8
5
  6
CONTINUOUS
 62
6
 10
337.9235759729
 20
276.9463679840
 11
377.9235759729
 21
276.9463679840
  0
LINE
  8
5
  6
CONTINUOUS
 62
6
 10
377.9235759729
 20
276.9463679840
 11
392.9235759729
 21
276.9463679840
  0
LINE
  8
5
  6
CONTINUOUS
 62
6
 10
392.9235759729
 20
276.9463679840
 11
397.9235759729
 21
276.9463679840
  0
LINE
  8
5
  6
CONTINUOUS
 62
6
 10
397.9235759729
 20
276.9463679840
 11
397.9235759729
 21
271.9463679840
  0
LINE
  8
5
  6
CONTINUOUS
 62
6
 10
397.9235759729
 20
271.9463679840
 11
392.9235759729
 21
271.9463679840
  0
LINE
  8
5
  6
CONTINUOUS
 62
6
 10
392.9235759729
 20
271.9463679840
 11
377.9235759729
 21
271.9463679840
  0
LINE
  8
5
  6
CONTINUOUS
 62
6
 10
377.9235759729
 20
271.9463679840
 11
337.9235759729
 21
271.9463679840
  0
LINE
  8
5
  6
CONTINUOUS
 62
6
 10
337.9235759729
 20
271.9463679840
 11
317.9235759729
 21
271.9463679840
  0
LINE
  8
5
  6
CONTINUOUS
 62
6
 10
317.9235759729
 20
271.9463679840
 11
312.9235759729
 21
271.9463679840
  0
LINE
  8
5
  6
CONTINUOUS
 62
6
 10
317.9235759729
 20
276.9463679840
 11
317.9235759729
 21
271.9463679840
  0
LINE
  8
5
  6
CONTINUOUS
 62
6
 10
337.9235759729
 20
276.9463679840
 11
337.9235759729
 21
271.9463679840
  0
LINE
  8
5
  6
CONTINUOUS
 62
6
 10
377.9235759729
 20
276.9463679840
 11
377.9235759729
 21
271.9463679840
  0
LINE
  8
5
  6
CONTINUOUS
 62
6
 10
392.9235759729
 20
276.9463679840
 11
392.9235759729
 21
271.9463679840
  0
TEXT
  8
5
  6
CONTINUOUS
 62
7
 10
313.123576
 20
273.296368
 40
2.300000
  1
項番
 41
0.921659
 50
0.000000
 51
0.000000
 72
   5
 73
   0
 11
317.723576
 21
273.296368
  0
TEXT
  8
5
  6
CONTINUOUS
 62
7
 10
322.931576
 20
272.946368
 40
3.000000
  1
品　　名
 41
0.737916
 50
0.000000
 51
0.000000
 72
   5
 73
   0
 11
332.915576
 21
272.946368
  0
TEXT
  8
5
  6
CONTINUOUS
 62
7
 10
342.770576
 20
272.946368
 40
3.000000
  1
定  格 / 型  番 / 材　質
 41
0.686277
 50
0.000000
 51
0.000000
 72
   5
 73
   0
 11
373.076576
 21
272.946368
  0
TEXT
  8
5
  6
CONTINUOUS
 62
7
 10
380.226076
 20
272.946368
 40
3.000000
  1
メーカー
 41
0.768293
 50
0.000000
 51
0.000000
 72
   5
 73
   0
 11
390.621076
 21
272.946368
  0
TEXT
  8
5
  6
CONTINUOUS
 62
7
 10
393.123576
 20
273.296368
 40
2.300000
  1
数量
 41
0.921659
 50
0.000000
 51
0.000000
 72
   5
 73
   0
 11
397.723576
 21
273.296368
  0
LINE
  8
5
  6
CONTINUOUS
 62
6
 10
312.9235759729
 20
266.9463679840
 11
312.9235759729
 21
271.9463679840
  0
LINE
  8
5
  6
CONTINUOUS
 62
6
 10
312.9235759729
 20
271.9463679840
 11
317.9235759729
 21
271.9463679840
  0
LINE
  8
5
  6
CONTINUOUS
 62
6
 10
317.9235759729
 20
271.9463679840
 11
337.9235759729
 21
271.9463679840
  0
LINE
  8
5
  6
CONTINUOUS
 62
6
 10
337.9235759729
 20
271.9463679840
 11
377.9235759729
 21
271.9463679840
  0
LINE
  8
5
  6
CONTINUOUS
 62
6
 10
377.9235759729
 20
271.9463679840
 11
392.9235759729
 21
271.9463679840
  0
LINE
  8
5
  6
CONTINUOUS
 62
6
 10
392.9235759729
 20
271.9463679840
 11
397.9235759729
 21
271.9463679840
  0
LINE
  8
5
  6
CONTINUOUS
 62
6
 10
397.9235759729
 20
271.9463679840
 11
397.9235759729
 21
266.9463679840
  0
LINE
  8
5
  6
CONTINUOUS
 62
6
 10
397.9235759729
 20
266.9463679840
 11
392.9235759729
 21
266.9463679840
  0
LINE
  8
5
  6
CONTINUOUS
 62
6
 10
392.9235759729
 20
266.9463679840
 11
377.9235759729
 21
266.9463679840
  0
LINE
  8
5
  6
CONTINUOUS
 62
6
 10
337.9235759729
 20
266.9463679840
 11
317.9235759729
 21
266.9463679840
  0
LINE
  8
5
  6
CONTINUOUS
 62
6
 10
317.9235759729
 20
266.9463679840
 11
312.9235759729
 21
266.9463679840
  0
LINE
  8
5
  6
CONTINUOUS
 62
6
 10
317.9235759729
 20
271.9463679840
 11
317.9235759729
 21
266.9463679840
  0
LINE
  8
5
  6
CONTINUOUS
 62
6
 10
337.9235759729
 20
271.9463679840
 11
337.9235759729
 21
266.9463679840
  0
LINE
  8
5
  6
CONTINUOUS
 62
6
 10
377.9235759729
 20
271.9463679840
 11
377.9235759729
 21
266.9463679840
  0
LINE
  8
5
  6
CONTINUOUS
 62
6
 10
392.9235759729
 20
271.9463679840
 11
392.9235759729
 21
266.9463679840
  0
TEXT
  8
5
  6
CONTINUOUS
 62
7
 10
314.548576
 20
267.696368
 40
3.500000
  1
1
 41
1.000000
 50
0.000000
 51
0.000000
 72
   5
 73
   0
 11
316.298576
 21
267.696368
  0
TEXT
  8
5
  6
CONTINUOUS
 62
7
 10
318.923576
 20
267.946368
 40
3.000000
  1
ベース
 41
0.841018
 50
0.000000
 51
0.000000
 72
   5
 73
   0
 11
327.350576
 21
267.946368
  0
TEXT
  8
5
  6
CONTINUOUS
 62
7
 10
394.548576
 20
267.696368
 40
3.500000
  1
1
 41
1.000000
 50
0.000000
 51
0.000000
 72
   5
 73
   0
 11
396.298576
 21
267.696368
  0
LINE
  8
5
  6
CONTINUOUS
 62
6
 10
397.9235759729
 20
261.9463679840
 11
392.9235759729
 21
261.9463679840
  0
LINE
  8
5
  6
CONTINUOUS
 62
6
 10
397.9235759729
 20
256.9463679840
 11
392.9235759729
 21
256.9463679840
  0
LINE
  8
5
  6
CONTINUOUS
 62
6
 10
397.9235759729
 20
251.9463679840
 11
392.9235759729
 21
251.9463679840
  0
LINE
  8
5
  6
CONTINUOUS
 62
6
 10
397.9235759729
 20
246.9463679840
 11
392.9235759729
 21
246.9463679840
  0
LINE
  8
5
  6
CONTINUOUS
 62
6
 10
397.9235759729
 20
241.9463679840
 11
392.9235759729
 21
241.9463679840
  0
LINE
  8
5
  6
CONTINUOUS
 62
6
 10
397.9235759729
 20
236.9463679840
 11
392.9235759729
 21
236.9463679840
  0
LINE
  8
5
  6
CONTINUOUS
 62
6
 10
397.9235759729
 20
231.9463679840
 11
392.9235759729
 21
231.9463679840
  0
LINE
  8
5
  6
CONTINUOUS
 62
6
 10
392.9235759729
 20
261.9463679840
 11
377.9235759729
 21
261.9463679840
  0
LINE
  8
5
  6
CONTINUOUS
 62
6
 10
392.9235759729
 20
256.9463679840
 11
377.9235759729
 21
256.9463679840
  0
LINE
  8
5
  6
CONTINUOUS
 62
6
 10
392.9235759729
 20
251.9463679840
 11
377.9235759729
 21
251.9463679840
  0
LINE
  8
5
  6
CONTINUOUS
 62
6
 10
392.9235759729
 20
246.9463679840
 11
377.9235759729
 21
246.9463679840
  0
LINE
  8
5
  6
CONTINUOUS
 62
6
 10
392.9235759729
 20
241.9463679840
 11
377.9235759729
 21
241.9463679840
  0
LINE
  8
5
  6
CONTINUOUS
 62
6
 10
392.9235759729
 20
236.9463679840
 11
377.9235759729
 21
236.9463679840
  0
LINE
  8
5
  6
CONTINUOUS
 62
6
 10
392.9235759729
 20
231.9463679840
 11
377.9235759729
 21
231.9463679840
  0
LINE
  8
5
  6
CONTINUOUS
 62
6
 10
377.9235759729
 20
261.9463679840
 11
337.9235759729
 21
261.9463679840
  0
LINE
  8
5
  6
CONTINUOUS
 62
6
 10
377.9235759729
 20
256.9463679840
 11
337.9235759729
 21
256.9463679840
  0
LINE
  8
5
  6
CONTINUOUS
 62
6
 10
377.9235759729
 20
251.9463679840
 11
337.9235759729
 21
251.9463679840
  0
LINE
  8
5
  6
CONTINUOUS
 62
6
 10
377.9235759729
 20
246.9463679840
 11
337.9235759729
 21
246.9463679840
  0
LINE
  8
5
  6
CONTINUOUS
 62
6
 10
377.9235759729
 20
241.9463679840
 11
337.9235759729
 21
241.9463679840
  0
LINE
  8
5
  6
CONTINUOUS
 62
6
 10
377.9235759729
 20
236.9463679840
 11
337.9235759729
 21
236.9463679840
  0
LINE
  8
5
  6
CONTINUOUS
 62
6
 10
377.9235759729
 20
231.9463679840
 11
337.9235759729
 21
231.9463679840
  0
LINE
  8
5
  6
CONTINUOUS
 62
6
 10
337.9235759729
 20
261.9463679840
 11
317.9235759729
 21
261.9463679840
  0
LINE
  8
5
  6
CONTINUOUS
 62
6
 10
337.9235759729
 20
256.9463679840
 11
317.9235759729
 21
256.9463679840
  0
LINE
  8
5
  6
CONTINUOUS
 62
6
 10
337.9235759729
 20
251.9463679840
 11
317.9235759729
 21
251.9463679840
  0
LINE
  8
5
  6
CONTINUOUS
 62
6
 10
337.9235759729
 20
246.9463679840
 11
317.9235759729
 21
246.9463679840
  0
LINE
  8
5
  6
CONTINUOUS
 62
6
 10
337.9235759729
 20
241.9463679840
 11
317.9235759729
 21
241.9463679840
  0
LINE
  8
5
  6
CONTINUOUS
 62
6
 10
337.9235759729
 20
236.9463679840
 11
317.9235759729
 21
236.9463679840
  0
LINE
  8
5
  6
CONTINUOUS
 62
6
 10
337.9235759729
 20
231.9463679840
 11
317.9235759729
 21
231.9463679840
  0
LINE
  8
5
  6
CONTINUOUS
 62
6
 10
317.9235759729
 20
261.9463679840
 11
312.9235759729
 21
261.9463679840
  0
LINE
  8
5
  6
CONTINUOUS
 62
6
 10
317.9235759729
 20
256.9463679840
 11
312.9235759729
 21
256.9463679840
  0
LINE
  8
5
  6
CONTINUOUS
 62
6
 10
317.9235759729
 20
251.9463679840
 11
312.9235759729
 21
251.9463679840
  0
LINE
  8
5
  6
CONTINUOUS
 62
6
 10
317.9235759729
 20
246.9463679840
 11
312.9235759729
 21
246.9463679840
  0
LINE
  8
5
  6
CONTINUOUS
 62
6
 10
317.9235759729
 20
241.9463679840
 11
312.9235759729
 21
241.9463679840
  0
LINE
  8
5
  6
CONTINUOUS
 62
6
 10
317.9235759729
 20
236.9463679840
 11
312.9235759729
 21
236.9463679840
  0
LINE
  8
5
  6
CONTINUOUS
 62
6
 10
317.9235759729
 20
231.9463679840
 11
312.9235759729
 21
231.9463679840
  0
TEXT
  8
5
  6
CONTINUOUS
 62
7
 10
314.548576
 20
262.696368
 40
3.500000
  1
2
 41
1.000000
 50
0.000000
 51
0.000000
 72
   5
 73
   0
 11
316.298576
 21
262.696368
  0
TEXT
  8
5
  6
CONTINUOUS
 62
7
 10
314.548576
 20
257.696368
 40
3.500000
  1
3
 41
1.000000
 50
0.000000
 51
0.000000
 72
   5
 73
   0
 11
316.298576
 21
257.696368
  0
TEXT
  8
5
  6
CONTINUOUS
 62
7
 10
314.548576
 20
252.696368
 40
3.500000
  1
4
 41
1.000000
 50
0.000000
 51
0.000000
 72
   5
 73
   0
 11
316.298576
 21
252.696368
  0
TEXT
  8
5
  6
CONTINUOUS
 62
7
 10
314.548576
 20
247.696368
 40
3.500000
  1
5
 41
1.000000
 50
0.000000
 51
0.000000
 72
   5
 73
   0
 11
316.298576
 21
247.696368
  0
TEXT
  8
5
  6
CONTINUOUS
 62
7
 10
314.548576
 20
242.696368
 40
3.500000
  1
6
 41
1.000000
 50
0.000000
 51
0.000000
 72
   5
 73
   0
 11
316.298576
 21
242.696368
  0
TEXT
  8
5
  6
CONTINUOUS
 62
7
 10
314.548576
 20
237.696368
 40
3.500000
  1
7
 41
1.000000
 50
0.000000
 51
0.000000
 72
   5
 73
   0
 11
316.298576
 21
237.696368
  0
TEXT
  8
5
  6
CONTINUOUS
 62
7
 10
314.548576
 20
232.696368
 40
3.500000
  1
8
 41
1.000000
 50
0.000000
 51
0.000000
 72
   5
 73
   0
 11
316.298576
 21
232.696368
  0
TEXT
  8
5
  6
CONTINUOUS
 62
7
 10
318.923576
 20
262.946368
 40
3.000000
  1
カバー
 41
0.833832
 50
0.000000
 51
0.000000
 72
   5
 73
   0
 11
327.278576
 21
262.946368
  0
TEXT
  8
5
  6
CONTINUOUS
 62
7
 10
318.923576
 20
257.946368
 40
3.000000
  1
ロック
 41
0.719162
 50
0.000000
 51
0.000000
 72
   5
 73
   0
 11
326.129576
 21
257.946368
  0
TEXT
  8
5
  6
CONTINUOUS
 62
7
 10
318.923576
 20
252.946368
 40
3.000000
  1
添付品ﾋﾞｽ
 41
0.822804
 50
0.000000
 51
0.000000
 72
   5
 73
   0
 11
332.129576
 21
252.946368
  0
TEXT
  8
5
  6
CONTINUOUS
 62
7
 10
318.923576
 20
242.946368
 40
3.000000
  1
添付品ﾋﾞｽ
 41
0.822804
 50
0.000000
 51
0.000000
 72
   5
 73
   0
 11
332.129576
 21
242.946368
  0
TEXT
  8
5
  6
CONTINUOUS
 62
7
 10
318.923576
 20
237.946368
 40
3.000000
  1
添付品ﾋﾞｽ
 41
0.822804
 50
0.000000
 51
0.000000
 72
   5
 73
   0
 11
332.129576
 21
237.946368
  0
TEXT
  8
5
  6
CONTINUOUS
 62
7
 10
338.923576
 20
257.946368
 40
3.000000
  1
M4×20 脱落防止ビス
 41
0.819085
 50
0.000000
 51
0.000000
 72
   5
 73
   0
 11
366.862576
 21
257.946368
  0
TEXT
  8
5
  6
CONTINUOUS
 62
7
 10
338.923576
 20
252.946368
 40
3.000000
  1
M3×8小ワｾﾑｽ(ﾍﾞｰｽ固定用)
 41
0.831095
 50
0.000000
 51
0.000000
 72
   5
 73
   0
 11
376.048576
 21
252.946368
  0
TEXT
  8
5
  6
CONTINUOUS
 62
7
 10
338.923576
 20
242.946368
 40
3.000000
  1
M5×10ｱﾌﾞｾｯﾄ
 41
0.813247
 50
0.000000
 51
0.000000
 72
   5
 73
   0
 11
357.709576
 21
242.946368
  0
TEXT
  8
5
  6
CONTINUOUS
 62
7
 10
338.923576
 20
237.946368
 40
3.000000
  1
M5 内歯菊座金
 41
0.851365
 50
0.000000
 51
0.000000
 72
   5
 73
   0
 11
358.564576
 21
237.946368
  0
TEXT
  8
5
  6
CONTINUOUS
 62
7
 10
394.548576
 20
262.696368
 40
3.500000
  1
1
 41
1.000000
 50
0.000000
 51
0.000000
 72
   5
 73
   0
 11
396.298576
 21
262.696368
  0
TEXT
  8
5
  6
CONTINUOUS
 62
7
 10
394.548576
 20
257.696368
 40
3.500000
  1
1
 41
1.000000
 50
0.000000
 51
0.000000
 72
   5
 73
   0
 11
396.298576
 21
257.696368
  0
TEXT
  8
5
  6
CONTINUOUS
 62
7
 10
394.548576
 20
252.696368
 40
3.500000
  1
4
 41
1.000000
 50
0.000000
 51
0.000000
 72
   5
 73
   0
 11
396.298576
 21
252.696368
  0
TEXT
  8
5
  6
CONTINUOUS
 62
7
 10
394.548576
 20
242.696368
 40
3.500000
  1
1
 41
1.000000
 50
0.000000
 51
0.000000
 72
   5
 73
   0
 11
396.298576
 21
242.696368
  0
TEXT
  8
5
  6
CONTINUOUS
 62
7
 10
394.548576
 20
237.696368
 40
3.500000
  1
1
 41
1.000000
 50
0.000000
 51
0.000000
 72
   5
 73
   0
 11
396.298576
 21
237.696368
  0
LINE
  8
5
  6
CONTINUOUS
 62
6
 10
312.9235759729
 20
261.9463679840
 11
312.9235759729
 21
266.9463679840
  0
LINE
  8
5
  6
CONTINUOUS
 62
6
 10
312.9235759729
 20
256.9463679840
 11
312.9235759729
 21
261.9463679840
  0
LINE
  8
5
  6
CONTINUOUS
 62
6
 10
312.9235759729
 20
251.9463679840
 11
312.9235759729
 21
256.9463679840
  0
LINE
  8
5
  6
CONTINUOUS
 62
6
 10
312.9235759729
 20
246.9463679840
 11
312.9235759729
 21
251.9463679840
  0
LINE
  8
5
  6
CONTINUOUS
 62
6
 10
312.9235759729
 20
241.9463679840
 11
312.9235759729
 21
246.9463679840
  0
LINE
  8
5
  6
CONTINUOUS
 62
6
 10
312.9235759729
 20
236.9463679840
 11
312.9235759729
 21
241.9463679840
  0
LINE
  8
5
  6
CONTINUOUS
 62
6
 10
312.9235759729
 20
231.9463679840
 11
312.9235759729
 21
236.9463679840
  0
LINE
  8
5
  6
CONTINUOUS
 62
6
 10
317.9235759729
 20
266.9463679840
 11
317.9235759729
 21
261.9463679840
  0
LINE
  8
5
  6
CONTINUOUS
 62
6
 10
317.9235759729
 20
261.9463679840
 11
317.9235759729
 21
256.9463679840
  0
LINE
  8
5
  6
CONTINUOUS
 62
6
 10
317.9235759729
 20
256.9463679840
 11
317.9235759729
 21
251.9463679840
  0
LINE
  8
5
  6
CONTINUOUS
 62
6
 10
317.9235759729
 20
251.9463679840
 11
317.9235759729
 21
246.9463679840
  0
LINE
  8
5
  6
CONTINUOUS
 62
6
 10
317.9235759729
 20
246.9463679840
 11
317.9235759729
 21
241.9463679840
  0
LINE
  8
5
  6
CONTINUOUS
 62
6
 10
317.9235759729
 20
241.9463679840
 11
317.9235759729
 21
236.9463679840
  0
LINE
  8
5
  6
CONTINUOUS
 62
6
 10
317.9235759729
 20
236.9463679840
 11
317.9235759729
 21
231.9463679840
  0
LINE
  8
5
  6
CONTINUOUS
 62
6
 10
337.9235759729
 20
266.9463679840
 11
337.9235759729
 21
261.9463679840
  0
LINE
  8
5
  6
CONTINUOUS
 62
6
 10
337.9235759729
 20
261.9463679840
 11
337.9235759729
 21
256.9463679840
  0
LINE
  8
5
  6
CONTINUOUS
 62
6
 10
337.9235759729
 20
256.9463679840
 11
337.9235759729
 21
251.9463679840
  0
LINE
  8
5
  6
CONTINUOUS
 62
6
 10
337.9235759729
 20
251.9463679840
 11
337.9235759729
 21
246.9463679840
  0
LINE
  8
5
  6
CONTINUOUS
 62
6
 10
337.9235759729
 20
246.9463679840
 11
337.9235759729
 21
241.9463679840
  0
LINE
  8
5
  6
CONTINUOUS
 62
6
 10
337.9235759729
 20
241.9463679840
 11
337.9235759729
 21
236.9463679840
  0
LINE
  8
5
  6
CONTINUOUS
 62
6
 10
337.9235759729
 20
236.9463679840
 11
337.9235759729
 21
231.9463679840
  0
LINE
  8
5
  6
CONTINUOUS
 62
6
 10
377.9235759729
 20
266.9463679840
 11
377.9235759729
 21
261.9463679840
  0
LINE
  8
5
  6
CONTINUOUS
 62
6
 10
377.9235759729
 20
261.9463679840
 11
377.9235759729
 21
256.9463679840
  0
LINE
  8
5
  6
CONTINUOUS
 62
6
 10
377.9235759729
 20
251.9463679840
 11
377.9235759729
 21
246.9463679840
  0
LINE
  8
5
  6
CONTINUOUS
 62
6
 10
377.9235759729
 20
246.9463679840
 11
377.9235759729
 21
241.9463679840
  0
LINE
  8
5
  6
CONTINUOUS
 62
6
 10
377.9235759729
 20
241.9463679840
 11
377.9235759729
 21
236.9463679840
  0
LINE
  8
5
  6
CONTINUOUS
 62
6
 10
377.9235759729
 20
236.9463679840
 11
377.9235759729
 21
231.9463679840
  0
LINE
  8
5
  6
CONTINUOUS
 62
6
 10
392.9235759729
 20
266.9463679840
 11
392.9235759729
 21
261.9463679840
  0
LINE
  8
5
  6
CONTINUOUS
 62
6
 10
392.9235759729
 20
261.9463679840
 11
392.9235759729
 21
256.9463679840
  0
LINE
  8
5
  6
CONTINUOUS
 62
6
 10
392.9235759729
 20
256.9463679840
 11
392.9235759729
 21
251.9463679840
  0
LINE
  8
5
  6
CONTINUOUS
 62
6
 10
392.9235759729
 20
251.9463679840
 11
392.9235759729
 21
246.9463679840
  0
LINE
  8
5
  6
CONTINUOUS
 62
6
 10
392.9235759729
 20
246.9463679840
 11
392.9235759729
 21
241.9463679840
  0
LINE
  8
5
  6
CONTINUOUS
 62
6
 10
392.9235759729
 20
241.9463679840
 11
392.9235759729
 21
236.9463679840
  0
LINE
  8
5
  6
CONTINUOUS
 62
6
 10
392.9235759729
 20
236.9463679840
 11
392.9235759729
 21
231.9463679840
  0
LINE
  8
5
  6
CONTINUOUS
 62
6
 10
397.9235759729
 20
266.9463679840
 11
397.9235759729
 21
261.9463679840
  0
LINE
  8
5
  6
CONTINUOUS
 62
6
 10
397.9235759729
 20
261.9463679840
 11
397.9235759729
 21
256.9463679840
  0
LINE
  8
5
  6
CONTINUOUS
 62
6
 10
397.9235759729
 20
256.9463679840
 11
397.9235759729
 21
251.9463679840
  0
LINE
  8
5
  6
CONTINUOUS
 62
6
 10
397.9235759729
 20
251.9463679840
 11
397.9235759729
 21
246.9463679840
  0
LINE
  8
5
  6
CONTINUOUS
 62
6
 10
397.9235759729
 20
246.9463679840
 11
397.9235759729
 21
241.9463679840
  0
LINE
  8
5
  6
CONTINUOUS
 62
6
 10
397.9235759729
 20
241.9463679840
 11
397.9235759729
 21
236.9463679840
  0
LINE
  8
5
  6
CONTINUOUS
 62
6
 10
397.9235759729
 20
236.9463679840
 11
397.9235759729
 21
231.9463679840
  0
LINE
  8
5
  6
CONTINUOUS
 62
6
 10
13.5000000000
 20
254.5000000000
 11
13.5000000000
 21
279.5000000000
  0
LINE
  8
5
  6
CONTINUOUS
 62
6
 10
25.5000000000
 20
254.5000000000
 11
25.5000000000
 21
279.5000000000
  0
LINE
  8
5
  6
CONTINUOUS
 62
6
 10
90.0000000000
 20
254.5000000000
 11
90.0000000000
 21
279.5000000000
  0
LINE
  8
5
  6
CONTINUOUS
 62
6
 10
99.0000000000
 20
279.5000000000
 11
99.0000000000
 21
254.5000000000
  0
TEXT
  8
5
  6
CONTINUOUS
 62
6
 10
16.534500
 20
255.500000
 40
3.000000
  1
Date
 41
0.787649
 50
0.000000
 51
0.000000
 72
   5
 73
   0
 11
22.465500
 21
255.500000
  0
TEXT
  8
5
  6
CONTINUOUS
 62
6
 10
6.292500
 20
255.500000
 40
3.000000
  1
Rev.
 41
0.719124
 50
0.000000
 51
0.000000
 72
   5
 73
   0
 11
11.707500
 21
255.500000
  0
TEXT
  8
5
  6
CONTINUOUS
 62
6
 10
27.000000
 20
255.500000
 40
3.000000
  1
Content
 41
0.746681
 50
0.000000
 51
0.000000
 72
   5
 73
   0
 11
37.125000
 21
255.500000
  0
TEXT
  8
5
  6
CONTINUOUS
 62
6
 10
90.972000
 20
255.500000
 40
3.000000
  1
Name
 41
0.937052
 50
0.000000
 51
0.000000
 72
   5
 73
   0
 11
98.028000
 21
255.500000
  0
LINE
  8
5
  6
CONTINUOUS
 62
6
 10
4.5000000000
 20
259.5000000000
 11
99.0000000000
 21
259.5000000000
  0
LINE
  8
5
  6
CONTINUOUS
 62
6
 10
4.5000000000
 20
264.5000000000
 11
99.0000000000
 21
264.5000000000
  0
LINE
  8
5
  6
CONTINUOUS
 62
6
 10
4.5000000000
 20
269.5000000000
 11
99.0000000000
 21
269.5000000000
  0
LINE
  8
5
  6
CONTINUOUS
 62
6
 10
4.5000000000
 20
274.5000000000
 11
99.0000000000
 21
274.5000000000
  0
LINE
  8
5
  6
CONTINUOUS
 62
6
 10
4.5000000000
 20
254.5000000000
 11
99.0000000000
 21
254.5000000000
  0
POINT
  8
5
  6
CONTINUOUS
 62
6
 10
9.0000000000
 20
262.0000000000
  0
POINT
  8
5
  6
CONTINUOUS
 62
6
 10
9.0000000000
 20
267.0000000000
  0
POINT
  8
5
  6
CONTINUOUS
 62
6
 10
9.0000000000
 20
272.0000000000
  0
POINT
  8
5
  6
CONTINUOUS
 62
6
 10
9.0000000000
 20
277.0000000000
  0
POINT
  8
5
  6
CONTINUOUS
 62
6
 10
19.5000000000
 20
277.0000000000
  0
POINT
  8
5
  6
CONTINUOUS
 62
6
 10
19.5000000000
 20
272.0000000000
  0
POINT
  8
5
  6
CONTINUOUS
 62
6
 10
19.5000000000
 20
267.0000000000
  0
POINT
  8
5
  6
CONTINUOUS
 62
6
 10
19.5000000000
 20
262.0000000000
  0
POINT
  8
5
  6
CONTINUOUS
 62
6
 10
94.5000000000
 20
262.0000000000
  0
POINT
  8
5
  6
CONTINUOUS
 62
6
 10
94.5000000000
 20
267.0000000000
  0
POINT
  8
5
  6
CONTINUOUS
 62
6
 10
94.5000000000
 20
272.0000000000
  0
POINT
  8
5
  6
CONTINUOUS
 62
6
 10
94.5000000000
 20
277.0000000000
  0
POINT
  8
5
  6
CONTINUOUS
 62
6
 10
25.5000000000
 20
277.0000000000
  0
POINT
  8
5
  6
CONTINUOUS
 62
6
 10
25.5000000000
 20
272.0000000000
  0
POINT
  8
5
  6
CONTINUOUS
 62
6
 10
25.5000000000
 20
267.0000000000
  0
POINT
  8
5
  6
CONTINUOUS
 62
6
 10
25.5000000000
 20
262.0000000000
  0
INSERT
  8
1
  6
CONTINUOUS
 62
5
  2
BALN0
 10
65.1092980532
 20
67.0636039311
  0
TEXT
  8
5
  6
CONTINUOUS
 62
7
 10
338.923576
 20
247.946368
 40
3.000000
  1
M4×8小ワｾﾑｽ(ﾊﾟﾈﾙ固定用)
 41
0.833177
 50
0.000000
 51
0.000000
 72
   5
 73
   0
 11
376.141576
 21
247.946368
  0
TEXT
  8
5
  6
CONTINUOUS
 62
7
 10
318.923576
 20
247.946368
 40
3.000000
  1
添付品ﾋﾞｽ
 41
0.822804
 50
0.000000
 51
0.000000
 72
   5
 73
   0
 11
332.129576
 21
247.946368
  0
TEXT
  8
5
  6
CONTINUOUS
 62
7
 10
394.548576
 20
247.696368
 40
3.500000
  1
2
 41
1.000000
 50
0.000000
 51
0.000000
 72
   5
 73
   0
 11
396.298576
 21
247.696368
  0
LINE
  8
5
  6
CONTINUOUS
 62
6
 10
377.9235759729
 20
256.9463679840
 11
377.9235759729
 21
251.9463679840
  0
CIRCLE
  8
3
  6
CONTINUOUS
 62
5
 10
225.5302650331
 20
-79.9778407884
 40
1.5000000000
  0
TEXT
  8
3
  6
CONTINUOUS
 62
5
 10
224.905265
 20
-81.227841
 40
2.500000
  1
N
 41
1.000000
 50
0.000000
 51
0.000000
 72
   5
 73
   0
 11
226.155265
 21
-81.227841
  0
LINE
  8
3
  6
CONTINUOUS
 62
7
 10
221.1605182328
 20
77.8525214539
 11
221.1605182328
 21
199.8525214535
  0
LINE
  8
3
  6
CONTINUOUS
 62
7
 10
221.1605182328
 20
199.8525214535
 11
220.1605182328
 21
200.8525214535
  0
LINE
  8
3
  6
CONTINUOUS
 62
7
 10
220.1605182328
 20
200.8525214535
 11
167.6605182328
 21
200.8525214539
  0
LINE
  8
3
  6
CONTINUOUS
 62
7
 10
167.6605182328
 20
200.8525214539
 11
166.6605182328
 21
199.8525214539
  0
LINE
  8
3
  6
CONTINUOUS
 62
7
 10
166.6605182328
 20
77.8525214535
 11
166.6605182328
 21
199.8525214539
  0
LINE
  8
3
  6
CONTINUOUS
 62
7
 10
167.6605182328
 20
76.8525214535
 11
166.6605182328
 21
77.8525214535
  0
LINE
  8
3
  6
CONTINUOUS
 62
7
 10
220.1605182328
 20
76.8525214539
 11
167.6605182328
 21
76.8525214535
  0
LINE
  8
3
  6
CONTINUOUS
 62
7
 10
221.1605182328
 20
77.8525214539
 11
220.1605182328
 21
76.8525214539
  0
DIMENSION
  8
1
  6
CONTINUOUS
 62
5
  2
*D6
 10
142.4822443727
 20
88.0542751045
 11
140.9380756799
 21
91.4348139740
  70
3
 15
144.4500489552
 25
92.6507678028
  0
TEXT
  8
5
  6
CONTINUOUS
 62
7
 10
318.923576
 20
232.946368
 40
3.000000
  1
パネル
 41
0.877246
 50
0.000000
 51
0.000000
 72
   5
 73
   0
 11
327.713576
 21
232.946368
  0
TEXT
  8
5
  6
CONTINUOUS
 62
7
 10
338.923576
 20
232.696368
 40
3.500000
  1
M0051B059B(SPCCt=1.6)
 41
0.771727
 50
0.000000
 51
0.000000
 72
   5
 73
   0
 11
376.468076
 21
232.696368
  0
TEXT
  8
5
  6
CONTINUOUS
 62
7
 10
394.548576
 20
232.696368
 40
3.500000
  1
1
 41
1.000000
 50
0.000000
 51
0.000000
 72
   5
 73
   0
 11
396.298576
 21
232.696368
  0
TEXT
  8
5
  6
CONTINUOUS
 62
7
 10
378.923576
 20
267.946368
 40
3.000000
  1
MADOKA
 41
1.028831
 50
0.000000
 51
0.000000
 72
   5
 73
   0
 11
390.806576
 21
267.946368
  0
TEXT
  8
5
  6
CONTINUOUS
 62
7
 10
378.923576
 20
262.946368
 40
3.000000
  1
MADOKA
 41
1.028831
 50
0.000000
 51
0.000000
 72
   5
 73
   0
 11
390.806576
 21
262.946368
  0
TEXT
  8
5
  6
CONTINUOUS
 62
7
 10
378.923576
 20
232.946368
 40
3.000000
  1
MADOKA
 41
1.028831
 50
0.000000
 51
0.000000
 72
   5
 73
   0
 11
390.806576
 21
232.946368
  0
TEXT
  8
5
  6
CONTINUOUS
 62
7
 10
378.923576
 20
237.946368
 40
3.000000
  1
--
 41
0.854701
 50
0.000000
 51
0.000000
 72
   5
 73
   0
 11
381.923576
 21
237.946368
  0
TEXT
  8
5
  6
CONTINUOUS
 62
7
 10
378.923576
 20
242.946368
 40
3.000000
  1
--
 41
0.854701
 50
0.000000
 51
0.000000
 72
   5
 73
   0
 11
381.923576
 21
242.946368
  0
TEXT
  8
5
  6
CONTINUOUS
 62
7
 10
378.923576
 20
247.946368
 40
3.000000
  1
--
 41
0.854701
 50
0.000000
 51
0.000000
 72
   5
 73
   0
 11
381.923576
 21
247.946368
  0
TEXT
  8
5
  6
CONTINUOUS
 62
7
 10
378.923576
 20
252.946368
 40
3.000000
  1
--
 41
0.854701
 50
0.000000
 51
0.000000
 72
   5
 73
   0
 11
381.923576
 21
252.946368
  0
TEXT
  8
5
  6
CONTINUOUS
 62
7
 10
378.923576
 20
257.946368
 40
3.000000
  1
--
 41
0.854701
 50
0.000000
 51
0.000000
 72
   5
 73
   0
 11
381.923576
 21
257.946368
  0
INSERT
  8
5
  6
CONTINUOUS
 62
7
  2
S3
 10
-1.2509564999
 20
-313.9655230621
  0
TEXT
  8
5
  6
CONTINUOUS
 62
7
 10
347.402112
 20
-291.222966
 40
4.200000
  1
Panel Interface
 41
0.641296
 50
0.000000
 51
0.000000
 72
   5
 73
   0
 11
374.013312
 21
-291.222966
  0
TEXT
  8
5
  6
CONTINUOUS
 62
7
 10
347.402112
 20
-295.422966
 40
4.200000
  1
Type:MCON-001-059A*R*
 41
0.811295
 50
0.000000
 51
0.000000
 72
   5
 73
   0
 11
394.765512
 21
-295.422966
  0
TEXT
  8
5
  6
CONTINUOUS
 62
7
 10
347.402112
 20
-299.622966
 40
4.200000
  1
                      仕様図　2/2
 41
0.558184
 50
0.000000
 51
0.000000
 72
   5
 73
   0
 11
397.243512
 21
-299.622966
  0
TEXT
  8
5
  6
CONTINUOUS
 62
7
 10
291.874044
 20
-303.215523
 40
3.000000
  1
Yamada
 41
0.844156
 50
0.000000
 51
0.000000
 72
   5
 73
   0
 11
301.624044
 21
-303.215523
  0
TEXT
  8
5
  6
CONTINUOUS
 62
7
 10
302.874044
 20
-303.215523
 40
3.000000
  1
Yamada
 41
0.844156
 50
0.000000
 51
0.000000
 72
   5
 73
   0
 11
312.624044
 21
-303.215523
  0
LINE
  8
5
  6
CONTINUOUS
 62
6
 10
309.6567742348
 20
-46.5887863704
 11
309.6567742348
 21
-41.5887863704
  0
LINE
  8
5
  6
CONTINUOUS
 62
6
 10
309.6567742348
 20
-41.5887863704
 11
314.6567742348
 21
-41.5887863704
  0
LINE
  8
5
  6
CONTINUOUS
 62
6
 10
314.6567742348
 20
-41.5887863704
 11
334.6567742348
 21
-41.5887863704
  0
LINE
  8
5
  6
CONTINUOUS
 62
6
 10
334.6567742348
 20
-41.5887863704
 11
374.6567742348
 21
-41.5887863704
  0
LINE
  8
5
  6
CONTINUOUS
 62
6
 10
374.6567742348
 20
-41.5887863704
 11
389.6567742348
 21
-41.5887863704
  0
LINE
  8
5
  6
CONTINUOUS
 62
6
 10
389.6567742348
 20
-41.5887863704
 11
394.6567742348
 21
-41.5887863704
  0
LINE
  8
5
  6
CONTINUOUS
 62
6
 10
394.6567742348
 20
-41.5887863704
 11
394.6567742348
 21
-46.5887863704
  0
LINE
  8
5
  6
CONTINUOUS
 62
6
 10
394.6567742348
 20
-46.5887863704
 11
389.6567742348
 21
-46.5887863704
  0
LINE
  8
5
  6
CONTINUOUS
 62
6
 10
389.6567742348
 20
-46.5887863704
 11
374.6567742348
 21
-46.5887863704
  0
LINE
  8
5
  6
CONTINUOUS
 62
6
 10
374.6567742348
 20
-46.5887863704
 11
334.6567742348
 21
-46.5887863704
  0
LINE
  8
5
  6
CONTINUOUS
 62
6
 10
334.6567742348
 20
-46.5887863704
 11
314.6567742348
 21
-46.5887863704
  0
LINE
  8
5
  6
CONTINUOUS
 62
6
 10
314.6567742348
 20
-46.5887863704
 11
309.6567742348
 21
-46.5887863704
  0
LINE
  8
5
  6
CONTINUOUS
 62
6
 10
314.6567742348
 20
-41.5887863704
 11
314.6567742348
 21
-46.5887863704
  0
LINE
  8
5
  6
CONTINUOUS
 62
6
 10
334.6567742348
 20
-41.5887863704
 11
334.6567742348
 21
-46.5887863704
  0
LINE
  8
5
  6
CONTINUOUS
 62
6
 10
374.6567742348
 20
-41.5887863704
 11
374.6567742348
 21
-46.5887863704
  0
LINE
  8
5
  6
CONTINUOUS
 62
6
 10
389.6567742348
 20
-41.5887863704
 11
389.6567742348
 21
-46.5887863704
  0
TEXT
  8
5
  6
CONTINUOUS
 62
7
 10
309.856774
 20
-45.238786
 40
2.300000
  1
項番
 41
0.921659
 50
0.000000
 51
0.000000
 72
   5
 73
   0
 11
314.456774
 21
-45.238786
  0
TEXT
  8
5
  6
CONTINUOUS
 62
7
 10
319.664774
 20
-45.588786
 40
3.000000
  1
品　　名
 41
0.737916
 50
0.000000
 51
0.000000
 72
   5
 73
   0
 11
329.648774
 21
-45.588786
  0
TEXT
  8
5
  6
CONTINUOUS
 62
7
 10
339.503774
 20
-45.588786
 40
3.000000
  1
定  格 / 型  番 / 材　質
 41
0.686277
 50
0.000000
 51
0.000000
 72
   5
 73
   0
 11
369.809774
 21
-45.588786
  0
TEXT
  8
5
  6
CONTINUOUS
 62
7
 10
376.959274
 20
-45.588786
 40
3.000000
  1
メーカー
 41
0.768293
 50
0.000000
 51
0.000000
 72
   5
 73
   0
 11
387.354274
 21
-45.588786
  0
TEXT
  8
5
  6
CONTINUOUS
 62
7
 10
389.856774
 20
-45.238786
 40
2.300000
  1
数量
 41
0.921659
 50
0.000000
 51
0.000000
 72
   5
 73
   0
 11
394.456774
 21
-45.238786
  0
LINE
  8
5
  6
CONTINUOUS
 62
6
 10
309.6567742348
 20
-51.5887863704
 11
309.6567742348
 21
-46.5887863704
  0
LINE
  8
5
  6
CONTINUOUS
 62
6
 10
309.6567742348
 20
-46.5887863704
 11
314.6567742348
 21
-46.5887863704
  0
LINE
  8
5
  6
CONTINUOUS
 62
6
 10
314.6567742348
 20
-46.5887863704
 11
334.6567742348
 21
-46.5887863704
  0
LINE
  8
5
  6
CONTINUOUS
 62
6
 10
334.6567742348
 20
-46.5887863704
 11
374.6567742348
 21
-46.5887863704
  0
LINE
  8
5
  6
CONTINUOUS
 62
6
 10
374.6567742348
 20
-46.5887863704
 11
389.6567742348
 21
-46.5887863704
  0
LINE
  8
5
  6
CONTINUOUS
 62
6
 10
389.6567742348
 20
-46.5887863704
 11
394.6567742348
 21
-46.5887863704
  0
LINE
  8
5
  6
CONTINUOUS
 62
6
 10
394.6567742348
 20
-46.5887863704
 11
394.6567742348
 21
-51.5887863704
  0
LINE
  8
5
  6
CONTINUOUS
 62
6
 10
394.6567742348
 20
-51.5887863704
 11
389.6567742348
 21
-51.5887863704
  0
LINE
  8
5
  6
CONTINUOUS
 62
6
 10
389.6567742348
 20
-51.5887863704
 11
374.6567742348
 21
-51.5887863704
  0
LINE
  8
5
  6
CONTINUOUS
 62
6
 10
374.6567742348
 20
-51.5887863704
 11
334.6567742348
 21
-51.5887863704
  0
LINE
  8
5
  6
CONTINUOUS
 62
6
 10
334.6567742348
 20
-51.5887863704
 11
314.6567742348
 21
-51.5887863704
  0
LINE
  8
5
  6
CONTINUOUS
 62
6
 10
314.6567742348
 20
-51.5887863704
 11
309.6567742348
 21
-51.5887863704
  0
LINE
  8
5
  6
CONTINUOUS
 62
6
 10
314.6567742348
 20
-46.5887863704
 11
314.6567742348
 21
-51.5887863704
  0
LINE
  8
5
  6
CONTINUOUS
 62
6
 10
334.6567742348
 20
-46.5887863704
 11
334.6567742348
 21
-51.5887863704
  0
LINE
  8
5
  6
CONTINUOUS
 62
6
 10
374.6567742348
 20
-46.5887863704
 11
374.6567742348
 21
-51.5887863704
  0
LINE
  8
5
  6
CONTINUOUS
 62
6
 10
389.6567742348
 20
-46.5887863704
 11
389.6567742348
 21
-51.5887863704
  0
TEXT
  8
5
  6
CONTINUOUS
 62
7
 10
310.656774
 20
-50.588786
 40
3.000000
  1
91
 41
0.854701
 50
0.000000
 51
0.000000
 72
   5
 73
   0
 11
313.656774
 21
-50.588786
  0
TEXT
  8
5
  6
CONTINUOUS
 62
7
 10
315.656774
 20
-50.588786
 40
3.000000
  1
ACｱｳﾄﾚｯﾄ
 41
0.872254
 50
0.000000
 51
0.000000
 72
   5
 73
   0
 11
329.237774
 21
-50.588786
  0
TEXT
  8
5
  6
CONTINUOUS
 62
7
 10
335.656774
 20
-51.088786
 40
4.000000
  1
7117G-IV
 41
0.770713
 50
0.000000
 51
0.000000
 72
   5
 73
   0
 11
351.656774
 21
-51.088786
  0
TEXT
  8
5
  6
CONTINUOUS
 62
7
 10
391.281774
 20
-50.838786
 40
3.500000
  1
1
 41
1.000000
 50
0.000000
 51
0.000000
 72
   5
 73
   0
 11
393.031774
 21
-50.838786
  0
LINE
  8
5
  6
CONTINUOUS
 62
6
 10
394.6567742348
 20
-56.5887863704
 11
389.6567742348
 21
-56.5887863704
  0
LINE
  8
5
  6
CONTINUOUS
 62
6
 10
389.6567742348
 20
-56.5887863704
 11
374.6567742348
 21
-56.5887863704
  0
LINE
  8
5
  6
CONTINUOUS
 62
6
 10
374.6567742348
 20
-56.5887863704
 11
334.6567742348
 21
-56.5887863704
  0
LINE
  8
5
  6
CONTINUOUS
 62
6
 10
334.6567742348
 20
-56.5887863704
 11
314.6567742348
 21
-56.5887863704
  0
LINE
  8
5
  6
CONTINUOUS
 62
6
 10
314.6567742348
 20
-56.5887863704
 11
309.6567742348
 21
-56.5887863704
  0
TEXT
  8
5
  6
CONTINUOUS
 62
7
 10
310.656774
 20
-60.588786
 40
3.000000
  1
--
 41
0.854701
 50
0.000000
 51
0.000000
 72
   5
 73
   0
 11
313.656774
 21
-60.588786
  0
LINE
  8
5
  6
CONTINUOUS
 62
6
 10
309.6567742348
 20
-56.5887863704
 11
309.6567742348
 21
-51.5887863704
  0
LINE
  8
5
  6
CONTINUOUS
 62
6
 10
309.6567742348
 20
-61.5887863704
 11
309.6567742348
 21
-56.5887863704
  0
LINE
  8
5
  6
CONTINUOUS
 62
6
 10
314.6567742348
 20
-51.5887863704
 11
314.6567742348
 21
-56.5887863704
  0
LINE
  8
5
  6
CONTINUOUS
 62
6
 10
314.6567742348
 20
-56.5887863704
 11
314.6567742348
 21
-61.5887863704
  0
LINE
  8
5
  6
CONTINUOUS
 62
6
 10
334.6567742348
 20
-51.5887863704
 11
334.6567742348
 21
-56.5887863704
  0
LINE
  8
5
  6
CONTINUOUS
 62
6
 10
334.6567742348
 20
-56.5887863704
 11
334.6567742348
 21
-61.5887863704
  0
LINE
  8
5
  6
CONTINUOUS
 62
6
 10
374.6567742348
 20
-51.5887863704
 11
374.6567742348
 21
-56.5887863704
  0
LINE
  8
5
  6
CONTINUOUS
 62
6
 10
374.6567742348
 20
-56.5887863704
 11
374.6567742348
 21
-61.5887863704
  0
LINE
  8
5
  6
CONTINUOUS
 62
6
 10
389.6567742348
 20
-51.5887863704
 11
389.6567742348
 21
-56.5887863704
  0
LINE
  8
5
  6
CONTINUOUS
 62
6
 10
389.6567742348
 20
-56.5887863704
 11
389.6567742348
 21
-61.5887863704
  0
LINE
  8
5
  6
CONTINUOUS
 62
6
 10
394.6567742348
 20
-51.5887863704
 11
394.6567742348
 21
-56.5887863704
  0
LINE
  8
5
  6
CONTINUOUS
 62
6
 10
394.6567742348
 20
-56.5887863704
 11
394.6567742348
 21
-61.5887863704
  0
LINE
  8
5
  6
CONTINUOUS
 62
6
 10
12.2490435001
 20
-59.4655230621
 11
12.2490435001
 21
-34.4655230621
  0
LINE
  8
5
  6
CONTINUOUS
 62
6
 10
24.2490435001
 20
-59.4655230621
 11
24.2490435001
 21
-34.4655230621
  0
LINE
  8
5
  6
CONTINUOUS
 62
6
 10
88.7490435001
 20
-59.4655230621
 11
88.7490435001
 21
-34.4655230621
  0
LINE
  8
5
  6
CONTINUOUS
 62
6
 10
97.7490435001
 20
-34.4655230621
 11
97.7490435001
 21
-59.4655230621
  0
TEXT
  8
5
  6
CONTINUOUS
 62
6
 10
15.283544
 20
-58.465523
 40
3.000000
  1
Date
 41
0.787649
 50
0.000000
 51
0.000000
 72
   5
 73
   0
 11
21.214544
 21
-58.465523
  0
TEXT
  8
5
  6
CONTINUOUS
 62
6
 10
5.041544
 20
-58.465523
 40
3.000000
  1
Rev.
 41
0.719124
 50
0.000000
 51
0.000000
 72
   5
 73
   0
 11
10.456544
 21
-58.465523
  0
TEXT
  8
5
  6
CONTINUOUS
 62
6
 10
25.749044
 20
-58.465523
 40
3.000000
  1
Content
 41
0.746681
 50
0.000000
 51
0.000000
 72
   5
 73
   0
 11
35.874044
 21
-58.465523
  0
TEXT
  8
5
  6
CONTINUOUS
 62
6
 10
89.721044
 20
-58.465523
 40
3.000000
  1
Name
 41
0.937052
 50
0.000000
 51
0.000000
 72
   5
 73
   0
 11
96.777044
 21
-58.465523
  0
LINE
  8
5
  6
CONTINUOUS
 62
6
 10
3.2490435001
 20
-54.4655230621
 11
97.7490435001
 21
-54.4655230621
  0
LINE
  8
5
  6
CONTINUOUS
 62
6
 10
3.2490435001
 20
-49.4655230621
 11
97.7490435001
 21
-49.4655230621
  0
LINE
  8
5
  6
CONTINUOUS
 62
6
 10
3.2490435001
 20
-44.4655230621
 11
97.7490435001
 21
-44.4655230621
  0
LINE
  8
5
  6
CONTINUOUS
 62
6
 10
3.2490435001
 20
-39.4655230621
 11
97.7490435001
 21
-39.4655230621
  0
LINE
  8
5
  6
CONTINUOUS
 62
6
 10
3.2490435001
 20
-59.4655230621
 11
97.7490435001
 21
-59.4655230621
  0
POINT
  8
5
  6
CONTINUOUS
 62
6
 10
7.7490435001
 20
-51.9655230621
  0
POINT
  8
5
  6
CONTINUOUS
 62
6
 10
7.7490435001
 20
-46.9655230621
  0
POINT
  8
5
  6
CONTINUOUS
 62
6
 10
7.7490435001
 20
-41.9655230621
  0
POINT
  8
5
  6
CONTINUOUS
 62
6
 10
7.7490435001
 20
-36.9655230621
  0
POINT
  8
5
  6
CONTINUOUS
 62
6
 10
18.2490435001
 20
-36.9655230621
  0
POINT
  8
5
  6
CONTINUOUS
 62
6
 10
18.2490435001
 20
-41.9655230621
  0
POINT
  8
5
  6
CONTINUOUS
 62
6
 10
18.2490435001
 20
-46.9655230621
  0
POINT
  8
5
  6
CONTINUOUS
 62
6
 10
18.2490435001
 20
-51.9655230621
  0
POINT
  8
5
  6
CONTINUOUS
 62
6
 10
93.2490435001
 20
-51.9655230621
  0
POINT
  8
5
  6
CONTINUOUS
 62
6
 10
93.2490435001
 20
-46.9655230621
  0
POINT
  8
5
  6
CONTINUOUS
 62
6
 10
93.2490435001
 20
-41.9655230621
  0
POINT
  8
5
  6
CONTINUOUS
 62
6
 10
93.2490435001
 20
-36.9655230621
  0
POINT
  8
5
  6
CONTINUOUS
 62
6
 10
24.2490435001
 20
-36.9655230621
  0
POINT
  8
5
  6
CONTINUOUS
 62
6
 10
24.2490435001
 20
-41.9655230621
  0
POINT
  8
5
  6
CONTINUOUS
 62
6
 10
24.2490435001
 20
-46.9655230621
  0
POINT
  8
5
  6
CONTINUOUS
 62
6
 10
24.2490435001
 20
-51.9655230621
  0
LINE
  8
5
  6
CONTINUOUS
 62
6
 10
299.6567742348
 20
-46.5887863704
 11
299.6567742348
 21
-41.5887863704
  0
LINE
  8
5
  6
CONTINUOUS
 62
6
 10
299.6567742348
 20
-41.5887863704
 11
309.6567742348
 21
-41.5887863704
  0
LINE
  8
5
  6
CONTINUOUS
 62
6
 10
309.6567742348
 20
-46.5887863704
 11
304.6567742348
 21
-46.5887863704
  0
LINE
  8
5
  6
CONTINUOUS
 62
6
 10
309.6567742348
 20
-41.5887863704
 11
309.6567742348
 21
-46.5887863704
  0
TEXT
  8
5
  6
CONTINUOUS
 62
7
 10
302.194993
 20
-45.588786
 40
3.000000
  1
型番
 41
0.921659
 50
0.000000
 51
0.000000
 72
   5
 73
   0
 11
308.194993
 21
-45.588786
  0
LINE
  8
5
  6
CONTINUOUS
 62
6
 10
299.6567742348
 20
-51.5887863704
 11
299.6567742348
 21
-46.5887863704
  0
LINE
  8
5
  6
CONTINUOUS
 62
6
 10
299.6567742348
 20
-46.5887863704
 11
309.6567742348
 21
-46.5887863704
  0
LINE
  8
5
  6
CONTINUOUS
 62
6
 10
309.6567742348
 20
-46.5887863704
 11
309.6567742348
 21
-51.5887863704
  0
TEXT
  8
5
  6
CONTINUOUS
 62
7
 10
303.194993
 20
-51.088786
 40
4.000000
  1
A0
 41
0.854701
 50
0.000000
 51
0.000000
 72
   5
 73
   0
 11
307.194993
 21
-51.088786
  0
LINE
  8
5
  6
CONTINUOUS
 62
6
 10
299.6567742348
 20
-56.5887863704
 11
299.6567742348
 21
-51.5887863704
  0
LINE
  8
5
  6
CONTINUOUS
 62
6
 10
299.6567742348
 20
-61.5887863704
 11
299.6567742348
 21
-56.5887863704
  0
LINE
  8
5
  6
CONTINUOUS
 62
6
 10
309.6567742348
 20
-51.5887863704
 11
309.6567742348
 21
-56.5887863704
  0
LINE
  8
5
  6
CONTINUOUS
 62
6
 10
309.6567742348
 20
-56.5887863704
 11
309.6567742348
 21
-61.5887863704
  0
LINE
  8
5
  6
CONTINUOUS
 62
6
 10
394.6567742348
 20
-61.5887863704
 11
389.6567742348
 21
-61.5887863704
  0
LINE
  8
5
  6
CONTINUOUS
 62
6
 10
389.6567742348
 20
-61.5887863704
 11
374.6567742348
 21
-61.5887863704
  0
LINE
  8
5
  6
CONTINUOUS
 62
6
 10
374.6567742348
 20
-61.5887863704
 11
334.6567742348
 21
-61.5887863704
  0
LINE
  8
5
  6
CONTINUOUS
 62
6
 10
334.6567742348
 20
-61.5887863704
 11
314.6567742348
 21
-61.5887863704
  0
LINE
  8
5
  6
CONTINUOUS
 62
6
 10
314.6567742348
 20
-61.5887863704
 11
309.6567742348
 21
-61.5887863704
  0
LINE
  8
5
  6
CONTINUOUS
 62
6
 10
309.6567742348
 20
-61.5887863704
 11
299.6567742348
 21
-61.5887863704
  0
LINE
  8
5
  6
CONTINUOUS
 62
6
 10
309.6567742348
 20
-69.0887863704
 11
309.6567742348
 21
-64.0887863704
  0
LINE
  8
5
  6
CONTINUOUS
 62
6
 10
309.6567742348
 20
-64.0887863704
 11
314.6567742348
 21
-64.0887863704
  0
LINE
  8
5
  6
CONTINUOUS
 62
6
 10
314.6567742348
 20
-64.0887863704
 11
334.6567742348
 21
-64.0887863704
  0
LINE
  8
5
  6
CONTINUOUS
 62
6
 10
334.6567742348
 20
-64.0887863704
 11
374.6567742348
 21
-64.0887863704
  0
LINE
  8
5
  6
CONTINUOUS
 62
6
 10
374.6567742348
 20
-64.0887863704
 11
389.6567742348
 21
-64.0887863704
  0
LINE
  8
5
  6
CONTINUOUS
 62
6
 10
389.6567742348
 20
-64.0887863704
 11
394.6567742348
 21
-64.0887863704
  0
LINE
  8
5
  6
CONTINUOUS
 62
6
 10
394.6567742348
 20
-64.0887863704
 11
394.6567742348
 21
-69.0887863704
  0
LINE
  8
5
  6
CONTINUOUS
 62
6
 10
394.6567742348
 20
-69.0887863704
 11
389.6567742348
 21
-69.0887863704
  0
LINE
  8
5
  6
CONTINUOUS
 62
6
 10
389.6567742348
 20
-69.0887863704
 11
374.6567742348
 21
-69.0887863704
  0
LINE
  8
5
  6
CONTINUOUS
 62
6
 10
374.6567742348
 20
-69.0887863704
 11
334.6567742348
 21
-69.0887863704
  0
LINE
  8
5
  6
CONTINUOUS
 62
6
 10
334.6567742348
 20
-69.0887863704
 11
314.6567742348
 21
-69.0887863704
  0
LINE
  8
5
  6
CONTINUOUS
 62
6
 10
314.6567742348
 20
-69.0887863704
 11
309.6567742348
 21
-69.0887863704
  0
LINE
  8
5
  6
CONTINUOUS
 62
6
 10
314.6567742348
 20
-64.0887863704
 11
314.6567742348
 21
-69.0887863704
  0
LINE
  8
5
  6
CONTINUOUS
 62
6
 10
334.6567742348
 20
-64.0887863704
 11
334.6567742348
 21
-69.0887863704
  0
LINE
  8
5
  6
CONTINUOUS
 62
6
 10
374.6567742348
 20
-64.0887863704
 11
374.6567742348
 21
-69.0887863704
  0
LINE
  8
5
  6
CONTINUOUS
 62
6
 10
389.6567742348
 20
-64.0887863704
 11
389.6567742348
 21
-69.0887863704
  0
TEXT
  8
5
  6
CONTINUOUS
 62
7
 10
309.856774
 20
-67.738786
 40
2.300000
  1
項番
 41
0.921659
 50
0.000000
 51
0.000000
 72
   5
 73
   0
 11
314.456774
 21
-67.738786
  0
TEXT
  8
5
  6
CONTINUOUS
 62
7
 10
319.664774
 20
-68.088786
 40
3.000000
  1
品　　名
 41
0.737916
 50
0.000000
 51
0.000000
 72
   5
 73
   0
 11
329.648774
 21
-68.088786
  0
TEXT
  8
5
  6
CONTINUOUS
 62
7
 10
339.503774
 20
-68.088786
 40
3.000000
  1
定  格 / 型  番 / 材　質
 41
0.686277
 50
0.000000
 51
0.000000
 72
   5
 73
   0
 11
369.809774
 21
-68.088786
  0
TEXT
  8
5
  6
CONTINUOUS
 62
7
 10
376.959274
 20
-68.088786
 40
3.000000
  1
メーカー
 41
0.768293
 50
0.000000
 51
0.000000
 72
   5
 73
   0
 11
387.354274
 21
-68.088786
  0
TEXT
  8
5
  6
CONTINUOUS
 62
7
 10
389.856774
 20
-67.738786
 40
2.300000
  1
数量
 41
0.921659
 50
0.000000
 51
0.000000
 72
   5
 73
   0
 11
394.456774
 21
-67.738786
  0
LINE
  8
5
  6
CONTINUOUS
 62
6
 10
309.6567742348
 20
-74.0887863704
 11
309.6567742348
 21
-69.0887863704
  0
LINE
  8
5
  6
CONTINUOUS
 62
6
 10
309.6567742348
 20
-69.0887863704
 11
314.6567742348
 21
-69.0887863704
  0
LINE
  8
5
  6
CONTINUOUS
 62
6
 10
314.6567742348
 20
-69.0887863704
 11
334.6567742348
 21
-69.0887863704
  0
LINE
  8
5
  6
CONTINUOUS
 62
6
 10
334.6567742348
 20
-69.0887863704
 11
374.6567742348
 21
-69.0887863704
  0
LINE
  8
5
  6
CONTINUOUS
 62
6
 10
374.6567742348
 20
-69.0887863704
 11
389.6567742348
 21
-69.0887863704
  0
LINE
  8
5
  6
CONTINUOUS
 62
6
 10
389.6567742348
 20
-69.0887863704
 11
394.6567742348
 21
-69.0887863704
  0
LINE
  8
5
  6
CONTINUOUS
 62
6
 10
394.6567742348
 20
-69.0887863704
 11
394.6567742348
 21
-74.0887863704
  0
LINE
  8
5
  6
CONTINUOUS
 62
6
 10
394.6567742348
 20
-74.0887863704
 11
389.6567742348
 21
-74.0887863704
  0
LINE
  8
5
  6
CONTINUOUS
 62
6
 10
389.6567742348
 20
-74.0887863704
 11
374.6567742348
 21
-74.0887863704
  0
LINE
  8
5
  6
CONTINUOUS
 62
6
 10
374.6567742348
 20
-74.0887863704
 11
334.6567742348
 21
-74.0887863704
  0
LINE
  8
5
  6
CONTINUOUS
 62
6
 10
334.6567742348
 20
-74.0887863704
 11
314.6567742348
 21
-74.0887863704
  0
LINE
  8
5
  6
CONTINUOUS
 62
6
 10
314.6567742348
 20
-74.0887863704
 11
309.6567742348
 21
-74.0887863704
  0
LINE
  8
5
  6
CONTINUOUS
 62
6
 10
314.6567742348
 20
-69.0887863704
 11
314.6567742348
 21
-74.0887863704
  0
LINE
  8
5
  6
CONTINUOUS
 62
6
 10
334.6567742348
 20
-69.0887863704
 11
334.6567742348
 21
-74.0887863704
  0
LINE
  8
5
  6
CONTINUOUS
 62
6
 10
374.6567742348
 20
-69.0887863704
 11
374.6567742348
 21
-74.0887863704
  0
LINE
  8
5
  6
CONTINUOUS
 62
6
 10
389.6567742348
 20
-69.0887863704
 11
389.6567742348
 21
-74.0887863704
  0
TEXT
  8
5
  6
CONTINUOUS
 62
7
 10
310.656774
 20
-73.088786
 40
3.000000
  1
93
 41
0.854701
 50
0.000000
 51
0.000000
 72
   5
 73
   0
 11
313.656774
 21
-73.088786
  0
TEXT
  8
5
  6
CONTINUOUS
 62
7
 10
315.656774
 20
-73.088786
 40
3.000000
  1
ACｱｳﾄﾚｯﾄ
 41
0.872254
 50
0.000000
 51
0.000000
 72
   5
 73
   0
 11
329.237774
 21
-73.088786
  0
TEXT
  8
5
  6
CONTINUOUS
 62
7
 10
335.656774
 20
-73.588786
 40
4.000000
  1
7117GZ-IV
 41
0.767918
 50
0.000000
 51
0.000000
 72
   5
 73
   0
 11
353.656774
 21
-73.588786
  0
TEXT
  8
5
  6
CONTINUOUS
 62
7
 10
391.281774
 20
-73.338786
 40
3.500000
  1
1
 41
1.000000
 50
0.000000
 51
0.000000
 72
   5
 73
   0
 11
393.031774
 21
-73.338786
  0
LINE
  8
5
  6
CONTINUOUS
 62
6
 10
394.6567742348
 20
-79.0887863704
 11
389.6567742348
 21
-79.0887863704
  0
LINE
  8
5
  6
CONTINUOUS
 62
6
 10
389.6567742348
 20
-79.0887863704
 11
374.6567742348
 21
-79.0887863704
  0
LINE
  8
5
  6
CONTINUOUS
 62
6
 10
374.6567742348
 20
-79.0887863704
 11
334.6567742348
 21
-79.0887863704
  0
LINE
  8
5
  6
CONTINUOUS
 62
6
 10
334.6567742348
 20
-79.0887863704
 11
314.6567742348
 21
-79.0887863704
  0
LINE
  8
5
  6
CONTINUOUS
 62
6
 10
314.6567742348
 20
-79.0887863704
 11
309.6567742348
 21
-79.0887863704
  0
TEXT
  8
5
  6
CONTINUOUS
 62
7
 10
310.656774
 20
-83.088786
 40
3.000000
  1
--
 41
0.854701
 50
0.000000
 51
0.000000
 72
   5
 73
   0
 11
313.656774
 21
-83.088786
  0
LINE
  8
5
  6
CONTINUOUS
 62
6
 10
309.6567742348
 20
-79.0887863704
 11
309.6567742348
 21
-74.0887863704
  0
LINE
  8
5
  6
CONTINUOUS
 62
6
 10
309.6567742348
 20
-84.0887863704
 11
309.6567742348
 21
-79.0887863704
  0
LINE
  8
5
  6
CONTINUOUS
 62
6
 10
314.6567742348
 20
-74.0887863704
 11
314.6567742348
 21
-79.0887863704
  0
LINE
  8
5
  6
CONTINUOUS
 62
6
 10
314.6567742348
 20
-79.0887863704
 11
314.6567742348
 21
-84.0887863704
  0
LINE
  8
5
  6
CONTINUOUS
 62
6
 10
334.6567742348
 20
-74.0887863704
 11
334.6567742348
 21
-79.0887863704
  0
LINE
  8
5
  6
CONTINUOUS
 62
6
 10
334.6567742348
 20
-79.0887863704
 11
334.6567742348
 21
-84.0887863704
  0
LINE
  8
5
  6
CONTINUOUS
 62
6
 10
374.6567742348
 20
-74.0887863704
 11
374.6567742348
 21
-79.0887863704
  0
LINE
  8
5
  6
CONTINUOUS
 62
6
 10
374.6567742348
 20
-79.0887863704
 11
374.6567742348
 21
-84.0887863704
  0
LINE
  8
5
  6
CONTINUOUS
 62
6
 10
389.6567742348
 20
-74.0887863704
 11
389.6567742348
 21
-79.0887863704
  0
LINE
  8
5
  6
CONTINUOUS
 62
6
 10
389.6567742348
 20
-79.0887863704
 11
389.6567742348
 21
-84.0887863704
  0
LINE
  8
5
  6
CONTINUOUS
 62
6
 10
394.6567742348
 20
-74.0887863704
 11
394.6567742348
 21
-79.0887863704
  0
LINE
  8
5
  6
CONTINUOUS
 62
6
 10
394.6567742348
 20
-79.0887863704
 11
394.6567742348
 21
-84.0887863704
  0
LINE
  8
5
  6
CONTINUOUS
 62
6
 10
299.6567742348
 20
-69.0887863704
 11
299.6567742348
 21
-64.0887863704
  0
LINE
  8
5
  6
CONTINUOUS
 62
6
 10
299.6567742348
 20
-64.0887863704
 11
309.6567742348
 21
-64.0887863704
  0
LINE
  8
5
  6
CONTINUOUS
 62
6
 10
309.6567742348
 20
-69.0887863704
 11
304.6567742348
 21
-69.0887863704
  0
LINE
  8
5
  6
CONTINUOUS
 62
6
 10
309.6567742348
 20
-64.0887863704
 11
309.6567742348
 21
-69.0887863704
  0
TEXT
  8
5
  6
CONTINUOUS
 62
7
 10
302.194993
 20
-68.088786
 40
3.000000
  1
型番
 41
0.921659
 50
0.000000
 51
0.000000
 72
   5
 73
   0
 11
308.194993
 21
-68.088786
  0
LINE
  8
5
  6
CONTINUOUS
 62
6
 10
299.6567742348
 20
-74.0887863704
 11
299.6567742348
 21
-69.0887863704
  0
LINE
  8
5
  6
CONTINUOUS
 62
6
 10
299.6567742348
 20
-69.0887863704
 11
309.6567742348
 21
-69.0887863704
  0
LINE
  8
5
  6
CONTINUOUS
 62
6
 10
309.6567742348
 20
-69.0887863704
 11
309.6567742348
 21
-74.0887863704
  0
TEXT
  8
5
  6
CONTINUOUS
 62
7
 10
302.928993
 20
-73.588786
 40
4.000000
  1
A1
 41
0.968376
 50
0.000000
 51
0.000000
 72
   5
 73
   0
 11
307.460993
 21
-73.588786
  0
LINE
  8
5
  6
CONTINUOUS
 62
6
 10
299.6567742348
 20
-79.0887863704
 11
299.6567742348
 21
-74.0887863704
  0
LINE
  8
5
  6
CONTINUOUS
 62
6
 10
299.6567742348
 20
-84.0887863704
 11
299.6567742348
 21
-79.0887863704
  0
LINE
  8
5
  6
CONTINUOUS
 62
6
 10
309.6567742348
 20
-74.0887863704
 11
309.6567742348
 21
-79.0887863704
  0
LINE
  8
5
  6
CONTINUOUS
 62
6
 10
309.6567742348
 20
-79.0887863704
 11
309.6567742348
 21
-84.0887863704
  0
LINE
  8
5
  6
CONTINUOUS
 62
6
 10
394.6567742348
 20
-84.0887863704
 11
389.6567742348
 21
-84.0887863704
  0
LINE
  8
5
  6
CONTINUOUS
 62
6
 10
389.6567742348
 20
-84.0887863704
 11
374.6567742348
 21
-84.0887863704
  0
LINE
  8
5
  6
CONTINUOUS
 62
6
 10
374.6567742348
 20
-84.0887863704
 11
334.6567742348
 21
-84.0887863704
  0
LINE
  8
5
  6
CONTINUOUS
 62
6
 10
334.6567742348
 20
-84.0887863704
 11
314.6567742348
 21
-84.0887863704
  0
LINE
  8
5
  6
CONTINUOUS
 62
6
 10
314.6567742348
 20
-84.0887863704
 11
309.6567742348
 21
-84.0887863704
  0
LINE
  8
5
  6
CONTINUOUS
 62
6
 10
309.6567742348
 20
-84.0887863704
 11
299.6567742348
 21
-84.0887863704
  0
TEXT
  8
5
  6
CONTINUOUS
 62
7
 10
375.656774
 20
-50.588786
 40
3.000000
  1
ｱﾒﾘｶﾝ電機
 41
0.862681
 50
0.000000
 51
0.000000
 72
   5
 73
   0
 11
389.942774
 21
-50.588786
  0
TEXT
  8
5
  6
CONTINUOUS
 62
7
 10
375.656774
 20
-73.088786
 40
3.000000
  1
ｱﾒﾘｶﾝ電機
 41
0.862681
 50
0.000000
 51
0.000000
 72
   5
 73
   0
 11
389.942774
 21
-73.088786
  0
TEXT
  8
3
  6
CONTINUOUS
 62
5
 10
116.693692
 20
-67.613540
 40
4.500000
  1
⑨
 41
1.000000
 50
0.000000
 51
0.000000
 72
   5
 73
   0
 11
121.193692
 21
-67.613540
  0
TEXT
  8
3
  6
CONTINUOUS
 62
5
 10
116.693692
 20
-72.113540
 40
4.500000
  1
ACｱｳﾄﾚｯﾄ詳細
 41
0.796813
 50
0.000000
 51
0.000000
 72
   5
 73
   0
 11
143.693692
 21
-72.113540
  0
TEXT
  8
5
  6
CONTINUOUS
 62
7
 10
348.653069
 20
22.742557
 40
4.200000
  1
Panel Interface
 41
0.641296
 50
0.000000
 51
0.000000
 72
   5
 73
   0
 11
375.264269
 21
22.742557
  0
TEXT
  8
5
  6
CONTINUOUS
 62
7
 10
348.653069
 20
18.542557
 40
4.200000
  1
Type:MCON-001-059A*R*
 41
0.811295
 50
0.000000
 51
0.000000
 72
   5
 73
   0
 11
396.016469
 21
18.542557
  0
TEXT
  8
5
  6
CONTINUOUS
 62
7
 10
348.653069
 20
14.342557
 40
4.200000
  1
                      仕様図　1/2
 41
0.558184
 50
0.000000
 51
0.000000
 72
   5
 73
   0
 11
398.494469
 21
14.342557
  0
TEXT
  8
5
  6
CONTINUOUS
 62
7
 10
348.433321
 20
-308.965523
 40
6.000000
  1
M0051A059B
 41
0.765697
 50
0.000000
 51
0.000000
 72
   5
 73
   0
 11
378.433321
 21
-308.965523
  0
TEXT
  8
3
  6
CONTINUOUS
 62
7
 10
190.526223
 20
48.242039
 40
4.500000
  1
⑨ACｱｳﾄﾚｯﾄ
 41
0.786164
 50
0.000000
 51
0.000000
 72
   5
 73
   0
 11
213.026223
 21
48.242039
  0
TEXT
  8
3
  6
CONTINUOUS
 62
7
 10
190.526223
 20
42.742039
 40
4.500000
  1
⑩D-SUB
 41
0.804598
 50
0.000000
 51
0.000000
 72
   5
 73
   0
 11
206.276223
 21
42.742039
  0
TEXT
  8
3
  6
CONTINUOUS
 62
7
 10
190.526223
 20
37.242039
 40
4.500000
  1
⑪RJ45
 41
0.815217
 50
0.000000
 51
0.000000
 72
   5
 73
   0
 11
204.026223
 21
37.242039
  0
TEXT
  8
3
  6
CONTINUOUS
 62
7
 10
190.526223
 20
31.742039
 40
4.500000
  1
の詳細は仕様2/2を参照してください。
 41
0.851167
 50
0.000000
 51
0.000000
 72
   5
 73
   0
 11
269.276223
 21
31.742039
  0
INSERT
  8
1
  6
CONTINUOUS
 62
5
  2
LTEX0
 10
143.4661466639
 20
87.8525214537
  0
TEXT
  8
3
  6
CONTINUOUS
 62
7
 10
137.165228
 20
270.512641
 40
5.000000
  1
型番仕様　MCON-001-059 %%uPB%%u %%uA*%%u %%uR*
 41
0.784810
 50
0.000000
 51
0.000000
 72
   5
 73
   0
 11
214.665228
 21
270.512641
  0
TEXT
  8
3
  6
CONTINUOUS
 62
7
 10
220.455942
 20
263.933627
 40
4.000000
  1
⑩ R0:RJ45 左右共無し(ﾌﾞﾗﾝｸﾊﾟﾈﾙ)
 41
0.790123
 50
0.000000
 51
0.000000
 72
   5
 73
   0
 11
284.455942
 21
263.933627
  0
TEXT
  8
3
  6
CONTINUOUS
 62
7
 10
220.455942
 20
258.933627
 40
4.000000
  1
　 R1:RJ45 1個左側有り
 41
0.811808
 50
0.000000
 51
0.000000
 72
   5
 73
   0
 11
264.455942
 21
258.933627
  0
TEXT
  8
3
  6
CONTINUOUS
 62
7
 10
220.455942
 20
253.933627
 40
4.000000
  1
　 R2:RJ45 2個左右有り
 41
0.811808
 50
0.000000
 51
0.000000
 72
   5
 73
   0
 11
264.455942
 21
253.933627
  0
TEXT
  8
3
  6
CONTINUOUS
 62
7
 10
220.258084
 20
247.145848
 40
4.000000
  1
⑨ A0:ACｱｳﾄﾚｯﾄ通常ﾀｲﾌﾟ
 41
0.782361
 50
0.000000
 51
0.000000
 72
   5
 73
   0
 11
264.258084
 21
247.145848
  0
TEXT
  8
3
  6
CONTINUOUS
 62
7
 10
220.258084
 20
242.145848
 40
4.000000
  1
　 A1:ACｱｳﾄﾚｯﾄ抜け防止ﾀｲﾌﾟ
 41
0.792683
 50
0.000000
 51
0.000000
 72
   5
 73
   0
 11
272.258084
 21
242.145848
  0
TEXT
  8
3
  6
CONTINUOUS
 62
7
 10
220.258084
 20
237.145848
 40
4.000000
  1
　 A2:ACｱｳﾄﾚｯﾄ無し(ﾌﾞﾗﾝｸﾊﾟﾈﾙ)
 41
0.773333
 50
0.000000
 51
0.000000
 72
   5
 73
   0
 11
278.258084
 21
237.145848
  0
LINE
  8
1
  6
CONTINUOUS
 62
7
 10
88.2719826269
 20
-150.3001240435
 11
36.2719826269
 21
-150.3001240435
  0
LINE
  8
1
  6
CONTINUOUS
 62
7
 10
89.7719826269
 20
-273.3001240435
 11
89.7719826269
 21
-151.8001240435
  0
LINE
  8
1
  6
CONTINUOUS
 62
7
 10
36.2719826269
 20
-274.8001240435
 11
88.2719826269
 21
-274.8001240435
  0
LINE
  8
1
  6
CONTINUOUS
 62
7
 10
34.7719826269
 20
-273.3001240435
 11
34.7719826269
 21
-151.8001240435
  0
LINE
  8
1
  6
CONTINUOUS
 62
7
 10
91.7719826269
 20
-275.8001240435
 11
91.7719826269
 21
-149.3001240435
  0
LINE
  8
1
  6
CONTINUOUS
 62
7
 10
90.7719826269
 20
-148.3001240435
 11
33.7719826269
 21
-148.3001240435
  0
LINE
  8
1
  6
CONTINUOUS
 62
7
 10
32.7719826269
 20
-275.8001240435
 11
32.7719826269
 21
-149.3001240435
  0
LINE
  8
1
  6
CONTINUOUS
 62
7
 10
33.7719826269
 20
-276.8001240435
 11
90.7719826269
 21
-276.8001240435
  0
ARC
  8
1
  6
CONTINUOUS
 62
7
 10
36.2719826269
 20
-151.8001240435
 40
1.5000000000
 50
90.0000000000
 51
180.0000000000
  0
ARC
  8
1
  6
CONTINUOUS
 62
7
 10
88.2719826269
 20
-151.8001240435
 40
1.5000000000
 50
0.0000000000
 51
90.0000000000
  0
ARC
  8
1
  6
CONTINUOUS
 62
7
 10
88.2719826269
 20
-273.3001240435
 40
1.5000000000
 50
270.0000000000
 51
0.0000000000
  0
ARC
  8
1
  6
CONTINUOUS
 62
7
 10
36.2719826269
 20
-273.3001240435
 40
1.5000000000
 50
180.0000000000
 51
270.0000000000
  0
CIRCLE
  8
1
  6
HIDDEN
 62
3
 10
42.2719826269
 20
-154.0501240435
 40
1.7500000000
  0
CIRCLE
  8
1
  6
HIDDEN
 62
3
 10
42.2719826269
 20
-154.0501240435
 40
3.2500000000
  0
CIRCLE
  8
1
  6
HIDDEN
 62
3
 10
82.2719826269
 20
-154.0501240435
 40
1.7500000000
  0
CIRCLE
  8
1
  6
HIDDEN
 62
3
 10
82.2719826269
 20
-154.0501240435
 40
3.2500000000
  0
LINE
  8
1
  6
HIDDEN
 62
3
 10
85.2719826269
 20
-159.0501240435
 11
88.2719826269
 21
-159.0501240435
  0
LINE
  8
1
  6
HIDDEN
 62
3
 10
37.2719826269
 20
-159.0501240435
 11
85.2719826269
 21
-159.0501240435
  0
CIRCLE
  8
1
  6
HIDDEN
 62
3
 10
42.2719826269
 20
-271.0501240435
 40
1.7500000000
  0
CIRCLE
  8
1
  6
HIDDEN
 62
3
 10
42.2719826269
 20
-271.0501240435
 40
3.2500000000
  0
CIRCLE
  8
1
  6
HIDDEN
 62
3
 10
82.2719826269
 20
-271.0501240435
 40
1.7500000000
  0
CIRCLE
  8
1
  6
HIDDEN
 62
3
 10
82.2719826269
 20
-271.0501240435
 40
3.2500000000
  0
CIRCLE
  8
1
  6
HIDDEN
 62
3
 10
62.2719826269
 20
-154.0501240435
 40
2.0000000000
  0
LINE
  8
1
  6
CONTINUOUS
 62
7
 10
93.7719826269
 20
-275.8001240435
 11
93.7719826269
 21
-149.3001240435
  0
LINE
  8
1
  6
CONTINUOUS
 62
7
 10
90.7719826269
 20
-146.3001240435
 11
33.7719826269
 21
-146.3001240435
  0
LINE
  8
1
  6
CONTINUOUS
 62
7
 10
30.7719826269
 20
-275.8001240435
 11
30.7719826269
 21
-149.3001240435
  0
LINE
  8
1
  6
CONTINUOUS
 62
7
 10
33.7719826269
 20
-278.8001240435
 11
90.7719826269
 21
-278.8001240435
  0
LINE
  8
1
  6
CONTINUOUS
 62
7
 10
95.7719826269
 20
-285.8001240435
 11
95.7719826269
 21
-141.9251240435
  0
LINE
  8
1
  6
CONTINUOUS
 62
7
 10
28.7719826269
 20
-141.9251240435
 11
28.7719826269
 21
-285.8001240435
  0
LINE
  8
1
  6
CONTINUOUS
 62
7
 10
96.7719826269
 20
-286.8001240435
 11
96.7719826269
 21
-131.3001240435
  0
LINE
  8
1
  6
CONTINUOUS
 62
7
 10
27.7719826269
 20
-131.3001240435
 11
27.7719826269
 21
-286.8001240435
  0
ARC
  8
1
  6
CONTINUOUS
 62
7
 10
33.7719826269
 20
-149.3001240435
 40
1.0000000000
 50
90.0000000000
 51
180.0000000000
  0
ARC
  8
1
  6
CONTINUOUS
 62
7
 10
90.7719826269
 20
-149.3001240435
 40
1.0000000000
 50
0.0000000000
 51
90.0000000000
  0
ARC
  8
1
  6
CONTINUOUS
 62
7
 10
90.7719826269
 20
-275.8001240435
 40
1.0000000000
 50
270.0000000000
 51
0.0000000000
  0
ARC
  8
1
  6
CONTINUOUS
 62
7
 10
33.7719826269
 20
-275.8001240435
 40
1.0000000000
 50
180.0000000000
 51
270.0000000000
  0
LINE
  8
1
  6
HIDDEN
 62
3
 10
88.2719826269
 20
-169.0501240435
 11
88.2719826269
 21
-159.0501240435
  0
ARC
  8
1
  6
CONTINUOUS
 62
7
 10
33.7719826269
 20
-149.3001240435
 40
3.0000000000
 50
90.0000000000
 51
180.0000000000
  0
ARC
  8
1
  6
CONTINUOUS
 62
7
 10
90.7719826269
 20
-149.3001240435
 40
3.0000000000
 50
0.0000000000
 51
90.0000000000
  0
ARC
  8
1
  6
CONTINUOUS
 62
7
 10
90.7719826269
 20
-275.8001240435
 40
3.0000000000
 50
270.0000000000
 51
0.0000000000
  0
ARC
  8
1
  6
CONTINUOUS
 62
7
 10
33.7719826269
 20
-275.8001240435
 40
3.0000000000
 50
180.0000000000
 51
270.0000000000
  0
LINE
  8
1
  6
DASHDOT
 62
1
 10
98.7719826269
 20
-138.3001240435
 11
25.7719826269
 21
-138.3001240435
  0
LINE
  8
1
  6
CONTINUOUS
 62
7
 10
96.7719826269
 20
-286.8001240435
 11
27.7719826269
 21
-286.8001240435
  0
LINE
  8
1
  6
CONTINUOUS
 62
7
 10
28.7719826269
 20
-285.8001240435
 11
95.7719826269
 21
-285.8001240435
  0
LINE
  8
1
  6
CONTINUOUS
 62
7
 10
28.7719826269
 20
-144.3001240435
 11
28.7719826269
 21
-132.3001240435
  0
LINE
  8
1
  6
CONTINUOUS
 62
7
 10
28.7719826269
 20
-132.3001240435
 11
33.7719826269
 21
-132.3001240435
  0
LINE
  8
1
  6
CONTINUOUS
 62
7
 10
33.7719826269
 20
-132.3001240435
 11
33.7719826269
 21
-144.3001240435
  0
LINE
  8
1
  6
CONTINUOUS
 62
7
 10
33.7719826269
 20
-144.3001240435
 11
28.7719826269
 21
-144.3001240435
  0
LINE
  8
1
  6
CONTINUOUS
 62
7
 10
95.7719826269
 20
-132.3001240435
 11
90.7719826269
 21
-132.3001240435
  0
LINE
  8
1
  6
CONTINUOUS
 62
7
 10
90.7719826269
 20
-132.3001240435
 11
90.7719826269
 21
-144.3001240435
  0
LINE
  8
1
  6
CONTINUOUS
 62
7
 10
90.7719826269
 20
-144.3001240435
 11
95.7719826269
 21
-144.3001240435
  0
LINE
  8
1
  6
CONTINUOUS
 62
7
 10
95.7719826269
 20
-144.3001240435
 11
95.7719826269
 21
-132.3001240435
  0
LINE
  8
1
  6
CONTINUOUS
 62
7
 10
90.7719826269
 20
-144.3001240435
 11
90.7719826269
 21
-145.3001240435
  0
LINE
  8
1
  6
CONTINUOUS
 62
7
 10
90.7719826269
 20
-145.3001240435
 11
33.7719826269
 21
-145.3001240435
  0
LINE
  8
1
  6
CONTINUOUS
 62
7
 10
33.7719826269
 20
-145.3001240435
 11
33.7719826269
 21
-144.3001240435
  0
LINE
  8
1
  6
CONTINUOUS
 62
7
 10
96.7719826269
 20
-131.3001240435
 11
27.7719826269
 21
-131.3001240435
  0
CIRCLE
  8
1
  6
HIDDEN
 62
3
 10
62.2719826269
 20
-154.0501240435
 40
1.6500000000
  0
CIRCLE
  8
1
  6
HIDDEN
 62
3
 10
62.2719826269
 20
-271.0501240435
 40
2.0000000000
  0
CIRCLE
  8
1
  6
HIDDEN
 62
3
 10
62.2719826269
 20
-271.0501240435
 40
1.6500000000
  0
CIRCLE
  8
1
  6
HIDDEN
 62
7
 10
62.2719826269
 20
-282.3001240435
 40
2.0000000000
  0
CIRCLE
  8
1
  6
CONTINUOUS
 62
7
 10
62.2719826269
 20
-282.3001240435
 40
1.6500000000
  0
TEXT
  8
1
  6
CONTINUOUS
 62
7
 10
46.770449
 20
-295.058639
 40
4.000000
  1
内 部 図
 41
0.854701
 50
0.000000
 51
0.000000
 72
   5
 73
   0
 11
62.770449
 21
-295.058639
  0
LINE
  8
1
  6
HIDDEN
 62
3
 10
88.2719826269
 20
-169.0501240435
 11
85.2719826269
 21
-169.0501240435
  0
LINE
  8
1
  6
HIDDEN
 62
3
 10
85.2719826269
 20
-169.0501240435
 11
85.2719826269
 21
-159.0501240435
  0
LINE
  8
1
  6
HIDDEN
 62
3
 10
36.2719826269
 20
-266.0501240435
 11
39.2719826269
 21
-266.0501240435
  0
LINE
  8
1
  6
HIDDEN
 62
3
 10
87.2719826269
 20
-266.0501240435
 11
39.2719826269
 21
-266.0501240435
  0
LINE
  8
1
  6
HIDDEN
 62
3
 10
36.2719826269
 20
-256.0501240435
 11
39.2719826269
 21
-256.0501240435
  0
LINE
  8
3
  6
HIDDEN
 62
3
 10
39.2719826269
 20
-256.0501240435
 11
39.2719826269
 21
-266.0501240435
  0
LINE
  8
1
  6
HIDDEN
 62
3
 10
36.2719826269
 20
-256.0501240435
 11
36.2719826269
 21
-266.0501240435
  0
LINE
  8
1
  6
HIDDEN
 62
3
 10
88.2719826269
 20
-265.0501240435
 11
88.2719826269
 21
-169.0501240435
  0
LINE
  8
1
  6
HIDDEN
 62
3
 10
36.2719826269
 20
-160.0501240435
 11
36.2719826269
 21
-256.0501240435
  0
ARC
  8
1
  6
HIDDEN
 62
3
 10
37.2719826269
 20
-160.0501240435
 40
1.0000000000
 50
90.0000000000
 51
180.0000000000
  0
LINE
  8
7
  6
CONTINUOUS
 62
7
 10
89.5219826269
 20
-273.5501240433
 11
89.5219826269
 21
-151.5501240437
  0
LINE
  8
7
  6
CONTINUOUS
 62
7
 10
88.5219826269
 20
-150.5501240437
 11
36.0219826269
 21
-150.5501240433
  0
LINE
  8
7
  6
CONTINUOUS
 62
7
 10
35.0219826269
 20
-273.5501240437
 11
35.0219826269
 21
-151.5501240433
  0
LINE
  8
7
  6
CONTINUOUS
 62
7
 10
88.5219826269
 20
-274.5501240433
 11
36.0219826269
 21
-274.5501240437
  0
LINE
  8
7
  6
CONTINUOUS
 62
7
 10
36.0219826269
 20
-150.5501240433
 11
35.0219826269
 21
-151.5501240433
  0
LINE
  8
7
  6
CONTINUOUS
 62
7
 10
89.5219826269
 20
-151.5501240437
 11
88.5219826269
 21
-150.5501240437
  0
LINE
  8
7
  6
CONTINUOUS
 62
7
 10
89.5219826269
 20
-273.5501240433
 11
88.5219826269
 21
-274.5501240433
  0
LINE
  8
7
  6
CONTINUOUS
 62
7
 10
36.0219826269
 20
-274.5501240437
 11
35.0219826269
 21
-273.5501240437
  0
CIRCLE
  8
3
  6
CONTINUOUS
 62
6
 10
62.2719826269
 20
-154.0501240435
 40
3.9000000000
  0
LINE
  8
3
  6
CONTINUOUS
 62
6
 10
60.5484098477
 20
-152.3265512644
 11
63.9955554060
 21
-155.7736968227
  0
LINE
  8
3
  6
CONTINUOUS
 62
6
 10
60.5484098477
 20
-155.7736968227
 11
63.9955554060
 21
-152.3265512644
  0
CIRCLE
  8
3
  6
CONTINUOUS
 62
6
 10
62.2719826269
 20
-154.0501240435
 40
3.4125000000
  0
CIRCLE
  8
3
  6
CONTINUOUS
 62
6
 10
62.2719826269
 20
-271.0501240435
 40
3.9000000000
  0
LINE
  8
3
  6
CONTINUOUS
 62
6
 10
60.5484098477
 20
-269.3265512643
 11
63.9955554060
 21
-272.7736968226
  0
LINE
  8
3
  6
CONTINUOUS
 62
6
 10
60.5484098477
 20
-272.7736968226
 11
63.9955554060
 21
-269.3265512643
  0
CIRCLE
  8
3
  6
CONTINUOUS
 62
6
 10
62.2719826269
 20
-271.0501240435
 40
3.4125000000
  0
LINE
  8
3
  6
CONTINUOUS
 62
7
 10
89.5219826269
 20
-273.5501240433
 11
89.5219826269
 21
-151.5501240437
  0
LINE
  8
3
  6
CONTINUOUS
 62
7
 10
89.5219826269
 20
-151.5501240437
 11
88.5219826269
 21
-150.5501240437
  0
LINE
  8
3
  6
CONTINUOUS
 62
7
 10
88.5219826269
 20
-150.5501240437
 11
36.0219826269
 21
-150.5501240433
  0
LINE
  8
3
  6
CONTINUOUS
 62
7
 10
36.0219826269
 20
-150.5501240433
 11
35.0219826269
 21
-151.5501240433
  0
LINE
  8
3
  6
CONTINUOUS
 62
7
 10
35.0219826269
 20
-273.5501240437
 11
35.0219826269
 21
-151.5501240433
  0
LINE
  8
3
  6
CONTINUOUS
 62
7
 10
36.0219826269
 20
-274.5501240437
 11
35.0219826269
 21
-273.5501240437
  0
LINE
  8
3
  6
CONTINUOUS
 62
7
 10
88.5219826269
 20
-274.5501240433
 11
36.0219826269
 21
-274.5501240437
  0
LINE
  8
3
  6
CONTINUOUS
 62
7
 10
89.5219826269
 20
-273.5501240433
 11
88.5219826269
 21
-274.5501240433
  0
LINE
  8
3
  6
CONTINUOUS
 62
7
 10
184.8178253186
 20
-51.5412942482
 11
153.8178253186
 21
-51.5412942482
  0
LINE
  8
3
  6
CONTINUOUS
 62
7
 10
190.8178253186
 20
-88.5412942482
 11
190.8178253186
 21
-57.5412942482
  0
LINE
  8
3
  6
CONTINUOUS
 62
7
 10
153.8178253186
 20
-94.5412942482
 11
184.8178253186
 21
-94.5412942482
  0
LINE
  8
3
  6
CONTINUOUS
 62
7
 10
147.8178253186
 20
-88.5412942482
 11
147.8178253186
 21
-57.5412942482
  0
POINT
  8
3
  6
CONTINUOUS
 62
7
 10
169.3178253186
 20
-73.0412942482
  0
CIRCLE
  8
3
  6
CONTINUOUS
 62
7
 10
169.3178253186
 20
-73.0412942482
 40
17.2500000000
  0
CIRCLE
  8
3
  6
CONTINUOUS
 62
7
 10
185.5812812859
 20
-56.7778382809
 40
3.0000000000
  0
CIRCLE
  8
3
  6
CONTINUOUS
 62
7
 10
153.0543693513
 20
-89.3047502155
 40
3.0000000000
  0
TEXT
  8
3
  6
CONTINUOUS
 62
7
 10
166.692825
 20
-79.967052
 40
3.500000
  1
125
 41
0.815217
 50
0.000000
 51
0.000000
 72
   5
 73
   0
 11
171.942825
 21
-79.967052
  0
TEXT
  8
3
  6
CONTINUOUS
 62
7
 10
168.567825
 20
-82.648797
 40
3.000000
  1
V
 41
1.000000
 50
0.000000
 51
0.000000
 72
   5
 73
   0
 11
170.067825
 21
-82.648797
  0
INSERT
  8
3
  6
CONTINUOUS
 62
7
  2
S4
 10
174.6310958456
 20
-63.8224587849
  0
ARC
  8
3
  6
CONTINUOUS
 62
7
 10
153.8178253186
 20
-57.5412942482
 40
6.0000000000
 50
90.0000000000
 51
180.0000000000
  0
ARC
  8
3
  6
CONTINUOUS
 62
7
 10
184.8178253186
 20
-57.5412942482
 40
6.0000000000
 50
0.0000000000
 51
90.0000000000
  0
ARC
  8
3
  6
CONTINUOUS
 62
7
 10
184.8178253186
 20
-88.5412942482
 40
6.0000000000
 50
270.0000000000
 51
0.0000000000
  0
ARC
  8
3
  6
CONTINUOUS
 62
7
 10
153.8178253186
 20
-88.5412942482
 40
6.0000000000
 50
180.0000000000
 51
270.0000000000
  0
ARC
  8
3
  6
CONTINUOUS
 62
5
 10
169.3178253186
 20
-63.8912942482
 40
2.6500000000
 50
180.0000000000
 51
0.0000000000
  0
LINE
  8
3
  6
CONTINUOUS
 62
5
 10
166.6678253186
 20
-63.8912942482
 11
166.6678253186
 21
-61.2412942482
  0
LINE
  8
3
  6
CONTINUOUS
 62
5
 10
166.6678253186
 20
-61.2412942482
 11
171.9678253186
 21
-61.2412942482
  0
LINE
  8
3
  6
CONTINUOUS
 62
5
 10
171.9678253186
 20
-61.2412942482
 11
171.9678253186
 21
-63.8912942482
  0
LINE
  8
3
  6
CONTINUOUS
 62
5
 10
174.6178253186
 20
-71.4412942482
 11
176.8178253186
 21
-71.4412942482
  0
LINE
  8
3
  6
CONTINUOUS
 62
5
 10
176.8178253186
 20
-71.4412942482
 11
176.8178253186
 21
-80.1412942482
  0
LINE
  8
3
  6
CONTINUOUS
 62
5
 10
176.8178253186
 20
-80.1412942482
 11
174.6178253186
 21
-80.1412942482
  0
LINE
  8
3
  6
CONTINUOUS
 62
5
 10
174.6178253186
 20
-80.1412942482
 11
174.6178253186
 21
-71.4412942482
  0
LINE
  8
3
  6
CONTINUOUS
 62
5
 10
161.8178253186
 20
-72.2912942483
 11
164.0178253186
 21
-72.2912942483
  0
LINE
  8
3
  6
CONTINUOUS
 62
5
 10
164.0178253186
 20
-72.2912942483
 11
164.0178253186
 21
-79.2912942482
  0
LINE
  8
3
  6
CONTINUOUS
 62
5
 10
164.0178253186
 20
-79.2912942482
 11
161.8178253186
 21
-79.2912942482
  0
LINE
  8
3
  6
CONTINUOUS
 62
5
 10
161.8178253186
 20
-79.2912942482
 11
161.8178253186
 21
-72.2912942483
  0
CIRCLE
  8
3
  6
CONTINUOUS
 62
5
 10
179.2057216508
 20
-75.7912942482
 40
1.5000000000
  0
TEXT
  8
3
  6
CONTINUOUS
 62
5
 10
178.580722
 20
-77.041294
 40
2.500000
  1
N
 41
1.000000
 50
0.000000
 51
0.000000
 72
   5
 73
   0
 11
179.830722
 21
-77.041294
  0
TEXT
  8
3
  6
CONTINUOUS
 62
7
 10
167.067825
 20
-73.041294
 40
4.500000
  1
15
 41
0.854701
 50
0.000000
 51
0.000000
 72
   5
 73
   0
 11
171.567825
 21
-73.041294
  0
TEXT
  8
3
  6
CONTINUOUS
 62
7
 10
168.567825
 20
-76.041294
 40
3.000000
  1
A
 41
1.000000
 50
0.000000
 51
0.000000
 72
   5
 73
   0
 11
170.067825
 21
-76.041294
  0
TEXT
  8
3
  6
CONTINUOUS
 62
7
 10
200.317825
 20
-102.541294
 40
5.000000
  1
A1
 41
0.854701
 50
0.000000
 51
0.000000
 72
   5
 73
   0
 11
205.317825
 21
-102.541294
  0
TEXT
  8
3
  6
CONTINUOUS
 62
7
 10
200.317825
 20
-107.541294
 40
5.000000
  1
抜け防止ﾀｲﾌﾟ
 41
0.834492
 50
0.000000
 51
0.000000
 72
   5
 73
   0
 11
230.317825
 21
-107.541294
  0
TEXT
  8
3
  6
CONTINUOUS
 62
7
 10
159.317825
 20
-102.541294
 40
5.000000
  1
A0
 41
0.854701
 50
0.000000
 51
0.000000
 72
   5
 73
   0
 11
164.317825
 21
-102.541294
  0
TEXT
  8
3
  6
CONTINUOUS
 62
7
 10
159.317825
 20
-107.541294
 40
5.000000
  1
通常ﾀｲﾌﾟ
 41
0.824742
 50
0.000000
 51
0.000000
 72
   5
 73
   0
 11
179.317825
 21
-107.541294
  0
INSERT
  8
1
  6
CONTINUOUS
 62
5
  2
BALN1
 10
162.3511050565
 20
-54.4770497385
  0
LINE
  8
3
  6
CONTINUOUS
 62
6
 10
184.2428291643
 20
-55.4393861594
 11
186.9197334074
 21
-58.1162904025
  0
LINE
  8
3
  6
CONTINUOUS
 62
6
 10
184.2428291643
 20
-58.1162904025
 11
186.9197334074
 21
-55.4393861594
  0
LINE
  8
3
  6
CONTINUOUS
 62
6
 10
151.7159172298
 20
-87.9662980940
 11
154.3928214728
 21
-90.6432023370
  0
LINE
  8
3
  6
CONTINUOUS
 62
6
 10
151.7159172298
 20
-90.6432023370
 11
154.3928214728
 21
-87.9662980940
  0
LINE
  8
3
  6
CONTINUOUS
 62
6
 10
197.7159172298
 20
-87.9662980940
 11
200.3928214728
 21
-90.6432023370
  0
LINE
  8
3
  6
CONTINUOUS
 62
6
 10
197.7159172298
 20
-90.6432023370
 11
200.3928214728
 21
-87.9662980940
  0
LINE
  8
3
  6
CONTINUOUS
 62
6
 10
230.2428291643
 20
-55.4393861594
 11
232.9197334074
 21
-58.1162904025
  0
LINE
  8
3
  6
CONTINUOUS
 62
6
 10
230.2428291643
 20
-58.1162904025
 11
232.9197334074
 21
-55.4393861594
  0
CIRCLE
  8
3
  6
CONTINUOUS
 62
6
 10
185.5812812859
 20
-56.7778382809
 40
2.6500000000
  0
CIRCLE
  8
3
  6
CONTINUOUS
 62
6
 10
153.0543693513
 20
-89.3047502155
 40
2.6500000000
  0
CIRCLE
  8
3
  6
CONTINUOUS
 62
6
 10
199.0543693513
 20
-89.3047502155
 40
2.6500000000
  0
CIRCLE
  8
3
  6
CONTINUOUS
 62
6
 10
231.5812812859
 20
-56.7778382809
 40
2.6500000000
  0
INSERT
  8
1
  6
CONTINUOUS
 62
5
  2
BALN2
 10
184.3874683405
 20
-54.4119746645
  0
INSERT
  8
1
  6
CONTINUOUS
 62
5
  2
BALN3
 10
230.3874683405
 20
-54.4119746645
  0
INSERT
  8
1
  6
CONTINUOUS
 62
5
  2
BALN4
 10
208.3511050565
 20
-54.4770497385
  0
TEXT
  8
5
  6
CONTINUOUS
 62
7
 10
315.656774
 20
-55.588786
 40
3.000000
  1
ﾋﾞｽ
 41
0.761957
 50
0.000000
 51
0.000000
 72
   5
 73
   0
 11
319.862774
 21
-55.588786
  0
TEXT
  8
5
  6
CONTINUOUS
 62
7
 10
310.656774
 20
-55.588786
 40
3.000000
  1
92
 41
0.854701
 50
0.000000
 51
0.000000
 72
   5
 73
   0
 11
313.656774
 21
-55.588786
  0
TEXT
  8
5
  6
CONTINUOUS
 62
7
 10
335.656774
 20
-55.588786
 40
3.000000
  1
M3×8 ｻﾗ
 41
0.850598
 50
0.000000
 51
0.000000
 72
   5
 73
   0
 11
348.466774
 21
-55.588786
  0
TEXT
  8
5
  6
CONTINUOUS
 62
7
 10
375.656774
 20
-55.588786
 40
3.000000
  1
--
 41
0.854701
 50
0.000000
 51
0.000000
 72
   5
 73
   0
 11
378.656774
 21
-55.588786
  0
TEXT
  8
5
  6
CONTINUOUS
 62
7
 10
391.281774
 20
-55.838786
 40
3.500000
  1
2
 41
1.000000
 50
0.000000
 51
0.000000
 72
   5
 73
   0
 11
393.031774
 21
-55.838786
  0
TEXT
  8
5
  6
CONTINUOUS
 62
7
 10
310.656774
 20
-78.088786
 40
3.000000
  1
94
 41
0.854701
 50
0.000000
 51
0.000000
 72
   5
 73
   0
 11
313.656774
 21
-78.088786
  0
TEXT
  8
5
  6
CONTINUOUS
 62
7
 10
315.656774
 20
-78.088786
 40
3.000000
  1
ﾋﾞｽ
 41
0.761957
 50
0.000000
 51
0.000000
 72
   5
 73
   0
 11
319.862774
 21
-78.088786
  0
TEXT
  8
5
  6
CONTINUOUS
 62
7
 10
335.656774
 20
-78.088786
 40
3.000000
  1
M3×8 ｻﾗ
 41
0.850598
 50
0.000000
 51
0.000000
 72
   5
 73
   0
 11
348.466774
 21
-78.088786
  0
TEXT
  8
5
  6
CONTINUOUS
 62
7
 10
375.656774
 20
-78.088786
 40
3.000000
  1
--
 41
0.854701
 50
0.000000
 51
0.000000
 72
   5
 73
   0
 11
378.656774
 21
-78.088786
  0
TEXT
  8
5
  6
CONTINUOUS
 62
7
 10
391.281774
 20
-78.338786
 40
3.500000
  1
2
 41
1.000000
 50
0.000000
 51
0.000000
 72
   5
 73
   0
 11
393.031774
 21
-78.338786
  0
TEXT
  8
5
  6
CONTINUOUS
 62
7
 10
335.656774
 20
-61.088786
 40
4.000000
  1
Z0259
 41
0.806918
 50
0.000000
 51
0.000000
 72
   5
 73
   0
 11
345.920774
 21
-61.088786
  0
TEXT
  8
5
  6
CONTINUOUS
 62
7
 10
315.656774
 20
-60.588786
 40
3.000000
  1
裏面ｶﾊﾞｰ
 41
0.843299
 50
0.000000
 51
0.000000
 72
   5
 73
   0
 11
327.926774
 21
-60.588786
  0
TEXT
  8
5
  6
CONTINUOUS
 62
7
 10
375.656774
 20
-60.488786
 40
2.800000
  1
ｱﾒﾘｶﾝ電機
 41
0.862681
 50
0.000000
 51
0.000000
 72
   5
 73
   0
 11
388.990374
 21
-60.488786
  0
TEXT
  8
5
  6
CONTINUOUS
 62
7
 10
391.281774
 20
-60.838786
 40
3.500000
  1
1
 41
1.000000
 50
0.000000
 51
0.000000
 72
   5
 73
   0
 11
393.031774
 21
-60.838786
  0
TEXT
  8
5
  6
CONTINUOUS
 62
7
 10
335.656774
 20
-83.588786
 40
4.000000
  1
Z0259
 41
0.806918
 50
0.000000
 51
0.000000
 72
   5
 73
   0
 11
345.920774
 21
-83.588786
  0
TEXT
  8
5
  6
CONTINUOUS
 62
7
 10
315.656774
 20
-83.088786
 40
3.000000
  1
裏面ｶﾊﾞｰ
 41
0.843299
 50
0.000000
 51
0.000000
 72
   5
 73
   0
 11
327.926774
 21
-83.088786
  0
TEXT
  8
5
  6
CONTINUOUS
 62
7
 10
375.656774
 20
-82.988786
 40
2.800000
  1
ｱﾒﾘｶﾝ電機
 41
0.862681
 50
0.000000
 51
0.000000
 72
   5
 73
   0
 11
388.990374
 21
-82.988786
  0
TEXT
  8
5
  6
CONTINUOUS
 62
7
 10
391.281774
 20
-83.338786
 40
3.500000
  1
1
 41
1.000000
 50
0.000000
 51
0.000000
 72
   5
 73
   0
 11
393.031774
 21
-83.338786
  0
LINE
  8
3
  6
CONTINUOUS
 62
7
 10
277.8178253186
 20
-51.5412942482
 11
244.8178253186
 21
-51.5412942482
  0
LINE
  8
3
  6
CONTINUOUS
 62
7
 10
282.8178253186
 20
-56.5412942482
 11
282.8178253186
 21
-89.5412942482
  0
LINE
  8
3
  6
CONTINUOUS
 62
7
 10
277.8178253186
 20
-94.5412942482
 11
244.8178253186
 21
-94.5412942482
  0
LINE
  8
3
  6
CONTINUOUS
 62
7
 10
239.8178253186
 20
-89.5412942482
 11
239.8178253186
 21
-56.5412942482
  0
TEXT
  8
3
  6
CONTINUOUS
 62
7
 10
255.067825
 20
-102.541294
 40
5.000000
  1
A2
 41
0.854701
 50
0.000000
 51
0.000000
 72
   5
 73
   0
 11
260.067825
 21
-102.541294
  0
TEXT
  8
3
  6
CONTINUOUS
 62
7
 10
255.067825
 20
-107.541294
 40
5.000000
  1
ﾌﾞﾗﾝｸ
 41
0.786164
 50
0.000000
 51
0.000000
 72
   5
 73
   0
 11
267.567825
 21
-107.541294
  0
LINE
  8
3
  6
CONTINUOUS
 62
6
 10
243.7159172298
 20
-87.9662980940
 11
246.3928214728
 21
-90.6432023370
  0
LINE
  8
3
  6
CONTINUOUS
 62
6
 10
243.7159172298
 20
-90.6432023370
 11
246.3928214728
 21
-87.9662980940
  0
LINE
  8
3
  6
CONTINUOUS
 62
6
 10
276.2428291643
 20
-55.4393861594
 11
278.9197334074
 21
-58.1162904025
  0
LINE
  8
3
  6
CONTINUOUS
 62
6
 10
276.2428291643
 20
-58.1162904025
 11
278.9197334074
 21
-55.4393861594
  0
CIRCLE
  8
3
  6
CONTINUOUS
 62
6
 10
245.0543693513
 20
-89.3047502155
 40
2.6500000000
  0
CIRCLE
  8
3
  6
CONTINUOUS
 62
6
 10
277.5812812859
 20
-56.7778382809
 40
2.6500000000
  0
INSERT
  8
1
  6
CONTINUOUS
 62
5
  2
BALN5
 10
276.3874683405
 20
-54.4119746645
  0
INSERT
  8
1
  6
CONTINUOUS
 62
5
  2
BALN6
 10
254.3511050565
 20
-54.4770497385
  0
ARC
  8
1
  6
CONTINUOUS
 62
7
 10
244.8178253186
 20
-56.5412942482
 40
5.0000000000
 50
90.0000000000
 51
180.0000000000
  0
ARC
  8
1
  6
CONTINUOUS
 62
7
 10
244.8178253186
 20
-89.5412942482
 40
5.0000000000
 50
180.0000000000
 51
270.0000000000
  0
ARC
  8
1
  6
CONTINUOUS
 62
7
 10
277.8178253186
 20
-89.5412942482
 40
5.0000000000
 50
270.0000000000
 51
0.0000000000
  0
ARC
  8
1
  6
CONTINUOUS
 62
7
 10
277.8178253186
 20
-56.5412942482
 40
5.0000000000
 50
0.0000000000
 51
90.0000000000
  0
LINE
  8
5
  6
CONTINUOUS
 62
6
 10
309.6567742348
 20
-91.5887863704
 11
309.6567742348
 21
-86.5887863704
  0
LINE
  8
5
  6
CONTINUOUS
 62
6
 10
309.6567742348
 20
-86.5887863704
 11
314.6567742348
 21
-86.5887863704
  0
LINE
  8
5
  6
CONTINUOUS
 62
6
 10
314.6567742348
 20
-86.5887863704
 11
334.6567742348
 21
-86.5887863704
  0
LINE
  8
5
  6
CONTINUOUS
 62
6
 10
334.6567742348
 20
-86.5887863704
 11
374.6567742348
 21
-86.5887863704
  0
LINE
  8
5
  6
CONTINUOUS
 62
6
 10
374.6567742348
 20
-86.5887863704
 11
389.6567742348
 21
-86.5887863704
  0
LINE
  8
5
  6
CONTINUOUS
 62
6
 10
389.6567742348
 20
-86.5887863704
 11
394.6567742348
 21
-86.5887863704
  0
LINE
  8
5
  6
CONTINUOUS
 62
6
 10
394.6567742348
 20
-86.5887863704
 11
394.6567742348
 21
-91.5887863704
  0
LINE
  8
5
  6
CONTINUOUS
 62
6
 10
394.6567742348
 20
-91.5887863704
 11
389.6567742348
 21
-91.5887863704
  0
LINE
  8
5
  6
CONTINUOUS
 62
6
 10
389.6567742348
 20
-91.5887863704
 11
374.6567742348
 21
-91.5887863704
  0
LINE
  8
5
  6
CONTINUOUS
 62
6
 10
374.6567742348
 20
-91.5887863704
 11
334.6567742348
 21
-91.5887863704
  0
LINE
  8
5
  6
CONTINUOUS
 62
6
 10
334.6567742348
 20
-91.5887863704
 11
314.6567742348
 21
-91.5887863704
  0
LINE
  8
5
  6
CONTINUOUS
 62
6
 10
314.6567742348
 20
-91.5887863704
 11
309.6567742348
 21
-91.5887863704
  0
LINE
  8
5
  6
CONTINUOUS
 62
6
 10
314.6567742348
 20
-86.5887863704
 11
314.6567742348
 21
-91.5887863704
  0
LINE
  8
5
  6
CONTINUOUS
 62
6
 10
334.6567742348
 20
-86.5887863704
 11
334.6567742348
 21
-91.5887863704
  0
LINE
  8
5
  6
CONTINUOUS
 62
6
 10
374.6567742348
 20
-86.5887863704
 11
374.6567742348
 21
-91.5887863704
  0
LINE
  8
5
  6
CONTINUOUS
 62
6
 10
389.6567742348
 20
-86.5887863704
 11
389.6567742348
 21
-91.5887863704
  0
TEXT
  8
5
  6
CONTINUOUS
 62
7
 10
309.856774
 20
-90.238786
 40
2.300000
  1
項番
 41
0.921659
 50
0.000000
 51
0.000000
 72
   5
 73
   0
 11
314.456774
 21
-90.238786
  0
TEXT
  8
5
  6
CONTINUOUS
 62
7
 10
319.664774
 20
-90.588786
 40
3.000000
  1
品　　名
 41
0.737916
 50
0.000000
 51
0.000000
 72
   5
 73
   0
 11
329.648774
 21
-90.588786
  0
TEXT
  8
5
  6
CONTINUOUS
 62
7
 10
339.503774
 20
-90.588786
 40
3.000000
  1
定  格 / 型  番 / 材　質
 41
0.686277
 50
0.000000
 51
0.000000
 72
   5
 73
   0
 11
369.809774
 21
-90.588786
  0
TEXT
  8
5
  6
CONTINUOUS
 62
7
 10
376.959274
 20
-90.588786
 40
3.000000
  1
メーカー
 41
0.768293
 50
0.000000
 51
0.000000
 72
   5
 73
   0
 11
387.354274
 21
-90.588786
  0
TEXT
  8
5
  6
CONTINUOUS
 62
7
 10
389.856774
 20
-90.238786
 40
2.300000
  1
数量
 41
0.921659
 50
0.000000
 51
0.000000
 72
   5
 73
   0
 11
394.456774
 21
-90.238786
  0
LINE
  8
5
  6
CONTINUOUS
 62
6
 10
309.6567742348
 20
-96.5887863704
 11
309.6567742348
 21
-91.5887863704
  0
LINE
  8
5
  6
CONTINUOUS
 62
6
 10
309.6567742348
 20
-91.5887863704
 11
314.6567742348
 21
-91.5887863704
  0
LINE
  8
5
  6
CONTINUOUS
 62
6
 10
314.6567742348
 20
-91.5887863704
 11
334.6567742348
 21
-91.5887863704
  0
LINE
  8
5
  6
CONTINUOUS
 62
6
 10
334.6567742348
 20
-91.5887863704
 11
374.6567742348
 21
-91.5887863704
  0
LINE
  8
5
  6
CONTINUOUS
 62
6
 10
374.6567742348
 20
-91.5887863704
 11
389.6567742348
 21
-91.5887863704
  0
LINE
  8
5
  6
CONTINUOUS
 62
6
 10
389.6567742348
 20
-91.5887863704
 11
394.6567742348
 21
-91.5887863704
  0
LINE
  8
5
  6
CONTINUOUS
 62
6
 10
394.6567742348
 20
-91.5887863704
 11
394.6567742348
 21
-96.5887863704
  0
LINE
  8
5
  6
CONTINUOUS
 62
6
 10
394.6567742348
 20
-96.5887863704
 11
389.6567742348
 21
-96.5887863704
  0
LINE
  8
5
  6
CONTINUOUS
 62
6
 10
389.6567742348
 20
-96.5887863704
 11
374.6567742348
 21
-96.5887863704
  0
LINE
  8
5
  6
CONTINUOUS
 62
6
 10
374.6567742348
 20
-96.5887863704
 11
334.6567742348
 21
-96.5887863704
  0
LINE
  8
5
  6
CONTINUOUS
 62
6
 10
334.6567742348
 20
-96.5887863704
 11
314.6567742348
 21
-96.5887863704
  0
LINE
  8
5
  6
CONTINUOUS
 62
6
 10
314.6567742348
 20
-96.5887863704
 11
309.6567742348
 21
-96.5887863704
  0
LINE
  8
5
  6
CONTINUOUS
 62
6
 10
314.6567742348
 20
-91.5887863704
 11
314.6567742348
 21
-96.5887863704
  0
LINE
  8
5
  6
CONTINUOUS
 62
6
 10
334.6567742348
 20
-91.5887863704
 11
334.6567742348
 21
-96.5887863704
  0
LINE
  8
5
  6
CONTINUOUS
 62
6
 10
374.6567742348
 20
-91.5887863704
 11
374.6567742348
 21
-96.5887863704
  0
LINE
  8
5
  6
CONTINUOUS
 62
6
 10
389.6567742348
 20
-91.5887863704
 11
389.6567742348
 21
-96.5887863704
  0
TEXT
  8
5
  6
CONTINUOUS
 62
7
 10
310.656774
 20
-95.588786
 40
3.000000
  1
95
 41
0.854701
 50
0.000000
 51
0.000000
 72
   5
 73
   0
 11
313.656774
 21
-95.588786
  0
TEXT
  8
5
  6
CONTINUOUS
 62
7
 10
315.656774
 20
-95.588786
 40
3.000000
  1
ﾌﾞﾗﾝｸﾊﾟﾈﾙ
 41
0.789932
 50
0.000000
 51
0.000000
 72
   5
 73
   0
 11
329.543774
 21
-95.588786
  0
TEXT
  8
5
  6
CONTINUOUS
 62
7
 10
335.656774
 20
-96.088786
 40
4.000000
  1
M0051B303A
 41
0.765697
 50
0.000000
 51
0.000000
 72
   5
 73
   0
 11
355.656774
 21
-96.088786
  0
TEXT
  8
5
  6
CONTINUOUS
 62
7
 10
391.281774
 20
-95.838786
 40
3.500000
  1
1
 41
1.000000
 50
0.000000
 51
0.000000
 72
   5
 73
   0
 11
393.031774
 21
-95.838786
  0
LINE
  8
5
  6
CONTINUOUS
 62
6
 10
394.6567742348
 20
-101.5887863704
 11
389.6567742348
 21
-101.5887863704
  0
LINE
  8
5
  6
CONTINUOUS
 62
6
 10
389.6567742348
 20
-101.5887863704
 11
374.6567742348
 21
-101.5887863704
  0
LINE
  8
5
  6
CONTINUOUS
 62
6
 10
374.6567742348
 20
-101.5887863704
 11
334.6567742348
 21
-101.5887863704
  0
LINE
  8
5
  6
CONTINUOUS
 62
6
 10
334.6567742348
 20
-101.5887863704
 11
314.6567742348
 21
-101.5887863704
  0
LINE
  8
5
  6
CONTINUOUS
 62
6
 10
314.6567742348
 20
-101.5887863704
 11
309.6567742348
 21
-101.5887863704
  0
TEXT
  8
5
  6
CONTINUOUS
 62
7
 10
310.656774
 20
-105.588786
 40
3.000000
  1
--
 41
0.854701
 50
0.000000
 51
0.000000
 72
   5
 73
   0
 11
313.656774
 21
-105.588786
  0
LINE
  8
5
  6
CONTINUOUS
 62
6
 10
309.6567742348
 20
-101.5887863704
 11
309.6567742348
 21
-96.5887863704
  0
LINE
  8
5
  6
CONTINUOUS
 62
6
 10
309.6567742348
 20
-106.5887863704
 11
309.6567742348
 21
-101.5887863704
  0
LINE
  8
5
  6
CONTINUOUS
 62
6
 10
314.6567742348
 20
-96.5887863704
 11
314.6567742348
 21
-101.5887863704
  0
LINE
  8
5
  6
CONTINUOUS
 62
6
 10
314.6567742348
 20
-101.5887863704
 11
314.6567742348
 21
-106.5887863704
  0
LINE
  8
5
  6
CONTINUOUS
 62
6
 10
334.6567742348
 20
-96.5887863704
 11
334.6567742348
 21
-101.5887863704
  0
LINE
  8
5
  6
CONTINUOUS
 62
6
 10
334.6567742348
 20
-101.5887863704
 11
334.6567742348
 21
-106.5887863704
  0
LINE
  8
5
  6
CONTINUOUS
 62
6
 10
374.6567742348
 20
-96.5887863704
 11
374.6567742348
 21
-101.5887863704
  0
LINE
  8
5
  6
CONTINUOUS
 62
6
 10
374.6567742348
 20
-101.5887863704
 11
374.6567742348
 21
-106.5887863704
  0
LINE
  8
5
  6
CONTINUOUS
 62
6
 10
389.6567742348
 20
-96.5887863704
 11
389.6567742348
 21
-101.5887863704
  0
LINE
  8
5
  6
CONTINUOUS
 62
6
 10
389.6567742348
 20
-101.5887863704
 11
389.6567742348
 21
-106.5887863704
  0
LINE
  8
5
  6
CONTINUOUS
 62
6
 10
394.6567742348
 20
-96.5887863704
 11
394.6567742348
 21
-101.5887863704
  0
LINE
  8
5
  6
CONTINUOUS
 62
6
 10
394.6567742348
 20
-101.5887863704
 11
394.6567742348
 21
-106.5887863704
  0
LINE
  8
5
  6
CONTINUOUS
 62
6
 10
299.6567742348
 20
-91.5887863704
 11
299.6567742348
 21
-86.5887863704
  0
LINE
  8
5
  6
CONTINUOUS
 62
6
 10
299.6567742348
 20
-86.5887863704
 11
309.6567742348
 21
-86.5887863704
  0
LINE
  8
5
  6
CONTINUOUS
 62
6
 10
309.6567742348
 20
-91.5887863704
 11
304.6567742348
 21
-91.5887863704
  0
LINE
  8
5
  6
CONTINUOUS
 62
6
 10
309.6567742348
 20
-86.5887863704
 11
309.6567742348
 21
-91.5887863704
  0
TEXT
  8
5
  6
CONTINUOUS
 62
7
 10
302.194993
 20
-90.588786
 40
3.000000
  1
型番
 41
0.921659
 50
0.000000
 51
0.000000
 72
   5
 73
   0
 11
308.194993
 21
-90.588786
  0
LINE
  8
5
  6
CONTINUOUS
 62
6
 10
299.6567742348
 20
-96.5887863704
 11
299.6567742348
 21
-91.5887863704
  0
LINE
  8
5
  6
CONTINUOUS
 62
6
 10
299.6567742348
 20
-91.5887863704
 11
309.6567742348
 21
-91.5887863704
  0
LINE
  8
5
  6
CONTINUOUS
 62
6
 10
309.6567742348
 20
-91.5887863704
 11
309.6567742348
 21
-96.5887863704
  0
TEXT
  8
5
  6
CONTINUOUS
 62
7
 10
302.928993
 20
-96.088786
 40
4.000000
  1
A2
 41
0.968376
 50
0.000000
 51
0.000000
 72
   5
 73
   0
 11
307.460993
 21
-96.088786
  0
LINE
  8
5
  6
CONTINUOUS
 62
6
 10
299.6567742348
 20
-101.5887863704
 11
299.6567742348
 21
-96.5887863704
  0
LINE
  8
5
  6
CONTINUOUS
 62
6
 10
299.6567742348
 20
-106.5887863704
 11
299.6567742348
 21
-101.5887863704
  0
LINE
  8
5
  6
CONTINUOUS
 62
6
 10
309.6567742348
 20
-96.5887863704
 11
309.6567742348
 21
-101.5887863704
  0
LINE
  8
5
  6
CONTINUOUS
 62
6
 10
309.6567742348
 20
-101.5887863704
 11
309.6567742348
 21
-106.5887863704
  0
LINE
  8
5
  6
CONTINUOUS
 62
6
 10
394.6567742348
 20
-106.5887863704
 11
389.6567742348
 21
-106.5887863704
  0
LINE
  8
5
  6
CONTINUOUS
 62
6
 10
389.6567742348
 20
-106.5887863704
 11
374.6567742348
 21
-106.5887863704
  0
LINE
  8
5
  6
CONTINUOUS
 62
6
 10
374.6567742348
 20
-106.5887863704
 11
334.6567742348
 21
-106.5887863704
  0
LINE
  8
5
  6
CONTINUOUS
 62
6
 10
334.6567742348
 20
-106.5887863704
 11
314.6567742348
 21
-106.5887863704
  0
LINE
  8
5
  6
CONTINUOUS
 62
6
 10
314.6567742348
 20
-106.5887863704
 11
309.6567742348
 21
-106.5887863704
  0
LINE
  8
5
  6
CONTINUOUS
 62
6
 10
309.6567742348
 20
-106.5887863704
 11
299.6567742348
 21
-106.5887863704
  0
TEXT
  8
5
  6
CONTINUOUS
 62
7
 10
375.656774
 20
-95.588786
 40
3.000000
  1
MADOKA
 41
1.028831
 50
0.000000
 51
0.000000
 72
   5
 73
   0
 11
387.539774
 21
-95.588786
  0
TEXT
  8
5
  6
CONTINUOUS
 62
7
 10
310.656774
 20
-100.588786
 40
3.000000
  1
96
 41
0.854701
 50
0.000000
 51
0.000000
 72
   5
 73
   0
 11
313.656774
 21
-100.588786
  0
TEXT
  8
5
  6
CONTINUOUS
 62
7
 10
315.656774
 20
-100.588786
 40
3.000000
  1
ﾋﾞｽ
 41
0.761957
 50
0.000000
 51
0.000000
 72
   5
 73
   0
 11
319.862774
 21
-100.588786
  0
TEXT
  8
5
  6
CONTINUOUS
 62
7
 10
335.656774
 20
-100.588786
 40
3.000000
  1
M3×8 小ワｾﾑｽ
 41
0.863014
 50
0.000000
 51
0.000000
 72
   5
 73
   0
 11
356.446774
 21
-100.588786
  0
TEXT
  8
5
  6
CONTINUOUS
 62
7
 10
375.656774
 20
-100.588786
 40
3.000000
  1
--
 41
0.854701
 50
0.000000
 51
0.000000
 72
   5
 73
   0
 11
378.656774
 21
-100.588786
  0
TEXT
  8
5
  6
CONTINUOUS
 62
7
 10
391.281774
 20
-100.838786
 40
3.500000
  1
2
 41
1.000000
 50
0.000000
 51
0.000000
 72
   5
 73
   0
 11
393.031774
 21
-100.838786
  0
TEXT
  8
5
  6
CONTINUOUS
 62
7
 10
335.656774
 20
-106.088786
 40
4.000000
  1
--
 41
0.854701
 50
0.000000
 51
0.000000
 72
   5
 73
   0
 11
339.656774
 21
-106.088786
  0
TEXT
  8
5
  6
CONTINUOUS
 62
7
 10
315.656774
 20
-105.588786
 40
3.000000
  1
--
 41
0.854701
 50
0.000000
 51
0.000000
 72
   5
 73
   0
 11
318.656774
 21
-105.588786
  0
TEXT
  8
5
  6
CONTINUOUS
 62
7
 10
375.656774
 20
-105.488786
 40
2.800000
  1
--
 41
0.854701
 50
0.000000
 51
0.000000
 72
   5
 73
   0
 11
378.456774
 21
-105.488786
  0
TEXT
  8
5
  6
CONTINUOUS
 62
7
 10
390.406774
 20
-105.838786
 40
3.500000
  1
--
 41
0.854701
 50
0.000000
 51
0.000000
 72
   5
 73
   0
 11
393.906774
 21
-105.838786
  0
LINE
  8
4
  6
CONTINUOUS
 62
3
 10
323.7097392007
 20
172.6540475624
 11
376.7097392007
 21
172.6540475624
  0
LINE
  8
4
  6
CONTINUOUS
 62
3
 10
376.7097392007
 20
172.6540475624
 11
376.7097392007
 21
64.6540475624
  0
LINE
  8
4
  6
CONTINUOUS
 62
3
 10
323.7097392007
 20
64.6540475624
 11
323.7097392007
 21
172.6540475624
  0
LINE
  8
4
  6
CONTINUOUS
 62
3
 10
376.7097392007
 20
64.6540475624
 11
323.7097392007
 21
64.6540475624
  0
CIRCLE
  8
4
  6
CONTINUOUS
 62
3
 10
330.2097392007
 20
177.1540475624
 40
1.5000000000
  0
CIRCLE
  8
4
  6
CONTINUOUS
 62
3
 10
370.2097392007
 20
177.1540475624
 40
1.5000000000
  0
CIRCLE
  8
4
  6
CONTINUOUS
 62
3
 10
330.2097392007
 20
60.1540475624
 40
1.5000000000
  0
CIRCLE
  8
4
  6
CONTINUOUS
 62
3
 10
370.2097392007
 20
60.1540475624
 40
1.5000000000
  0
CIRCLE
  8
4
  6
CONTINUOUS
 62
3
 10
350.2097392007
 20
177.1540475624
 40
2.2500000000
  0
CIRCLE
  8
4
  6
CONTINUOUS
 62
3
 10
350.2097392007
 20
60.1540475624
 40
2.2500000000
  0
DIMENSION
  8
4
  6
CONTINUOUS
 62
5
  2
*D7
 10
330.2097392007
 20
183.8474963863
 11
326.9597392007
 21
186.5974963863
  70
0
 13
323.7097392007
 23
172.6540475624
 14
330.2097392007
 24
175.6540475624
 50
0.000000
  0
DIMENSION
  8
4
  6
CONTINUOUS
 62
5
  2
*D8
 10
350.2097392007
 20
183.8474963863
 11
340.2097392007
 21
186.5974963863
  70
0
 13
330.2097392007
 23
175.6540475624
 14
350.2097392007
 24
174.9040475624
 50
0.000000
  0
DIMENSION
  8
4
  6
CONTINUOUS
 62
5
  2
*D9
 10
370.2097392007
 20
183.8474963863
 11
360.2097392007
 21
186.5974963863
  70
0
 13
350.2097392007
 23
174.9040475624
 14
370.2097392007
 24
175.6540475624
 50
0.000000
  0
DIMENSION
  8
4
  6
CONTINUOUS
 62
5
  2
*D10
 10
376.7097392007
 20
183.8474963863
 11
373.4597392007
 21
186.5974963863
  70
0
 13
370.2097392007
 23
175.6540475624
 14
376.7097392007
 24
172.6540475624
 50
0.000000
  0
DIMENSION
  8
4
  6
CONTINUOUS
 62
5
  2
*D11
 10
376.7097392007
 20
190.8474963863
 11
350.2097392007
 21
193.5974963863
  70
0
 13
323.7097392007
 23
172.6540475624
 14
376.7097392007
 24
172.6540475624
 50
0.000000
  0
DIMENSION
  8
4
  6
CONTINUOUS
 62
5
  2
*D12
 10
329.3588695761
 20
178.3893697398
 11
332.4744965259
 21
178.7139752075
  70
3
 15
331.0606088253
 25
175.9187253850
  0
DIMENSION
  8
4
  6
CONTINUOUS
 62
5
  2
*D13
 10
348.8085413633
 20
178.9144863203
 11
352.3613865715
 21
178.8666226970
  70
3
 15
351.6109370382
 25
175.3936088045
  0
TEXT
  8
4
  6
CONTINUOUS
 62
7
 10
327.537763
 20
36.448135
 40
5.000000
  1
パネルカット図
 41
0.872818
 50
0.000000
 51
0.000000
 72
   5
 73
   0
 11
362.537763
 21
36.448135
  0
TEXT
  8
4
  6
CONTINUOUS
 62
7
 10
327.537763
 20
31.448135
 40
5.000000
  1
推奨板厚 t=1.6以上
 41
0.827967
 50
0.000000
 51
0.000000
 72
   5
 73
   0
 11
372.537763
 21
31.448135
  0
LINE
  8
1
  6
HIDDEN
 62
1
 10
384.7097392007
 20
44.4040475624
 11
384.7097392007
 21
199.9040475624
  0
LINE
  8
1
  6
HIDDEN
 62
1
 10
384.7097392007
 20
199.9040475624
 11
315.7097392007
 21
199.9040475624
  0
LINE
  8
1
  6
HIDDEN
 62
1
 10
315.7097392007
 20
199.9040475624
 11
315.7097392007
 21
44.4040475624
  0
LINE
  8
1
  6
HIDDEN
 62
1
 10
384.7097392007
 20
44.4040475624
 11
315.7097392007
 21
44.4040475624
  0
DIMENSION
  8
1
  6
CONTINUOUS
 62
5
  2
*D14
 10
311.5138729176
 20
64.6540475624
 11
309.0138729176
 21
62.4040475624
  70
0
 13
371.7097392007
 23
60.1540475624
 14
323.7097392007
 24
64.6540475624
 50
90.000000
  0
DIMENSION
  8
1
  6
CONTINUOUS
 62
5
  2
*D15
 10
311.5138729176
 20
172.6540475624
 11
308.7638729176
 21
118.6540475624
  70
0
 13
323.7097392007
 23
64.6540475624
 14
323.7097392007
 24
172.6540475624
 50
90.000000
  0
DIMENSION
  8
1
  6
CONTINUOUS
 62
5
  2
*D16
 10
311.5138729176
 20
177.1540475624
 11
309.0138729176
 21
174.9040475624
  70
0
 13
323.7097392007
 23
172.6540475624
 14
371.7097392007
 24
177.1540475624
 50
90.000000
  0
DIMENSION
  8
1
  6
CONTINUOUS
 62
5
  2
*D17
 10
304.5138729176
 20
177.1540475624
 11
301.7638729176
 21
118.6540475624
  70
0
 13
371.7097392007
 23
60.1540475624
 14
371.7097392007
 24
177.1540475624
 50
90.000000
  0
DIMENSION
  8
1
  6
CONTINUOUS
 62
5
  2
*D18
 10
392.3529732637
 20
64.6540475624
 11
389.6029732637
 21
54.5290475624
  70
0
 13
384.7097392007
 23
44.4040475624
 14
376.7097392007
 24
64.6540475624
 50
90.000000
  0
DIMENSION
  8
1
  6
CONTINUOUS
 62
5
  2
*D19
 10
392.3529732637
 20
172.6540475624
 11
389.6029732637
 21
118.6540475624
  70
0
 13
376.7097392007
 23
64.6540475624
 14
376.7097392007
 24
172.6540475624
 50
90.000000
  0
DIMENSION
  8
1
  6
CONTINUOUS
 62
5
  2
*D20
 10
392.3529732637
 20
199.9040475624
 11
389.6029732637
 21
186.2790475624
  70
0
 13
376.7097392007
 23
172.6540475624
 14
384.7097392007
 24
199.9040475624
 50
90.000000
  0
INSERT
  8
1
  6
CONTINUOUS
 62
5
  2
LTEX1
 10
328.5640805301
 20
44.4040475624
  0
INSERT
  8
1
  6
CONTINUOUS
 62
5
  2
BALN7
 10
112.1348058892
 20
202.0171741535
  0
INSERT
  8
1
  6
CONTINUOUS
 62
5
  2
BALN8
 10
131.0889601190
 20
214.9344220794
  0
INSERT
  8
1
  6
CONTINUOUS
 62
5
  2
BALN9
 10
173.9105182328
 20
197.3525214537
  0
INSERT
  8
1
  6
CONTINUOUS
 62
5
  2
BALN10
 10
193.9105182328
 20
201.2525214536
  0
INSERT
  8
1
  6
CONTINUOUS
 62
5
  2
BALN11
 10
208.7458902071
 20
187.3847268719
  0
POINT
  8
3
  6
CONTINUOUS
 62
5
 10
206.4105182328
 20
161.8525214537
  0
LINE
  8
3
  6
CONTINUOUS
 62
3
 10
214.9105182328
 20
174.0025214537
 11
214.9105182328
 21
149.7025214537
  0
LINE
  8
3
  6
CONTINUOUS
 62
3
 10
197.9105182328
 20
174.0025214537
 11
214.9105182328
 21
174.0025214537
  0
LINE
  8
3
  6
CONTINUOUS
 62
3
 10
197.9105182328
 20
149.7025214537
 11
197.9105182328
 21
174.0025214537
  0
LINE
  8
3
  6
CONTINUOUS
 62
3
 10
214.9105182328
 20
149.7025214537
 11
197.9105182328
 21
149.7025214537
  0
POINT
  8
1
  6
CONTINUOUS
 62
7
 10
220.2580837707
 20
267.5672014773
  0
POINT
  8
1
  6
CONTINUOUS
 62
7
 10
220.2580837707
 20
251.1458479146
  0
LINE
  8
1
  6
CONTINUOUS
 62
7
 10
219.2580837707
 20
266.1649135956
 11
212.2485722674
 21
266.1649135956
  0
LINE
  8
1
  6
CONTINUOUS
 62
7
 10
212.2485722674
 20
266.1649135956
 11
212.2485722674
 21
270.5019010166
  0
LINE
  8
1
  6
CONTINUOUS
 62
7
 10
219.2580837707
 20
249.7435600329
 11
204.5149953318
 21
249.7435600329
  0
LINE
  8
1
  6
CONTINUOUS
 62
7
 10
204.5149953318
 20
249.7435600329
 11
204.5149953318
 21
270.5019010166
  0
TEXT
  8
3
  6
CONTINUOUS
 62
7
 10
200.910518
 20
161.852521
 40
5.500000
  1
⑩
 41
1.000000
 50
0.000000
 51
0.000000
 72
   5
 73
   0
 11
206.410518
 21
161.852521
  0
TEXT
  8
3
  6
CONTINUOUS
 62
7
 10
200.910518
 20
156.352521
 40
5.500000
  1
RJ45
 41
0.796813
 50
0.000000
 51
0.000000
 72
   5
 73
   0
 11
211.910518
 21
156.352521
  0
LINE
  8
3
  6
HIDDEN
 62
3
 10
39.2719826269
 20
-256.0501240435
 11
39.2719826269
 21
-266.0501240435
  0
LINE
  8
3
  6
CONTINUOUS
 62
7
 10
77.7719826269
 20
-223.0501240435
 11
46.7719826269
 21
-223.0501240435
  0
LINE
  8
3
  6
CONTINUOUS
 62
7
 10
83.7719826269
 20
-260.0501240435
 11
83.7719826269
 21
-229.0501240435
  0
LINE
  8
3
  6
CONTINUOUS
 62
7
 10
46.7719826269
 20
-266.0501240435
 11
77.7719826269
 21
-266.0501240435
  0
LINE
  8
3
  6
CONTINUOUS
 62
7
 10
40.7719826269
 20
-260.0501240435
 11
40.7719826269
 21
-229.0501240435
  0
POINT
  8
3
  6
CONTINUOUS
 62
7
 10
62.2719826269
 20
-244.5501240435
  0
CIRCLE
  8
3
  6
CONTINUOUS
 62
7
 10
62.2719826269
 20
-244.5501240435
 40
17.2500000000
  0
CIRCLE
  8
3
  6
CONTINUOUS
 62
7
 10
78.5354385942
 20
-228.2866680762
 40
2.0000000000
  0
CIRCLE
  8
3
  6
CONTINUOUS
 62
7
 10
46.0085266596
 20
-260.8135800108
 40
2.0000000000
  0
CIRCLE
  8
3
  6
CONTINUOUS
 62
7
 10
78.5354385942
 20
-228.2866680762
 40
3.0000000000
  0
CIRCLE
  8
3
  6
CONTINUOUS
 62
7
 10
46.0085266596
 20
-260.8135800108
 40
3.0000000000
  0
TEXT
  8
3
  6
CONTINUOUS
 62
7
 10
59.646983
 20
-251.475881
 40
3.500000
  1
125
 41
0.815217
 50
0.000000
 51
0.000000
 72
   5
 73
   0
 11
64.896983
 21
-251.475881
  0
TEXT
  8
3
  6
CONTINUOUS
 62
7
 10
61.521983
 20
-254.157627
 40
3.000000
  1
V
 41
1.000000
 50
0.000000
 51
0.000000
 72
   5
 73
   0
 11
63.021983
 21
-254.157627
  0
INSERT
  8
3
  6
CONTINUOUS
 62
7
  2
S5
 10
67.5852531539
 20
-235.3312885801
  0
ARC
  8
3
  6
CONTINUOUS
 62
7
 10
46.7719826269
 20
-229.0501240435
 40
6.0000000000
 50
90.0000000000
 51
180.0000000000
  0
ARC
  8
3
  6
CONTINUOUS
 62
7
 10
77.7719826269
 20
-229.0501240435
 40
6.0000000000
 50
0.0000000000
 51
90.0000000000
  0
ARC
  8
3
  6
CONTINUOUS
 62
7
 10
77.7719826269
 20
-260.0501240435
 40
6.0000000000
 50
270.0000000000
 51
0.0000000000
  0
ARC
  8
3
  6
CONTINUOUS
 62
7
 10
46.7719826269
 20
-260.0501240435
 40
6.0000000000
 50
180.0000000000
 51
270.0000000000
  0
ARC
  8
3
  6
CONTINUOUS
 62
5
 10
62.2719826269
 20
-235.4001240435
 40
2.6500000000
 50
180.0000000000
 51
0.0000000000
  0
LINE
  8
3
  6
CONTINUOUS
 62
5
 10
59.6219826269
 20
-235.4001240435
 11
59.6219826269
 21
-232.7501240435
  0
LINE
  8
3
  6
CONTINUOUS
 62
5
 10
59.6219826269
 20
-232.7501240435
 11
64.9219826269
 21
-232.7501240435
  0
LINE
  8
3
  6
CONTINUOUS
 62
5
 10
64.9219826269
 20
-232.7501240435
 11
64.9219826269
 21
-235.4001240435
  0
LINE
  8
3
  6
CONTINUOUS
 62
5
 10
67.5719826269
 20
-242.9501240435
 11
69.7719826269
 21
-242.9501240435
  0
LINE
  8
3
  6
CONTINUOUS
 62
5
 10
69.7719826269
 20
-242.9501240435
 11
69.7719826269
 21
-251.6501240435
  0
LINE
  8
3
  6
CONTINUOUS
 62
5
 10
69.7719826269
 20
-251.6501240435
 11
67.5719826269
 21
-251.6501240435
  0
LINE
  8
3
  6
CONTINUOUS
 62
5
 10
67.5719826269
 20
-251.6501240435
 11
67.5719826269
 21
-242.9501240435
  0
LINE
  8
3
  6
CONTINUOUS
 62
5
 10
54.7719826269
 20
-243.8001240435
 11
56.9719826269
 21
-243.8001240435
  0
LINE
  8
3
  6
CONTINUOUS
 62
5
 10
56.9719826269
 20
-243.8001240435
 11
56.9719826269
 21
-250.8001240434
  0
LINE
  8
3
  6
CONTINUOUS
 62
5
 10
56.9719826269
 20
-250.8001240434
 11
54.7719826269
 21
-250.8001240434
  0
LINE
  8
3
  6
CONTINUOUS
 62
5
 10
54.7719826269
 20
-250.8001240434
 11
54.7719826269
 21
-243.8001240435
  0
CIRCLE
  8
3
  6
CONTINUOUS
 62
5
 10
72.1598789591
 20
-247.3001240435
 40
1.5000000000
  0
TEXT
  8
3
  6
CONTINUOUS
 62
5
 10
71.534879
 20
-248.550124
 40
2.500000
  1
N
 41
1.000000
 50
0.000000
 51
0.000000
 72
   5
 73
   0
 11
72.784879
 21
-248.550124
  0
TEXT
  8
3
  6
CONTINUOUS
 62
7
 10
60.021983
 20
-244.550124
 40
4.500000
  1
15
 41
0.854701
 50
0.000000
 51
0.000000
 72
   5
 73
   0
 11
64.521983
 21
-244.550124
  0
TEXT
  8
3
  6
CONTINUOUS
 62
7
 10
61.521983
 20
-247.550124
 40
3.000000
  1
A
 41
1.000000
 50
0.000000
 51
0.000000
 72
   5
 73
   0
 11
63.021983
 21
-247.550124
  0
POINT
  8
3
  6
CONTINUOUS
 62
5
 10
181.4105182328
 20
161.8525214537
  0
LINE
  8
3
  6
CONTINUOUS
 62
3
 10
172.9105182328
 20
174.0025214537
 11
172.9105182328
 21
149.7025214537
  0
LINE
  8
3
  6
CONTINUOUS
 62
3
 10
189.9105182328
 20
174.0025214537
 11
172.9105182328
 21
174.0025214537
  0
LINE
  8
3
  6
CONTINUOUS
 62
3
 10
189.9105182328
 20
149.7025214537
 11
189.9105182328
 21
174.0025214537
  0
LINE
  8
3
  6
CONTINUOUS
 62
3
 10
172.9105182328
 20
149.7025214537
 11
189.9105182328
 21
149.7025214537
  0
TEXT
  8
3
  6
CONTINUOUS
 62
7
 10
175.910518
 20
161.852521
 40
5.500000
  1
⑩
 41
1.000000
 50
0.000000
 51
0.000000
 72
   5
 73
   0
 11
181.410518
 21
161.852521
  0
TEXT
  8
3
  6
CONTINUOUS
 62
7
 10
175.910518
 20
156.352521
 40
5.500000
  1
RJ45
 41
0.796813
 50
0.000000
 51
0.000000
 72
   5
 73
   0
 11
186.910518
 21
156.352521
  0
POINT
  8
3
  6
CONTINUOUS
 62
5
 10
74.7719826269
 20
-189.5501240435
  0
LINE
  8
3
  6
CONTINUOUS
 62
3
 10
83.2719826269
 20
-177.4001240435
 11
83.2719826269
 21
-201.7001240435
  0
LINE
  8
3
  6
CONTINUOUS
 62
3
 10
66.2719826269
 20
-177.4001240435
 11
83.2719826269
 21
-177.4001240435
  0
LINE
  8
3
  6
CONTINUOUS
 62
3
 10
66.2719826269
 20
-201.7001240435
 11
66.2719826269
 21
-177.4001240435
  0
LINE
  8
3
  6
CONTINUOUS
 62
3
 10
83.2719826269
 20
-201.7001240435
 11
66.2719826269
 21
-201.7001240435
  0
TEXT
  8
3
  6
CONTINUOUS
 62
7
 10
69.271983
 20
-189.550124
 40
5.500000
  1
⑩
 41
1.000000
 50
0.000000
 51
0.000000
 72
   5
 73
   0
 11
74.771983
 21
-189.550124
  0
TEXT
  8
3
  6
CONTINUOUS
 62
7
 10
69.271983
 20
-195.050124
 40
5.500000
  1
RJ45
 41
0.796813
 50
0.000000
 51
0.000000
 72
   5
 73
   0
 11
80.271983
 21
-195.050124
  0
POINT
  8
3
  6
CONTINUOUS
 62
5
 10
49.7719826269
 20
-189.5501240435
  0
LINE
  8
3
  6
CONTINUOUS
 62
3
 10
41.2719826269
 20
-177.4001240435
 11
41.2719826269
 21
-201.7001240435
  0
LINE
  8
3
  6
CONTINUOUS
 62
3
 10
58.2719826269
 20
-177.4001240435
 11
41.2719826269
 21
-177.4001240435
  0
LINE
  8
3
  6
CONTINUOUS
 62
3
 10
58.2719826269
 20
-201.7001240435
 11
58.2719826269
 21
-177.4001240435
  0
LINE
  8
3
  6
CONTINUOUS
 62
3
 10
41.2719826269
 20
-201.7001240435
 11
58.2719826269
 21
-201.7001240435
  0
TEXT
  8
3
  6
CONTINUOUS
 62
7
 10
44.271983
 20
-189.550124
 40
5.500000
  1
⑩
 41
1.000000
 50
0.000000
 51
0.000000
 72
   5
 73
   0
 11
49.771983
 21
-189.550124
  0
TEXT
  8
3
  6
CONTINUOUS
 62
7
 10
44.271983
 20
-195.050124
 40
5.500000
  1
RJ45
 41
0.796813
 50
0.000000
 51
0.000000
 72
   5
 73
   0
 11
55.271983
 21
-195.050124
  0
LINE
  8
5
  6
CONTINUOUS
 62
6
 10
309.6567742348
 20
-153.3646689503
 11
309.6567742348
 21
-148.3646689503
  0
LINE
  8
5
  6
CONTINUOUS
 62
6
 10
309.6567742348
 20
-148.3646689503
 11
314.6567742348
 21
-148.3646689503
  0
LINE
  8
5
  6
CONTINUOUS
 62
6
 10
314.6567742348
 20
-148.3646689503
 11
334.6567742348
 21
-148.3646689503
  0
LINE
  8
5
  6
CONTINUOUS
 62
6
 10
334.6567742348
 20
-148.3646689503
 11
374.6567742348
 21
-148.3646689503
  0
LINE
  8
5
  6
CONTINUOUS
 62
6
 10
374.6567742348
 20
-148.3646689503
 11
389.6567742348
 21
-148.3646689503
  0
LINE
  8
5
  6
CONTINUOUS
 62
6
 10
389.6567742348
 20
-148.3646689503
 11
394.6567742348
 21
-148.3646689503
  0
LINE
  8
5
  6
CONTINUOUS
 62
6
 10
394.6567742348
 20
-148.3646689503
 11
394.6567742348
 21
-153.3646689503
  0
LINE
  8
5
  6
CONTINUOUS
 62
6
 10
394.6567742348
 20
-153.3646689503
 11
389.6567742348
 21
-153.3646689503
  0
LINE
  8
5
  6
CONTINUOUS
 62
6
 10
389.6567742348
 20
-153.3646689503
 11
374.6567742348
 21
-153.3646689503
  0
LINE
  8
5
  6
CONTINUOUS
 62
6
 10
374.6567742348
 20
-153.3646689503
 11
334.6567742348
 21
-153.3646689503
  0
LINE
  8
5
  6
CONTINUOUS
 62
6
 10
334.6567742348
 20
-153.3646689503
 11
314.6567742348
 21
-153.3646689503
  0
LINE
  8
5
  6
CONTINUOUS
 62
6
 10
314.6567742348
 20
-153.3646689503
 11
309.6567742348
 21
-153.3646689503
  0
LINE
  8
5
  6
CONTINUOUS
 62
6
 10
314.6567742348
 20
-148.3646689503
 11
314.6567742348
 21
-153.3646689503
  0
LINE
  8
5
  6
CONTINUOUS
 62
6
 10
334.6567742348
 20
-148.3646689503
 11
334.6567742348
 21
-153.3646689503
  0
LINE
  8
5
  6
CONTINUOUS
 62
6
 10
374.6567742348
 20
-148.3646689503
 11
374.6567742348
 21
-153.3646689503
  0
LINE
  8
5
  6
CONTINUOUS
 62
6
 10
389.6567742348
 20
-148.3646689503
 11
389.6567742348
 21
-153.3646689503
  0
TEXT
  8
5
  6
CONTINUOUS
 62
7
 10
309.856774
 20
-152.014669
 40
2.300000
  1
項番
 41
0.921659
 50
0.000000
 51
0.000000
 72
   5
 73
   0
 11
314.456774
 21
-152.014669
  0
TEXT
  8
5
  6
CONTINUOUS
 62
7
 10
319.664774
 20
-152.364669
 40
3.000000
  1
品　　名
 41
0.737916
 50
0.000000
 51
0.000000
 72
   5
 73
   0
 11
329.648774
 21
-152.364669
  0
TEXT
  8
5
  6
CONTINUOUS
 62
7
 10
339.503774
 20
-152.364669
 40
3.000000
  1
定  格 / 型  番 / 材　質
 41
0.686277
 50
0.000000
 51
0.000000
 72
   5
 73
   0
 11
369.809774
 21
-152.364669
  0
TEXT
  8
5
  6
CONTINUOUS
 62
7
 10
376.959274
 20
-152.364669
 40
3.000000
  1
メーカー
 41
0.768293
 50
0.000000
 51
0.000000
 72
   5
 73
   0
 11
387.354274
 21
-152.364669
  0
TEXT
  8
5
  6
CONTINUOUS
 62
7
 10
389.856774
 20
-152.014669
 40
2.300000
  1
数量
 41
0.921659
 50
0.000000
 51
0.000000
 72
   5
 73
   0
 11
394.456774
 21
-152.014669
  0
LINE
  8
5
  6
CONTINUOUS
 62
6
 10
309.6567742348
 20
-158.3646689503
 11
309.6567742348
 21
-153.3646689503
  0
LINE
  8
5
  6
CONTINUOUS
 62
6
 10
309.6567742348
 20
-153.3646689503
 11
314.6567742348
 21
-153.3646689503
  0
LINE
  8
5
  6
CONTINUOUS
 62
6
 10
314.6567742348
 20
-153.3646689503
 11
334.6567742348
 21
-153.3646689503
  0
LINE
  8
5
  6
CONTINUOUS
 62
6
 10
334.6567742348
 20
-153.3646689503
 11
374.6567742348
 21
-153.3646689503
  0
LINE
  8
5
  6
CONTINUOUS
 62
6
 10
374.6567742348
 20
-153.3646689503
 11
389.6567742348
 21
-153.3646689503
  0
LINE
  8
5
  6
CONTINUOUS
 62
6
 10
389.6567742348
 20
-153.3646689503
 11
394.6567742348
 21
-153.3646689503
  0
LINE
  8
5
  6
CONTINUOUS
 62
6
 10
394.6567742348
 20
-153.3646689503
 11
394.6567742348
 21
-158.3646689503
  0
LINE
  8
5
  6
CONTINUOUS
 62
6
 10
394.6567742348
 20
-158.3646689503
 11
389.6567742348
 21
-158.3646689503
  0
LINE
  8
5
  6
CONTINUOUS
 62
6
 10
389.6567742348
 20
-158.3646689503
 11
374.6567742348
 21
-158.3646689503
  0
LINE
  8
5
  6
CONTINUOUS
 62
6
 10
374.6567742348
 20
-158.3646689503
 11
334.6567742348
 21
-158.3646689503
  0
LINE
  8
5
  6
CONTINUOUS
 62
6
 10
334.6567742348
 20
-158.3646689503
 11
314.6567742348
 21
-158.3646689503
  0
LINE
  8
5
  6
CONTINUOUS
 62
6
 10
314.6567742348
 20
-158.3646689503
 11
309.6567742348
 21
-158.3646689503
  0
LINE
  8
5
  6
CONTINUOUS
 62
6
 10
314.6567742348
 20
-153.3646689503
 11
314.6567742348
 21
-158.3646689503
  0
LINE
  8
5
  6
CONTINUOUS
 62
6
 10
334.6567742348
 20
-153.3646689503
 11
334.6567742348
 21
-158.3646689503
  0
LINE
  8
5
  6
CONTINUOUS
 62
6
 10
374.6567742348
 20
-153.3646689503
 11
374.6567742348
 21
-158.3646689503
  0
LINE
  8
5
  6
CONTINUOUS
 62
6
 10
389.6567742348
 20
-153.3646689503
 11
389.6567742348
 21
-158.3646689503
  0
TEXT
  8
5
  6
CONTINUOUS
 62
7
 10
309.906774
 20
-157.364669
 40
3.000000
  1
101
 41
0.815217
 50
0.000000
 51
0.000000
 72
   5
 73
   0
 11
314.406774
 21
-157.364669
  0
TEXT
  8
5
  6
CONTINUOUS
 62
7
 10
315.656774
 20
-157.364669
 40
3.000000
  1
ﾌﾞﾗﾝｸﾍﾞｾﾞﾙ
 41
0.745942
 50
0.000000
 51
0.000000
 72
   5
 73
   0
 11
330.269774
 21
-157.364669
  0
TEXT
  8
5
  6
CONTINUOUS
 62
7
 10
335.656774
 20
-157.864669
 40
4.000000
  1
NW-073-FBK-IV
 41
0.761124
 50
0.000000
 51
0.000000
 72
   5
 73
   0
 11
361.656774
 21
-157.864669
  0
TEXT
  8
5
  6
CONTINUOUS
 62
7
 10
391.281774
 20
-157.614669
 40
3.500000
  1
2
 41
1.000000
 50
0.000000
 51
0.000000
 72
   5
 73
   0
 11
393.031774
 21
-157.614669
  0
LINE
  8
5
  6
CONTINUOUS
 62
6
 10
394.6567742348
 20
-163.3646689503
 11
389.6567742348
 21
-163.3646689503
  0
LINE
  8
5
  6
CONTINUOUS
 62
6
 10
389.6567742348
 20
-163.3646689503
 11
374.6567742348
 21
-163.3646689503
  0
LINE
  8
5
  6
CONTINUOUS
 62
6
 10
374.6567742348
 20
-163.3646689503
 11
334.6567742348
 21
-163.3646689503
  0
LINE
  8
5
  6
CONTINUOUS
 62
6
 10
334.6567742348
 20
-163.3646689503
 11
314.6567742348
 21
-163.3646689503
  0
LINE
  8
5
  6
CONTINUOUS
 62
6
 10
314.6567742348
 20
-163.3646689503
 11
309.6567742348
 21
-163.3646689503
  0
TEXT
  8
5
  6
CONTINUOUS
 62
7
 10
310.656774
 20
-162.364669
 40
3.000000
  1
--
 41
0.854701
 50
0.000000
 51
0.000000
 72
   5
 73
   0
 11
313.656774
 21
-162.364669
  0
TEXT
  8
5
  6
CONTINUOUS
 62
7
 10
310.656774
 20
-167.364669
 40
3.000000
  1
--
 41
0.854701
 50
0.000000
 51
0.000000
 72
   5
 73
   0
 11
313.656774
 21
-167.364669
  0
TEXT
  8
5
  6
CONTINUOUS
 62
7
 10
315.656774
 20
-162.114669
 40
2.500000
  1
--
 41
0.854701
 50
0.000000
 51
0.000000
 72
   5
 73
   0
 11
318.156774
 21
-162.114669
  0
TEXT
  8
5
  6
CONTINUOUS
 62
7
 10
315.656774
 20
-167.364669
 40
3.000000
  1
--
 41
0.854701
 50
0.000000
 51
0.000000
 72
   5
 73
   0
 11
318.656774
 21
-167.364669
  0
TEXT
  8
5
  6
CONTINUOUS
 62
7
 10
335.656774
 20
-167.364669
 40
3.000000
  1
--
 41
0.854701
 50
0.000000
 51
0.000000
 72
   5
 73
   0
 11
338.656774
 21
-167.364669
  0
TEXT
  8
5
  6
CONTINUOUS
 62
7
 10
390.406774
 20
-162.614669
 40
3.500000
  1
--
 41
0.854701
 50
0.000000
 51
0.000000
 72
   5
 73
   0
 11
393.906774
 21
-162.614669
  0
TEXT
  8
5
  6
CONTINUOUS
 62
7
 10
390.406774
 20
-167.614669
 40
3.500000
  1
--
 41
0.854701
 50
0.000000
 51
0.000000
 72
   5
 73
   0
 11
393.906774
 21
-167.614669
  0
LINE
  8
5
  6
CONTINUOUS
 62
6
 10
309.6567742348
 20
-163.3646689503
 11
309.6567742348
 21
-158.3646689503
  0
LINE
  8
5
  6
CONTINUOUS
 62
6
 10
309.6567742348
 20
-168.3646689503
 11
309.6567742348
 21
-163.3646689503
  0
LINE
  8
5
  6
CONTINUOUS
 62
6
 10
314.6567742348
 20
-158.3646689503
 11
314.6567742348
 21
-163.3646689503
  0
LINE
  8
5
  6
CONTINUOUS
 62
6
 10
314.6567742348
 20
-163.3646689503
 11
314.6567742348
 21
-168.3646689503
  0
LINE
  8
5
  6
CONTINUOUS
 62
6
 10
334.6567742348
 20
-158.3646689503
 11
334.6567742348
 21
-163.3646689503
  0
LINE
  8
5
  6
CONTINUOUS
 62
6
 10
334.6567742348
 20
-163.3646689503
 11
334.6567742348
 21
-168.3646689503
  0
LINE
  8
5
  6
CONTINUOUS
 62
6
 10
374.6567742348
 20
-158.3646689503
 11
374.6567742348
 21
-163.3646689503
  0
LINE
  8
5
  6
CONTINUOUS
 62
6
 10
374.6567742348
 20
-163.3646689503
 11
374.6567742348
 21
-168.3646689503
  0
LINE
  8
5
  6
CONTINUOUS
 62
6
 10
389.6567742348
 20
-158.3646689503
 11
389.6567742348
 21
-163.3646689503
  0
LINE
  8
5
  6
CONTINUOUS
 62
6
 10
389.6567742348
 20
-163.3646689503
 11
389.6567742348
 21
-168.3646689503
  0
LINE
  8
5
  6
CONTINUOUS
 62
6
 10
394.6567742348
 20
-158.3646689503
 11
394.6567742348
 21
-163.3646689503
  0
LINE
  8
5
  6
CONTINUOUS
 62
6
 10
394.6567742348
 20
-163.3646689503
 11
394.6567742348
 21
-168.3646689503
  0
TEXT
  8
5
  6
CONTINUOUS
 62
7
 10
335.656774
 20
-162.864669
 40
4.000000
  1
--
 41
0.854701
 50
0.000000
 51
0.000000
 72
   5
 73
   0
 11
339.656774
 21
-162.864669
  0
LINE
  8
5
  6
CONTINUOUS
 62
6
 10
299.6567742348
 20
-153.3646689503
 11
299.6567742348
 21
-148.3646689505
  0
LINE
  8
5
  6
CONTINUOUS
 62
6
 10
299.6567742348
 20
-148.3646689505
 11
309.6567742348
 21
-148.3646689503
  0
LINE
  8
5
  6
CONTINUOUS
 62
6
 10
309.6567742348
 20
-153.3646689503
 11
304.6567742348
 21
-153.3646689503
  0
LINE
  8
5
  6
CONTINUOUS
 62
6
 10
309.6567742348
 20
-148.3646689503
 11
309.6567742348
 21
-153.3646689503
  0
TEXT
  8
5
  6
CONTINUOUS
 62
7
 10
302.194993
 20
-152.364669
 40
3.000000
  1
型番
 41
0.921659
 50
0.000000
 51
0.000000
 72
   5
 73
   0
 11
308.194993
 21
-152.364669
  0
LINE
  8
5
  6
CONTINUOUS
 62
6
 10
299.6567742348
 20
-158.3646689503
 11
299.6567742348
 21
-153.3646689503
  0
LINE
  8
5
  6
CONTINUOUS
 62
6
 10
299.6567742348
 20
-153.3646689503
 11
309.6567742348
 21
-153.3646689503
  0
LINE
  8
5
  6
CONTINUOUS
 62
6
 10
309.6567742348
 20
-153.3646689503
 11
309.6567742348
 21
-158.3646689503
  0
TEXT
  8
5
  6
CONTINUOUS
 62
7
 10
302.944993
 20
-157.864669
 40
4.000000
  1
R0
 41
0.961538
 50
0.000000
 51
0.000000
 72
   5
 73
   0
 11
307.444993
 21
-157.864669
  0
LINE
  8
5
  6
CONTINUOUS
 62
6
 10
299.6567742348
 20
-163.3646689503
 11
299.6567742348
 21
-158.3646689503
  0
LINE
  8
5
  6
CONTINUOUS
 62
6
 10
299.6567742348
 20
-168.3646689503
 11
299.6567742348
 21
-163.3646689503
  0
LINE
  8
5
  6
CONTINUOUS
 62
6
 10
309.6567742348
 20
-158.3646689503
 11
309.6567742348
 21
-163.3646689503
  0
LINE
  8
5
  6
CONTINUOUS
 62
6
 10
309.6567742348
 20
-163.3646689503
 11
309.6567742348
 21
-168.3646689503
  0
LINE
  8
5
  6
CONTINUOUS
 62
6
 10
394.6567742348
 20
-168.3646689503
 11
389.6567742348
 21
-168.3646689503
  0
LINE
  8
5
  6
CONTINUOUS
 62
6
 10
389.6567742348
 20
-168.3646689503
 11
374.6567742348
 21
-168.3646689503
  0
LINE
  8
5
  6
CONTINUOUS
 62
6
 10
374.6567742348
 20
-168.3646689503
 11
334.6567742348
 21
-168.3646689503
  0
LINE
  8
5
  6
CONTINUOUS
 62
6
 10
334.6567742348
 20
-168.3646689503
 11
314.6567742348
 21
-168.3646689503
  0
LINE
  8
5
  6
CONTINUOUS
 62
6
 10
314.6567742348
 20
-168.3646689503
 11
309.6567742348
 21
-168.3646689503
  0
LINE
  8
5
  6
CONTINUOUS
 62
6
 10
309.6567742348
 20
-168.3646689503
 11
299.6567742348
 21
-168.3646689503
  0
LINE
  8
5
  6
CONTINUOUS
 62
6
 10
309.6567742348
 20
-175.8646689503
 11
309.6567742348
 21
-170.8646689503
  0
LINE
  8
5
  6
CONTINUOUS
 62
6
 10
309.6567742348
 20
-170.8646689503
 11
314.6567742348
 21
-170.8646689503
  0
LINE
  8
5
  6
CONTINUOUS
 62
6
 10
314.6567742348
 20
-170.8646689503
 11
334.6567742348
 21
-170.8646689503
  0
LINE
  8
5
  6
CONTINUOUS
 62
6
 10
334.6567742348
 20
-170.8646689503
 11
374.6567742348
 21
-170.8646689503
  0
LINE
  8
5
  6
CONTINUOUS
 62
6
 10
374.6567742348
 20
-170.8646689503
 11
389.6567742348
 21
-170.8646689503
  0
LINE
  8
5
  6
CONTINUOUS
 62
6
 10
389.6567742348
 20
-170.8646689503
 11
394.6567742348
 21
-170.8646689503
  0
LINE
  8
5
  6
CONTINUOUS
 62
6
 10
394.6567742348
 20
-170.8646689503
 11
394.6567742348
 21
-175.8646689503
  0
LINE
  8
5
  6
CONTINUOUS
 62
6
 10
394.6567742348
 20
-175.8646689503
 11
389.6567742348
 21
-175.8646689503
  0
LINE
  8
5
  6
CONTINUOUS
 62
6
 10
389.6567742348
 20
-175.8646689503
 11
374.6567742348
 21
-175.8646689503
  0
LINE
  8
5
  6
CONTINUOUS
 62
6
 10
374.6567742348
 20
-175.8646689503
 11
334.6567742348
 21
-175.8646689503
  0
LINE
  8
5
  6
CONTINUOUS
 62
6
 10
334.6567742348
 20
-175.8646689503
 11
314.6567742348
 21
-175.8646689503
  0
LINE
  8
5
  6
CONTINUOUS
 62
6
 10
314.6567742348
 20
-175.8646689503
 11
309.6567742348
 21
-175.8646689503
  0
LINE
  8
5
  6
CONTINUOUS
 62
6
 10
314.6567742348
 20
-170.8646689503
 11
314.6567742348
 21
-175.8646689503
  0
LINE
  8
5
  6
CONTINUOUS
 62
6
 10
334.6567742348
 20
-170.8646689503
 11
334.6567742348
 21
-175.8646689503
  0
LINE
  8
5
  6
CONTINUOUS
 62
6
 10
374.6567742348
 20
-170.8646689503
 11
374.6567742348
 21
-175.8646689503
  0
LINE
  8
5
  6
CONTINUOUS
 62
6
 10
389.6567742348
 20
-170.8646689503
 11
389.6567742348
 21
-175.8646689503
  0
TEXT
  8
5
  6
CONTINUOUS
 62
7
 10
309.856774
 20
-174.514669
 40
2.300000
  1
項番
 41
0.921659
 50
0.000000
 51
0.000000
 72
   5
 73
   0
 11
314.456774
 21
-174.514669
  0
TEXT
  8
5
  6
CONTINUOUS
 62
7
 10
319.664774
 20
-174.864669
 40
3.000000
  1
品　　名
 41
0.737916
 50
0.000000
 51
0.000000
 72
   5
 73
   0
 11
329.648774
 21
-174.864669
  0
TEXT
  8
5
  6
CONTINUOUS
 62
7
 10
339.503774
 20
-174.864669
 40
3.000000
  1
定  格 / 型  番 / 材　質
 41
0.686277
 50
0.000000
 51
0.000000
 72
   5
 73
   0
 11
369.809774
 21
-174.864669
  0
TEXT
  8
5
  6
CONTINUOUS
 62
7
 10
376.959274
 20
-174.864669
 40
3.000000
  1
メーカー
 41
0.768293
 50
0.000000
 51
0.000000
 72
   5
 73
   0
 11
387.354274
 21
-174.864669
  0
TEXT
  8
5
  6
CONTINUOUS
 62
7
 10
389.856774
 20
-174.514669
 40
2.300000
  1
数量
 41
0.921659
 50
0.000000
 51
0.000000
 72
   5
 73
   0
 11
394.456774
 21
-174.514669
  0
LINE
  8
5
  6
CONTINUOUS
 62
6
 10
309.6567742348
 20
-180.8646689503
 11
309.6567742348
 21
-175.8646689503
  0
LINE
  8
5
  6
CONTINUOUS
 62
6
 10
309.6567742348
 20
-175.8646689503
 11
314.6567742348
 21
-175.8646689503
  0
LINE
  8
5
  6
CONTINUOUS
 62
6
 10
314.6567742348
 20
-175.8646689503
 11
334.6567742348
 21
-175.8646689503
  0
LINE
  8
5
  6
CONTINUOUS
 62
6
 10
334.6567742348
 20
-175.8646689503
 11
374.6567742348
 21
-175.8646689503
  0
LINE
  8
5
  6
CONTINUOUS
 62
6
 10
374.6567742348
 20
-175.8646689503
 11
389.6567742348
 21
-175.8646689503
  0
LINE
  8
5
  6
CONTINUOUS
 62
6
 10
389.6567742348
 20
-175.8646689503
 11
394.6567742348
 21
-175.8646689503
  0
LINE
  8
5
  6
CONTINUOUS
 62
6
 10
394.6567742348
 20
-175.8646689503
 11
394.6567742348
 21
-180.8646689503
  0
LINE
  8
5
  6
CONTINUOUS
 62
6
 10
394.6567742348
 20
-180.8646689503
 11
389.6567742348
 21
-180.8646689503
  0
LINE
  8
5
  6
CONTINUOUS
 62
6
 10
389.6567742348
 20
-180.8646689503
 11
374.6567742348
 21
-180.8646689503
  0
LINE
  8
5
  6
CONTINUOUS
 62
6
 10
374.6567742348
 20
-180.8646689503
 11
334.6567742348
 21
-180.8646689503
  0
LINE
  8
5
  6
CONTINUOUS
 62
6
 10
334.6567742348
 20
-180.8646689503
 11
314.6567742348
 21
-180.8646689503
  0
LINE
  8
5
  6
CONTINUOUS
 62
6
 10
314.6567742348
 20
-180.8646689503
 11
309.6567742348
 21
-180.8646689503
  0
LINE
  8
5
  6
CONTINUOUS
 62
6
 10
314.6567742348
 20
-175.8646689503
 11
314.6567742348
 21
-180.8646689503
  0
LINE
  8
5
  6
CONTINUOUS
 62
6
 10
334.6567742348
 20
-175.8646689503
 11
334.6567742348
 21
-180.8646689503
  0
LINE
  8
5
  6
CONTINUOUS
 62
6
 10
374.6567742348
 20
-175.8646689503
 11
374.6567742348
 21
-180.8646689503
  0
LINE
  8
5
  6
CONTINUOUS
 62
6
 10
389.6567742348
 20
-175.8646689503
 11
389.6567742348
 21
-180.8646689503
  0
TEXT
  8
5
  6
CONTINUOUS
 62
7
 10
309.906774
 20
-179.864669
 40
3.000000
  1
102
 41
0.815217
 50
0.000000
 51
0.000000
 72
   5
 73
   0
 11
314.406774
 21
-179.864669
  0
TEXT
  8
5
  6
CONTINUOUS
 62
7
 10
315.656774
 20
-179.864669
 40
3.000000
  1
ﾍﾞｾﾞﾙ
 41
0.759119
 50
0.000000
 51
0.000000
 72
   5
 73
   0
 11
322.898774
 21
-179.864669
  0
TEXT
  8
5
  6
CONTINUOUS
 62
7
 10
335.656774
 20
-180.364669
 40
4.000000
  1
NW073-FSM-IV
 41
0.762389
 50
0.000000
 51
0.000000
 72
   5
 73
   0
 11
359.656774
 21
-180.364669
  0
TEXT
  8
5
  6
CONTINUOUS
 62
7
 10
391.281774
 20
-180.114669
 40
3.500000
  1
1
 41
1.000000
 50
0.000000
 51
0.000000
 72
   5
 73
   0
 11
393.031774
 21
-180.114669
  0
LINE
  8
5
  6
CONTINUOUS
 62
6
 10
394.6567742348
 20
-185.8646689503
 11
389.6567742348
 21
-185.8646689503
  0
LINE
  8
5
  6
CONTINUOUS
 62
6
 10
389.6567742348
 20
-185.8646689503
 11
374.6567742348
 21
-185.8646689503
  0
LINE
  8
5
  6
CONTINUOUS
 62
6
 10
374.6567742348
 20
-185.8646689503
 11
334.6567742348
 21
-185.8646689503
  0
LINE
  8
5
  6
CONTINUOUS
 62
6
 10
334.6567742348
 20
-185.8646689503
 11
314.6567742348
 21
-185.8646689503
  0
LINE
  8
5
  6
CONTINUOUS
 62
6
 10
314.6567742348
 20
-185.8646689503
 11
309.6567742348
 21
-185.8646689503
  0
TEXT
  8
5
  6
CONTINUOUS
 62
7
 10
309.906774
 20
-184.864669
 40
3.000000
  1
103
 41
0.815217
 50
0.000000
 51
0.000000
 72
   5
 73
   0
 11
314.406774
 21
-184.864669
  0
TEXT
  8
5
  6
CONTINUOUS
 62
7
 10
315.656774
 20
-184.614669
 40
2.500000
  1
RJ45(CAT6)
 41
0.790812
 50
0.000000
 51
0.000000
 72
   5
 73
   0
 11
328.566774
 21
-184.614669
  0
TEXT
  8
5
  6
CONTINUOUS
 62
7
 10
391.281774
 20
-185.114669
 40
3.500000
  1
1
 41
1.000000
 50
0.000000
 51
0.000000
 72
   5
 73
   0
 11
393.031774
 21
-185.114669
  0
LINE
  8
5
  6
CONTINUOUS
 62
6
 10
309.6567742348
 20
-185.8646689503
 11
309.6567742348
 21
-180.8646689503
  0
LINE
  8
5
  6
CONTINUOUS
 62
6
 10
309.6567742348
 20
-190.8646689503
 11
309.6567742348
 21
-185.8646689503
  0
LINE
  8
5
  6
CONTINUOUS
 62
6
 10
314.6567742348
 20
-180.8646689503
 11
314.6567742348
 21
-185.8646689503
  0
LINE
  8
5
  6
CONTINUOUS
 62
6
 10
314.6567742348
 20
-185.8646689503
 11
314.6567742348
 21
-190.8646689503
  0
LINE
  8
5
  6
CONTINUOUS
 62
6
 10
334.6567742348
 20
-180.8646689503
 11
334.6567742348
 21
-185.8646689503
  0
LINE
  8
5
  6
CONTINUOUS
 62
6
 10
334.6567742348
 20
-185.8646689503
 11
334.6567742348
 21
-190.8646689503
  0
LINE
  8
5
  6
CONTINUOUS
 62
6
 10
374.6567742348
 20
-180.8646689503
 11
374.6567742348
 21
-185.8646689503
  0
LINE
  8
5
  6
CONTINUOUS
 62
6
 10
374.6567742348
 20
-185.8646689503
 11
374.6567742348
 21
-190.8646689503
  0
LINE
  8
5
  6
CONTINUOUS
 62
6
 10
389.6567742348
 20
-180.8646689503
 11
389.6567742348
 21
-185.8646689503
  0
LINE
  8
5
  6
CONTINUOUS
 62
6
 10
389.6567742348
 20
-185.8646689503
 11
389.6567742348
 21
-190.8646689503
  0
LINE
  8
5
  6
CONTINUOUS
 62
6
 10
394.6567742348
 20
-180.8646689503
 11
394.6567742348
 21
-185.8646689503
  0
LINE
  8
5
  6
CONTINUOUS
 62
6
 10
394.6567742348
 20
-185.8646689503
 11
394.6567742348
 21
-190.8646689503
  0
TEXT
  8
5
  6
CONTINUOUS
 62
7
 10
335.656774
 20
-185.364669
 40
4.000000
  1
NW080-88S-SI-C6-SH
 41
0.756939
 50
0.000000
 51
0.000000
 72
   5
 73
   0
 11
371.656774
 21
-185.364669
  0
LINE
  8
5
  6
CONTINUOUS
 62
6
 10
299.6567742348
 20
-175.8646689503
 11
299.6567742348
 21
-170.8646689503
  0
LINE
  8
5
  6
CONTINUOUS
 62
6
 10
299.6567742348
 20
-170.8646689503
 11
309.6567742348
 21
-170.8646689503
  0
LINE
  8
5
  6
CONTINUOUS
 62
6
 10
309.6567742348
 20
-175.8646689503
 11
304.6567742348
 21
-175.8646689503
  0
LINE
  8
5
  6
CONTINUOUS
 62
6
 10
309.6567742348
 20
-170.8646689503
 11
309.6567742348
 21
-175.8646689503
  0
TEXT
  8
5
  6
CONTINUOUS
 62
7
 10
302.194993
 20
-174.864669
 40
3.000000
  1
型番
 41
0.921659
 50
0.000000
 51
0.000000
 72
   5
 73
   0
 11
308.194993
 21
-174.864669
  0
LINE
  8
5
  6
CONTINUOUS
 62
6
 10
299.6567742348
 20
-180.8646689503
 11
299.6567742348
 21
-175.8646689503
  0
LINE
  8
5
  6
CONTINUOUS
 62
6
 10
299.6567742348
 20
-175.8646689503
 11
309.6567742348
 21
-175.8646689503
  0
LINE
  8
5
  6
CONTINUOUS
 62
6
 10
309.6567742348
 20
-175.8646689503
 11
309.6567742348
 21
-180.8646689503
  0
TEXT
  8
5
  6
CONTINUOUS
 62
7
 10
302.944993
 20
-180.364669
 40
4.000000
  1
R1
 41
0.961538
 50
0.000000
 51
0.000000
 72
   5
 73
   0
 11
307.444993
 21
-180.364669
  0
LINE
  8
5
  6
CONTINUOUS
 62
6
 10
299.6567742348
 20
-185.8646689503
 11
299.6567742348
 21
-180.8646689503
  0
LINE
  8
5
  6
CONTINUOUS
 62
6
 10
299.6567742348
 20
-190.8646689503
 11
299.6567742348
 21
-185.8646689503
  0
LINE
  8
5
  6
CONTINUOUS
 62
6
 10
309.6567742348
 20
-180.8646689503
 11
309.6567742348
 21
-185.8646689503
  0
LINE
  8
5
  6
CONTINUOUS
 62
6
 10
309.6567742348
 20
-185.8646689503
 11
309.6567742348
 21
-190.8646689503
  0
LINE
  8
5
  6
CONTINUOUS
 62
6
 10
394.6567742348
 20
-190.8646689503
 11
389.6567742348
 21
-190.8646689503
  0
LINE
  8
5
  6
CONTINUOUS
 62
6
 10
389.6567742348
 20
-190.8646689503
 11
374.6567742348
 21
-190.8646689503
  0
LINE
  8
5
  6
CONTINUOUS
 62
6
 10
374.6567742348
 20
-190.8646689503
 11
334.6567742348
 21
-190.8646689503
  0
LINE
  8
5
  6
CONTINUOUS
 62
6
 10
334.6567742348
 20
-190.8646689503
 11
314.6567742348
 21
-190.8646689503
  0
LINE
  8
5
  6
CONTINUOUS
 62
6
 10
314.6567742348
 20
-190.8646689503
 11
309.6567742348
 21
-190.8646689503
  0
LINE
  8
5
  6
CONTINUOUS
 62
6
 10
309.6567742348
 20
-190.8646689503
 11
299.6567742348
 21
-190.8646689503
  0
TEXT
  8
5
  6
CONTINUOUS
 62
7
 10
375.656774
 20
-157.364669
 40
3.000000
  1
MISUMI
 41
0.836104
 50
0.000000
 51
0.000000
 72
   5
 73
   0
 11
385.313774
 21
-157.364669
  0
TEXT
  8
5
  6
CONTINUOUS
 62
7
 10
375.656774
 20
-167.364669
 40
3.000000
  1
--
 41
0.854701
 50
0.000000
 51
0.000000
 72
   5
 73
   0
 11
378.656774
 21
-167.364669
  0
TEXT
  8
5
  6
CONTINUOUS
 62
7
 10
375.656774
 20
-179.864669
 40
3.000000
  1
MISUMI
 41
0.836104
 50
0.000000
 51
0.000000
 72
   5
 73
   0
 11
385.313774
 21
-179.864669
  0
TEXT
  8
5
  6
CONTINUOUS
 62
7
 10
375.656774
 20
-162.364669
 40
3.000000
  1
--
 41
0.854701
 50
0.000000
 51
0.000000
 72
   5
 73
   0
 11
378.656774
 21
-162.364669
  0
TEXT
  8
5
  6
CONTINUOUS
 62
7
 10
375.656774
 20
-184.864669
 40
3.000000
  1
MISUMI
 41
0.836104
 50
0.000000
 51
0.000000
 72
   5
 73
   0
 11
385.313774
 21
-184.864669
  0
LINE
  8
3
  6
CONTINUOUS
 62
9
 10
157.7677919984
 20
-145.3406564734
 11
139.8177919984
 21
-145.3406564734
  0
LINE
  8
3
  6
CONTINUOUS
 62
9
 10
159.7677919984
 20
-169.2906564734
 11
159.7677919984
 21
-147.3406564734
  0
LINE
  8
3
  6
CONTINUOUS
 62
9
 10
139.8177919984
 20
-171.2906564734
 11
157.7677919984
 21
-171.2906564734
  0
LINE
  8
3
  6
CONTINUOUS
 62
9
 10
137.8177919984
 20
-169.2906564734
 11
137.8177919984
 21
-147.3406564734
  0
ARC
  8
3
  6
CONTINUOUS
 62
9
 10
139.8177919984
 20
-147.3406564734
 40
2.0000000000
 50
90.0000000000
 51
180.0000000000
  0
ARC
  8
3
  6
CONTINUOUS
 62
9
 10
157.7677919984
 20
-147.3406564734
 40
2.0000000000
 50
0.0000000000
 51
90.0000000000
  0
ARC
  8
3
  6
CONTINUOUS
 62
9
 10
157.7677919984
 20
-169.2906564734
 40
2.0000000000
 50
270.0000000000
 51
0.0000000000
  0
ARC
  8
3
  6
CONTINUOUS
 62
9
 10
139.8177919984
 20
-169.2906564734
 40
2.0000000000
 50
180.0000000000
 51
270.0000000000
  0
POINT
  8
3
  6
CONTINUOUS
 62
9
 10
148.7927919984
 20
-158.3156564734
  0
LINE
  8
3
  6
CONTINUOUS
 62
9
 10
184.7677919984
 20
-169.2906564734
 11
184.7677919984
 21
-147.3406564734
  0
LINE
  8
3
  6
CONTINUOUS
 62
9
 10
162.8177919984
 20
-169.2906564734
 11
162.8177919984
 21
-147.3406564734
  0
ARC
  8
3
  6
CONTINUOUS
 62
9
 10
164.8177919984
 20
-147.3406564734
 40
2.0000000000
 50
90.0000000000
 51
180.0000000000
  0
ARC
  8
3
  6
CONTINUOUS
 62
9
 10
182.7677919984
 20
-147.3406564734
 40
2.0000000000
 50
0.0000000000
 51
90.0000000000
  0
ARC
  8
3
  6
CONTINUOUS
 62
9
 10
182.7677919984
 20
-169.2906564734
 40
2.0000000000
 50
270.0000000000
 51
0.0000000000
  0
ARC
  8
3
  6
CONTINUOUS
 62
9
 10
164.8177919984
 20
-169.2906564734
 40
2.0000000000
 50
180.0000000000
 51
270.0000000000
  0
TEXT
  8
3
  6
CONTINUOUS
 62
5
 10
115.055562
 20
-159.582567
 40
5.000000
  1
⑩
 41
1.000000
 50
0.000000
 51
0.000000
 72
   5
 73
   0
 11
120.055562
 21
-159.582567
  0
TEXT
  8
3
  6
CONTINUOUS
 62
5
 10
115.055562
 20
-164.582567
 40
5.000000
  1
RJ45詳細
 41
0.824742
 50
0.000000
 51
0.000000
 72
   5
 73
   0
 11
135.055562
 21
-164.582567
  0
LINE
  8
3
  6
HIDDEN
 62
9
 10
157.2927919984
 20
-146.1656564734
 11
157.2927919984
 21
-170.4656564734
  0
LINE
  8
3
  6
HIDDEN
 62
9
 10
140.2927919984
 20
-146.1656564734
 11
157.2927919984
 21
-146.1656564734
  0
LINE
  8
3
  6
HIDDEN
 62
9
 10
140.2927919984
 20
-170.4656564734
 11
140.2927919984
 21
-146.1656564734
  0
LINE
  8
3
  6
HIDDEN
 62
9
 10
157.2927919984
 20
-170.4656564734
 11
140.2927919984
 21
-170.4656564734
  0
TEXT
  8
1
  6
CONTINUOUS
 62
7
 10
158.292792
 20
-179.191096
 40
6.000000
  1
R0
 41
0.854701
 50
0.000000
 51
0.000000
 72
   5
 73
   0
 11
164.292792
 21
-179.191096
  0
LINE
  8
3
  6
CONTINUOUS
 62
9
 10
182.7677919984
 20
-145.3406564734
 11
164.8177919984
 21
-145.3406564734
  0
LINE
  8
3
  6
CONTINUOUS
 62
9
 10
164.8177919984
 20
-171.2906564734
 11
182.7677919984
 21
-171.2906564734
  0
POINT
  8
3
  6
CONTINUOUS
 62
9
 10
173.7927919984
 20
-158.3156564734
  0
LINE
  8
3
  6
HIDDEN
 62
9
 10
182.2927919984
 20
-146.1656564734
 11
182.2927919984
 21
-170.4656564734
  0
LINE
  8
3
  6
HIDDEN
 62
9
 10
165.2927919984
 20
-146.1656564734
 11
182.2927919984
 21
-146.1656564734
  0
LINE
  8
3
  6
HIDDEN
 62
9
 10
165.2927919984
 20
-170.4656564734
 11
165.2927919984
 21
-146.1656564734
  0
LINE
  8
3
  6
HIDDEN
 62
9
 10
182.2927919984
 20
-170.4656564734
 11
165.2927919984
 21
-170.4656564734
  0
LINE
  8
3
  6
CONTINUOUS
 62
9
 10
212.7177919984
 20
-145.3406564734
 11
194.7677919984
 21
-145.3406564734
  0
LINE
  8
3
  6
CONTINUOUS
 62
9
 10
214.7177919984
 20
-169.2906564734
 11
214.7177919984
 21
-147.3406564734
  0
LINE
  8
3
  6
CONTINUOUS
 62
9
 10
194.7677919984
 20
-171.2906564734
 11
212.7177919984
 21
-171.2906564734
  0
LINE
  8
3
  6
CONTINUOUS
 62
9
 10
192.7677919984
 20
-169.2906564734
 11
192.7677919984
 21
-147.3406564734
  0
ARC
  8
3
  6
CONTINUOUS
 62
9
 10
194.7677919984
 20
-147.3406564734
 40
2.0000000000
 50
90.0000000000
 51
180.0000000000
  0
ARC
  8
3
  6
CONTINUOUS
 62
9
 10
212.7177919984
 20
-147.3406564734
 40
2.0000000000
 50
0.0000000000
 51
90.0000000000
  0
ARC
  8
3
  6
CONTINUOUS
 62
9
 10
212.7177919984
 20
-169.2906564734
 40
2.0000000000
 50
270.0000000000
 51
0.0000000000
  0
ARC
  8
3
  6
CONTINUOUS
 62
9
 10
194.7677919984
 20
-169.2906564734
 40
2.0000000000
 50
180.0000000000
 51
270.0000000000
  0
LINE
  8
3
  6
CONTINUOUS
 62
7
 10
239.7177919984
 20
-169.2906564734
 11
239.7177919984
 21
-147.3406564734
  0
LINE
  8
3
  6
CONTINUOUS
 62
7
 10
217.7677919984
 20
-169.2906564734
 11
217.7677919984
 21
-147.3406564734
  0
ARC
  8
3
  6
CONTINUOUS
 62
7
 10
219.7677919984
 20
-147.3406564734
 40
2.0000000000
 50
90.0000000000
 51
180.0000000000
  0
ARC
  8
3
  6
CONTINUOUS
 62
7
 10
237.7177919984
 20
-147.3406564734
 40
2.0000000000
 50
0.0000000000
 51
90.0000000000
  0
ARC
  8
3
  6
CONTINUOUS
 62
7
 10
237.7177919984
 20
-169.2906564734
 40
2.0000000000
 50
270.0000000000
 51
0.0000000000
  0
ARC
  8
3
  6
CONTINUOUS
 62
7
 10
219.7677919984
 20
-169.2906564734
 40
2.0000000000
 50
180.0000000000
 51
270.0000000000
  0
TEXT
  8
1
  6
CONTINUOUS
 62
7
 10
213.242792
 20
-179.191096
 40
6.000000
  1
R1
 41
0.854701
 50
0.000000
 51
0.000000
 72
   5
 73
   0
 11
219.242792
 21
-179.191096
  0
LINE
  8
3
  6
CONTINUOUS
 62
9
 10
237.7177919984
 20
-145.3406564734
 11
219.7677919984
 21
-145.3406564734
  0
LINE
  8
3
  6
CONTINUOUS
 62
9
 10
219.7677919984
 20
-171.2906564734
 11
237.7177919984
 21
-171.2906564734
  0
POINT
  8
3
  6
CONTINUOUS
 62
9
 10
228.7427919984
 20
-158.3156564734
  0
LINE
  8
3
  6
HIDDEN
 62
9
 10
237.2427919984
 20
-146.1656564734
 11
237.2427919984
 21
-170.4656564734
  0
LINE
  8
3
  6
HIDDEN
 62
9
 10
220.2427919984
 20
-146.1656564734
 11
237.2427919984
 21
-146.1656564734
  0
LINE
  8
3
  6
HIDDEN
 62
9
 10
220.2427919984
 20
-170.4656564734
 11
220.2427919984
 21
-146.1656564734
  0
LINE
  8
3
  6
HIDDEN
 62
9
 10
237.2427919984
 20
-170.4656564734
 11
220.2427919984
 21
-170.4656564734
  0
POINT
  8
3
  6
CONTINUOUS
 62
5
 10
203.7427919984
 20
-158.3156564734
  0
LINE
  8
3
  6
CONTINUOUS
 62
5
 10
196.4227919984
 20
-149.9406564734
 11
211.0627919984
 21
-149.9406564734
  0
LINE
  8
3
  6
CONTINUOUS
 62
5
 10
211.0627919984
 20
-149.9406564734
 11
211.0627919984
 21
-161.1406564734
  0
LINE
  8
3
  6
CONTINUOUS
 62
5
 10
211.0627919984
 20
-161.1406564734
 11
196.4227919984
 21
-161.1406564734
  0
LINE
  8
3
  6
CONTINUOUS
 62
5
 10
196.4227919984
 20
-161.1406564734
 11
196.4227919984
 21
-149.9406564734
  0
LINE
  8
3
  6
CONTINUOUS
 62
7
 10
198.1677919984
 20
-163.1406564734
 11
209.3177919984
 21
-163.1406564734
  0
LINE
  8
3
  6
CONTINUOUS
 62
7
 10
209.3177919984
 20
-163.1406564734
 11
209.3177919984
 21
-170.2906564734
  0
LINE
  8
3
  6
CONTINUOUS
 62
7
 10
209.3177919984
 20
-170.2906564734
 11
198.1677919984
 21
-170.2906564734
  0
LINE
  8
3
  6
CONTINUOUS
 62
7
 10
198.1677919984
 20
-170.2906564734
 11
198.1677919984
 21
-163.1406564734
  0
LINE
  8
3
  6
HIDDEN
 62
7
 10
200.6677919984
 20
-165.9156564734
 11
206.8177919984
 21
-165.9156564734
  0
LINE
  8
3
  6
HIDDEN
 62
7
 10
206.8177919984
 20
-165.9156564734
 11
206.8177919984
 21
-167.5156564734
  0
LINE
  8
3
  6
HIDDEN
 62
7
 10
206.8177919984
 20
-167.5156564734
 11
200.6677919984
 21
-167.5156564734
  0
LINE
  8
3
  6
HIDDEN
 62
7
 10
200.6677919984
 20
-167.5156564734
 11
200.6677919984
 21
-165.9156564734
  0
LINE
  8
3
  6
CONTINUOUS
 62
5
 10
209.7427919984
 20
-160.1406564734
 11
209.7427919984
 21
-153.1406564734
  0
LINE
  8
3
  6
CONTINUOUS
 62
5
 10
209.7427919984
 20
-153.1406564734
 11
206.9427919984
 21
-153.1406564734
  0
LINE
  8
3
  6
CONTINUOUS
 62
5
 10
206.9427919984
 20
-153.1406564734
 11
206.9427919984
 21
-151.6406564734
  0
LINE
  8
3
  6
CONTINUOUS
 62
5
 10
206.9427919984
 20
-151.6406564734
 11
205.8927919984
 21
-151.6406564734
  0
LINE
  8
3
  6
CONTINUOUS
 62
5
 10
205.8927919984
 20
-151.6406564734
 11
205.8927919984
 21
-149.9406564734
  0
LINE
  8
3
  6
CONTINUOUS
 62
5
 10
201.5927919984
 20
-149.9406564734
 11
201.5927919984
 21
-151.6406564734
  0
LINE
  8
3
  6
CONTINUOUS
 62
5
 10
201.5927919984
 20
-151.6406564734
 11
200.5427919984
 21
-151.6406564734
  0
LINE
  8
3
  6
CONTINUOUS
 62
5
 10
200.5427919984
 20
-151.6406564734
 11
200.5427919984
 21
-153.1406564734
  0
LINE
  8
3
  6
CONTINUOUS
 62
5
 10
200.5427919984
 20
-153.1406564734
 11
197.7427919984
 21
-153.1406564734
  0
LINE
  8
3
  6
CONTINUOUS
 62
5
 10
197.7427919984
 20
-153.1406564734
 11
197.7427919984
 21
-160.1406564734
  0
LINE
  8
3
  6
CONTINUOUS
 62
5
 10
197.7427919984
 20
-160.1406564734
 11
209.7427919984
 21
-160.1406564734
  0
LINE
  8
3
  6
HIDDEN
 62
3
 10
212.2427919984
 20
-146.1656564734
 11
212.2427919984
 21
-170.4656564734
  0
LINE
  8
3
  6
HIDDEN
 62
3
 10
195.2427919984
 20
-146.1656564734
 11
212.2427919984
 21
-146.1656564734
  0
LINE
  8
3
  6
HIDDEN
 62
3
 10
195.2427919984
 20
-170.4656564734
 11
195.2427919984
 21
-146.1656564734
  0
LINE
  8
3
  6
HIDDEN
 62
3
 10
212.2427919984
 20
-170.4656564734
 11
195.2427919984
 21
-170.4656564734
  0
LINE
  8
3
  6
CONTINUOUS
 62
9
 10
267.6677919984
 20
-145.3406564734
 11
249.7177919984
 21
-145.3406564734
  0
LINE
  8
3
  6
CONTINUOUS
 62
9
 10
269.6677919984
 20
-169.2906564734
 11
269.6677919984
 21
-147.3406564734
  0
LINE
  8
3
  6
CONTINUOUS
 62
9
 10
249.7177919984
 20
-171.2906564734
 11
267.6677919984
 21
-171.2906564734
  0
LINE
  8
3
  6
CONTINUOUS
 62
9
 10
247.7177919984
 20
-169.2906564734
 11
247.7177919984
 21
-147.3406564734
  0
ARC
  8
3
  6
CONTINUOUS
 62
9
 10
249.7177919984
 20
-147.3406564734
 40
2.0000000000
 50
90.0000000000
 51
180.0000000000
  0
ARC
  8
3
  6
CONTINUOUS
 62
9
 10
267.6677919984
 20
-147.3406564734
 40
2.0000000000
 50
0.0000000000
 51
90.0000000000
  0
ARC
  8
3
  6
CONTINUOUS
 62
9
 10
267.6677919984
 20
-169.2906564734
 40
2.0000000000
 50
270.0000000000
 51
0.0000000000
  0
ARC
  8
3
  6
CONTINUOUS
 62
9
 10
249.7177919984
 20
-169.2906564734
 40
2.0000000000
 50
180.0000000000
 51
270.0000000000
  0
LINE
  8
3
  6
CONTINUOUS
 62
7
 10
294.6677919984
 20
-169.2906564734
 11
294.6677919984
 21
-147.3406564734
  0
LINE
  8
3
  6
CONTINUOUS
 62
7
 10
272.7177919984
 20
-169.2906564734
 11
272.7177919984
 21
-147.3406564734
  0
ARC
  8
3
  6
CONTINUOUS
 62
7
 10
274.7177919984
 20
-147.3406564734
 40
2.0000000000
 50
90.0000000000
 51
180.0000000000
  0
ARC
  8
3
  6
CONTINUOUS
 62
7
 10
292.6677919984
 20
-147.3406564734
 40
2.0000000000
 50
0.0000000000
 51
90.0000000000
  0
ARC
  8
3
  6
CONTINUOUS
 62
7
 10
292.6677919984
 20
-169.2906564734
 40
2.0000000000
 50
270.0000000000
 51
0.0000000000
  0
ARC
  8
3
  6
CONTINUOUS
 62
7
 10
274.7177919984
 20
-169.2906564734
 40
2.0000000000
 50
180.0000000000
 51
270.0000000000
  0
TEXT
  8
1
  6
CONTINUOUS
 62
7
 10
268.192792
 20
-179.191096
 40
6.000000
  1
R2
 41
0.854701
 50
0.000000
 51
0.000000
 72
   5
 73
   0
 11
274.192792
 21
-179.191096
  0
LINE
  8
3
  6
CONTINUOUS
 62
9
 10
292.6677919984
 20
-145.3406564734
 11
274.7177919984
 21
-145.3406564734
  0
LINE
  8
3
  6
CONTINUOUS
 62
9
 10
274.7177919984
 20
-171.2906564734
 11
292.6677919984
 21
-171.2906564734
  0
POINT
  8
3
  6
CONTINUOUS
 62
5
 10
258.6927919984
 20
-158.3156564734
  0
LINE
  8
3
  6
CONTINUOUS
 62
5
 10
251.3727919984
 20
-149.9406564734
 11
266.0127919984
 21
-149.9406564734
  0
LINE
  8
3
  6
CONTINUOUS
 62
5
 10
266.0127919984
 20
-149.9406564734
 11
266.0127919984
 21
-161.1406564734
  0
LINE
  8
3
  6
CONTINUOUS
 62
5
 10
266.0127919984
 20
-161.1406564734
 11
251.3727919984
 21
-161.1406564734
  0
LINE
  8
3
  6
CONTINUOUS
 62
5
 10
251.3727919984
 20
-161.1406564734
 11
251.3727919984
 21
-149.9406564734
  0
LINE
  8
3
  6
CONTINUOUS
 62
7
 10
253.1177919984
 20
-163.1406564734
 11
264.2677919984
 21
-163.1406564734
  0
LINE
  8
3
  6
CONTINUOUS
 62
7
 10
264.2677919984
 20
-163.1406564734
 11
264.2677919984
 21
-170.2906564734
  0
LINE
  8
3
  6
CONTINUOUS
 62
7
 10
264.2677919984
 20
-170.2906564734
 11
253.1177919984
 21
-170.2906564734
  0
LINE
  8
3
  6
CONTINUOUS
 62
7
 10
253.1177919984
 20
-170.2906564734
 11
253.1177919984
 21
-163.1406564734
  0
LINE
  8
3
  6
HIDDEN
 62
7
 10
255.6177919984
 20
-165.9156564734
 11
261.7677919984
 21
-165.9156564734
  0
LINE
  8
3
  6
HIDDEN
 62
7
 10
261.7677919984
 20
-165.9156564734
 11
261.7677919984
 21
-167.5156564734
  0
LINE
  8
3
  6
HIDDEN
 62
7
 10
261.7677919984
 20
-167.5156564734
 11
255.6177919984
 21
-167.5156564734
  0
LINE
  8
3
  6
HIDDEN
 62
7
 10
255.6177919984
 20
-167.5156564734
 11
255.6177919984
 21
-165.9156564734
  0
LINE
  8
3
  6
CONTINUOUS
 62
5
 10
264.6927919984
 20
-160.1406564734
 11
264.6927919984
 21
-153.1406564734
  0
LINE
  8
3
  6
CONTINUOUS
 62
5
 10
264.6927919984
 20
-153.1406564734
 11
261.8927919984
 21
-153.1406564734
  0
LINE
  8
3
  6
CONTINUOUS
 62
5
 10
261.8927919984
 20
-153.1406564734
 11
261.8927919984
 21
-151.6406564734
  0
LINE
  8
3
  6
CONTINUOUS
 62
5
 10
261.8927919984
 20
-151.6406564734
 11
260.8427919984
 21
-151.6406564734
  0
LINE
  8
3
  6
CONTINUOUS
 62
5
 10
260.8427919984
 20
-151.6406564734
 11
260.8427919984
 21
-149.9406564734
  0
LINE
  8
3
  6
CONTINUOUS
 62
5
 10
256.5427919984
 20
-149.9406564734
 11
256.5427919984
 21
-151.6406564734
  0
LINE
  8
3
  6
CONTINUOUS
 62
5
 10
256.5427919984
 20
-151.6406564734
 11
255.4927919984
 21
-151.6406564734
  0
LINE
  8
3
  6
CONTINUOUS
 62
5
 10
255.4927919984
 20
-151.6406564734
 11
255.4927919984
 21
-153.1406564734
  0
LINE
  8
3
  6
CONTINUOUS
 62
5
 10
255.4927919984
 20
-153.1406564734
 11
252.6927919984
 21
-153.1406564734
  0
LINE
  8
3
  6
CONTINUOUS
 62
5
 10
252.6927919984
 20
-153.1406564734
 11
252.6927919984
 21
-160.1406564734
  0
LINE
  8
3
  6
CONTINUOUS
 62
5
 10
252.6927919984
 20
-160.1406564734
 11
264.6927919984
 21
-160.1406564734
  0
LINE
  8
3
  6
HIDDEN
 62
3
 10
267.1927919984
 20
-146.1656564734
 11
267.1927919984
 21
-170.4656564734
  0
LINE
  8
3
  6
HIDDEN
 62
3
 10
250.1927919984
 20
-146.1656564734
 11
267.1927919984
 21
-146.1656564734
  0
LINE
  8
3
  6
HIDDEN
 62
3
 10
250.1927919984
 20
-170.4656564734
 11
250.1927919984
 21
-146.1656564734
  0
LINE
  8
3
  6
HIDDEN
 62
3
 10
267.1927919984
 20
-170.4656564734
 11
250.1927919984
 21
-170.4656564734
  0
POINT
  8
3
  6
CONTINUOUS
 62
5
 10
283.6927919984
 20
-158.3156564734
  0
LINE
  8
3
  6
CONTINUOUS
 62
5
 10
276.3727919984
 20
-149.9406564734
 11
291.0127919984
 21
-149.9406564734
  0
LINE
  8
3
  6
CONTINUOUS
 62
5
 10
291.0127919984
 20
-149.9406564734
 11
291.0127919984
 21
-161.1406564734
  0
LINE
  8
3
  6
CONTINUOUS
 62
5
 10
291.0127919984
 20
-161.1406564734
 11
276.3727919984
 21
-161.1406564734
  0
LINE
  8
3
  6
CONTINUOUS
 62
5
 10
276.3727919984
 20
-161.1406564734
 11
276.3727919984
 21
-149.9406564734
  0
LINE
  8
3
  6
CONTINUOUS
 62
7
 10
278.1177919984
 20
-163.1406564734
 11
289.2677919984
 21
-163.1406564734
  0
LINE
  8
3
  6
CONTINUOUS
 62
7
 10
289.2677919984
 20
-163.1406564734
 11
289.2677919984
 21
-170.2906564734
  0
LINE
  8
3
  6
CONTINUOUS
 62
7
 10
289.2677919984
 20
-170.2906564734
 11
278.1177919984
 21
-170.2906564734
  0
LINE
  8
3
  6
CONTINUOUS
 62
7
 10
278.1177919984
 20
-170.2906564734
 11
278.1177919984
 21
-163.1406564734
  0
LINE
  8
3
  6
HIDDEN
 62
7
 10
280.6177919984
 20
-165.9156564734
 11
286.7677919984
 21
-165.9156564734
  0
LINE
  8
3
  6
HIDDEN
 62
7
 10
286.7677919984
 20
-165.9156564734
 11
286.7677919984
 21
-167.5156564734
  0
LINE
  8
3
  6
HIDDEN
 62
7
 10
286.7677919984
 20
-167.5156564734
 11
280.6177919984
 21
-167.5156564734
  0
LINE
  8
3
  6
HIDDEN
 62
7
 10
280.6177919984
 20
-167.5156564734
 11
280.6177919984
 21
-165.9156564734
  0
LINE
  8
3
  6
CONTINUOUS
 62
5
 10
289.6927919984
 20
-160.1406564734
 11
289.6927919984
 21
-153.1406564734
  0
LINE
  8
3
  6
CONTINUOUS
 62
5
 10
289.6927919984
 20
-153.1406564734
 11
286.8927919984
 21
-153.1406564734
  0
LINE
  8
3
  6
CONTINUOUS
 62
5
 10
286.8927919984
 20
-153.1406564734
 11
286.8927919984
 21
-151.6406564734
  0
LINE
  8
3
  6
CONTINUOUS
 62
5
 10
286.8927919984
 20
-151.6406564734
 11
285.8427919984
 21
-151.6406564734
  0
LINE
  8
3
  6
CONTINUOUS
 62
5
 10
285.8427919984
 20
-151.6406564734
 11
285.8427919984
 21
-149.9406564734
  0
LINE
  8
3
  6
CONTINUOUS
 62
5
 10
281.5427919984
 20
-149.9406564734
 11
281.5427919984
 21
-151.6406564734
  0
LINE
  8
3
  6
CONTINUOUS
 62
5
 10
281.5427919984
 20
-151.6406564734
 11
280.4927919984
 21
-151.6406564734
  0
LINE
  8
3
  6
CONTINUOUS
 62
5
 10
280.4927919984
 20
-151.6406564734
 11
280.4927919984
 21
-153.1406564734
  0
LINE
  8
3
  6
CONTINUOUS
 62
5
 10
280.4927919984
 20
-153.1406564734
 11
277.6927919984
 21
-153.1406564734
  0
LINE
  8
3
  6
CONTINUOUS
 62
5
 10
277.6927919984
 20
-153.1406564734
 11
277.6927919984
 21
-160.1406564734
  0
LINE
  8
3
  6
CONTINUOUS
 62
5
 10
277.6927919984
 20
-160.1406564734
 11
289.6927919984
 21
-160.1406564734
  0
LINE
  8
3
  6
HIDDEN
 62
3
 10
292.1927919984
 20
-146.1656564734
 11
292.1927919984
 21
-170.4656564734
  0
LINE
  8
3
  6
HIDDEN
 62
3
 10
275.1927919984
 20
-146.1656564734
 11
292.1927919984
 21
-146.1656564734
  0
LINE
  8
3
  6
HIDDEN
 62
3
 10
275.1927919984
 20
-170.4656564734
 11
275.1927919984
 21
-146.1656564734
  0
LINE
  8
3
  6
HIDDEN
 62
3
 10
292.1927919984
 20
-170.4656564734
 11
275.1927919984
 21
-170.4656564734
  0
LINE
  8
5
  6
CONTINUOUS
 62
6
 10
309.6567742348
 20
-198.3646689503
 11
309.6567742348
 21
-193.3646689503
  0
LINE
  8
5
  6
CONTINUOUS
 62
6
 10
309.6567742348
 20
-193.3646689503
 11
314.6567742348
 21
-193.3646689503
  0
LINE
  8
5
  6
CONTINUOUS
 62
6
 10
314.6567742348
 20
-193.3646689503
 11
334.6567742348
 21
-193.3646689503
  0
LINE
  8
5
  6
CONTINUOUS
 62
6
 10
334.6567742348
 20
-193.3646689503
 11
374.6567742348
 21
-193.3646689503
  0
LINE
  8
5
  6
CONTINUOUS
 62
6
 10
374.6567742348
 20
-193.3646689503
 11
389.6567742348
 21
-193.3646689503
  0
LINE
  8
5
  6
CONTINUOUS
 62
6
 10
389.6567742348
 20
-193.3646689503
 11
394.6567742348
 21
-193.3646689503
  0
LINE
  8
5
  6
CONTINUOUS
 62
6
 10
394.6567742348
 20
-193.3646689503
 11
394.6567742348
 21
-198.3646689503
  0
LINE
  8
5
  6
CONTINUOUS
 62
6
 10
394.6567742348
 20
-198.3646689503
 11
389.6567742348
 21
-198.3646689503
  0
LINE
  8
5
  6
CONTINUOUS
 62
6
 10
389.6567742348
 20
-198.3646689503
 11
374.6567742348
 21
-198.3646689503
  0
LINE
  8
5
  6
CONTINUOUS
 62
6
 10
374.6567742348
 20
-198.3646689503
 11
334.6567742348
 21
-198.3646689503
  0
LINE
  8
5
  6
CONTINUOUS
 62
6
 10
334.6567742348
 20
-198.3646689503
 11
314.6567742348
 21
-198.3646689503
  0
LINE
  8
5
  6
CONTINUOUS
 62
6
 10
314.6567742348
 20
-198.3646689503
 11
309.6567742348
 21
-198.3646689503
  0
LINE
  8
5
  6
CONTINUOUS
 62
6
 10
314.6567742348
 20
-193.3646689503
 11
314.6567742348
 21
-198.3646689503
  0
LINE
  8
5
  6
CONTINUOUS
 62
6
 10
334.6567742348
 20
-193.3646689503
 11
334.6567742348
 21
-198.3646689503
  0
LINE
  8
5
  6
CONTINUOUS
 62
6
 10
374.6567742348
 20
-193.3646689503
 11
374.6567742348
 21
-198.3646689503
  0
LINE
  8
5
  6
CONTINUOUS
 62
6
 10
389.6567742348
 20
-193.3646689503
 11
389.6567742348
 21
-198.3646689503
  0
TEXT
  8
5
  6
CONTINUOUS
 62
7
 10
309.856774
 20
-197.014669
 40
2.300000
  1
項番
 41
0.921659
 50
0.000000
 51
0.000000
 72
   5
 73
   0
 11
314.456774
 21
-197.014669
  0
TEXT
  8
5
  6
CONTINUOUS
 62
7
 10
319.664774
 20
-197.364669
 40
3.000000
  1
品　　名
 41
0.737916
 50
0.000000
 51
0.000000
 72
   5
 73
   0
 11
329.648774
 21
-197.364669
  0
TEXT
  8
5
  6
CONTINUOUS
 62
7
 10
339.503774
 20
-197.364669
 40
3.000000
  1
定  格 / 型  番 / 材　質
 41
0.686277
 50
0.000000
 51
0.000000
 72
   5
 73
   0
 11
369.809774
 21
-197.364669
  0
TEXT
  8
5
  6
CONTINUOUS
 62
7
 10
376.959274
 20
-197.364669
 40
3.000000
  1
メーカー
 41
0.768293
 50
0.000000
 51
0.000000
 72
   5
 73
   0
 11
387.354274
 21
-197.364669
  0
TEXT
  8
5
  6
CONTINUOUS
 62
7
 10
389.856774
 20
-197.014669
 40
2.300000
  1
数量
 41
0.921659
 50
0.000000
 51
0.000000
 72
   5
 73
   0
 11
394.456774
 21
-197.014669
  0
LINE
  8
5
  6
CONTINUOUS
 62
6
 10
309.6567742348
 20
-203.3646689503
 11
309.6567742348
 21
-198.3646689503
  0
LINE
  8
5
  6
CONTINUOUS
 62
6
 10
309.6567742348
 20
-198.3646689503
 11
314.6567742348
 21
-198.3646689503
  0
LINE
  8
5
  6
CONTINUOUS
 62
6
 10
314.6567742348
 20
-198.3646689503
 11
334.6567742348
 21
-198.3646689503
  0
LINE
  8
5
  6
CONTINUOUS
 62
6
 10
334.6567742348
 20
-198.3646689503
 11
374.6567742348
 21
-198.3646689503
  0
LINE
  8
5
  6
CONTINUOUS
 62
6
 10
374.6567742348
 20
-198.3646689503
 11
389.6567742348
 21
-198.3646689503
  0
LINE
  8
5
  6
CONTINUOUS
 62
6
 10
389.6567742348
 20
-198.3646689503
 11
394.6567742348
 21
-198.3646689503
  0
LINE
  8
5
  6
CONTINUOUS
 62
6
 10
394.6567742348
 20
-198.3646689503
 11
394.6567742348
 21
-203.3646689503
  0
LINE
  8
5
  6
CONTINUOUS
 62
6
 10
394.6567742348
 20
-203.3646689503
 11
389.6567742348
 21
-203.3646689503
  0
LINE
  8
5
  6
CONTINUOUS
 62
6
 10
389.6567742348
 20
-203.3646689503
 11
374.6567742348
 21
-203.3646689503
  0
LINE
  8
5
  6
CONTINUOUS
 62
6
 10
374.6567742348
 20
-203.3646689503
 11
334.6567742348
 21
-203.3646689503
  0
LINE
  8
5
  6
CONTINUOUS
 62
6
 10
334.6567742348
 20
-203.3646689503
 11
314.6567742348
 21
-203.3646689503
  0
LINE
  8
5
  6
CONTINUOUS
 62
6
 10
314.6567742348
 20
-203.3646689503
 11
309.6567742348
 21
-203.3646689503
  0
LINE
  8
5
  6
CONTINUOUS
 62
6
 10
314.6567742348
 20
-198.3646689503
 11
314.6567742348
 21
-203.3646689503
  0
LINE
  8
5
  6
CONTINUOUS
 62
6
 10
334.6567742348
 20
-198.3646689503
 11
334.6567742348
 21
-203.3646689503
  0
LINE
  8
5
  6
CONTINUOUS
 62
6
 10
374.6567742348
 20
-198.3646689503
 11
374.6567742348
 21
-203.3646689503
  0
LINE
  8
5
  6
CONTINUOUS
 62
6
 10
389.6567742348
 20
-198.3646689503
 11
389.6567742348
 21
-203.3646689503
  0
TEXT
  8
5
  6
CONTINUOUS
 62
7
 10
309.906774
 20
-202.364669
 40
3.000000
  1
105
 41
0.815217
 50
0.000000
 51
0.000000
 72
   5
 73
   0
 11
314.406774
 21
-202.364669
  0
TEXT
  8
5
  6
CONTINUOUS
 62
7
 10
315.656774
 20
-202.364669
 40
3.000000
  1
ﾍﾞｾﾞﾙ
 41
0.759119
 50
0.000000
 51
0.000000
 72
   5
 73
   0
 11
322.898774
 21
-202.364669
  0
TEXT
  8
5
  6
CONTINUOUS
 62
7
 10
335.656774
 20
-202.864669
 40
4.000000
  1
NW073-FSM-IV
 41
0.762389
 50
0.000000
 51
0.000000
 72
   5
 73
   0
 11
359.656774
 21
-202.864669
  0
TEXT
  8
5
  6
CONTINUOUS
 62
7
 10
391.281774
 20
-202.614669
 40
3.500000
  1
2
 41
1.000000
 50
0.000000
 51
0.000000
 72
   5
 73
   0
 11
393.031774
 21
-202.614669
  0
LINE
  8
5
  6
CONTINUOUS
 62
6
 10
394.6567742348
 20
-208.3646689503
 11
389.6567742348
 21
-208.3646689503
  0
LINE
  8
5
  6
CONTINUOUS
 62
6
 10
389.6567742348
 20
-208.3646689503
 11
374.6567742348
 21
-208.3646689503
  0
LINE
  8
5
  6
CONTINUOUS
 62
6
 10
374.6567742348
 20
-208.3646689503
 11
334.6567742348
 21
-208.3646689503
  0
LINE
  8
5
  6
CONTINUOUS
 62
6
 10
334.6567742348
 20
-208.3646689503
 11
314.6567742348
 21
-208.3646689503
  0
LINE
  8
5
  6
CONTINUOUS
 62
6
 10
314.6567742348
 20
-208.3646689503
 11
309.6567742348
 21
-208.3646689503
  0
TEXT
  8
5
  6
CONTINUOUS
 62
7
 10
309.906774
 20
-207.364669
 40
3.000000
  1
106
 41
0.815217
 50
0.000000
 51
0.000000
 72
   5
 73
   0
 11
314.406774
 21
-207.364669
  0
TEXT
  8
5
  6
CONTINUOUS
 62
7
 10
310.656774
 20
-212.364669
 40
3.000000
  1
--
 41
0.854701
 50
0.000000
 51
0.000000
 72
   5
 73
   0
 11
313.656774
 21
-212.364669
  0
TEXT
  8
5
  6
CONTINUOUS
 62
7
 10
315.656774
 20
-207.114669
 40
2.500000
  1
RJ45(CAT6)
 41
0.790812
 50
0.000000
 51
0.000000
 72
   5
 73
   0
 11
328.566774
 21
-207.114669
  0
TEXT
  8
5
  6
CONTINUOUS
 62
7
 10
315.656774
 20
-212.364669
 40
3.000000
  1
--
 41
0.854701
 50
0.000000
 51
0.000000
 72
   5
 73
   0
 11
318.656774
 21
-212.364669
  0
TEXT
  8
5
  6
CONTINUOUS
 62
7
 10
335.656774
 20
-212.364669
 40
3.000000
  1
--
 41
0.854701
 50
0.000000
 51
0.000000
 72
   5
 73
   0
 11
338.656774
 21
-212.364669
  0
TEXT
  8
5
  6
CONTINUOUS
 62
7
 10
391.281774
 20
-207.614669
 40
3.500000
  1
2
 41
1.000000
 50
0.000000
 51
0.000000
 72
   5
 73
   0
 11
393.031774
 21
-207.614669
  0
TEXT
  8
5
  6
CONTINUOUS
 62
7
 10
390.406774
 20
-212.614669
 40
3.500000
  1
--
 41
0.854701
 50
0.000000
 51
0.000000
 72
   5
 73
   0
 11
393.906774
 21
-212.614669
  0
LINE
  8
5
  6
CONTINUOUS
 62
6
 10
309.6567742348
 20
-208.3646689503
 11
309.6567742348
 21
-203.3646689503
  0
LINE
  8
5
  6
CONTINUOUS
 62
6
 10
309.6567742348
 20
-213.3646689503
 11
309.6567742348
 21
-208.3646689503
  0
LINE
  8
5
  6
CONTINUOUS
 62
6
 10
314.6567742348
 20
-203.3646689503
 11
314.6567742348
 21
-208.3646689503
  0
LINE
  8
5
  6
CONTINUOUS
 62
6
 10
314.6567742348
 20
-208.3646689503
 11
314.6567742348
 21
-213.3646689503
  0
LINE
  8
5
  6
CONTINUOUS
 62
6
 10
334.6567742348
 20
-203.3646689503
 11
334.6567742348
 21
-208.3646689503
  0
LINE
  8
5
  6
CONTINUOUS
 62
6
 10
334.6567742348
 20
-208.3646689503
 11
334.6567742348
 21
-213.3646689503
  0
LINE
  8
5
  6
CONTINUOUS
 62
6
 10
374.6567742348
 20
-203.3646689503
 11
374.6567742348
 21
-208.3646689503
  0
LINE
  8
5
  6
CONTINUOUS
 62
6
 10
374.6567742348
 20
-208.3646689503
 11
374.6567742348
 21
-213.3646689503
  0
LINE
  8
5
  6
CONTINUOUS
 62
6
 10
389.6567742348
 20
-203.3646689503
 11
389.6567742348
 21
-208.3646689503
  0
LINE
  8
5
  6
CONTINUOUS
 62
6
 10
389.6567742348
 20
-208.3646689503
 11
389.6567742348
 21
-213.3646689503
  0
LINE
  8
5
  6
CONTINUOUS
 62
6
 10
394.6567742348
 20
-203.3646689503
 11
394.6567742348
 21
-208.3646689503
  0
LINE
  8
5
  6
CONTINUOUS
 62
6
 10
394.6567742348
 20
-208.3646689503
 11
394.6567742348
 21
-213.3646689503
  0
TEXT
  8
5
  6
CONTINUOUS
 62
7
 10
335.656774
 20
-207.864669
 40
4.000000
  1
NW080-88S-SI-C6-SH
 41
0.756939
 50
0.000000
 51
0.000000
 72
   5
 73
   0
 11
371.656774
 21
-207.864669
  0
LINE
  8
5
  6
CONTINUOUS
 62
6
 10
299.6567742348
 20
-198.3646689503
 11
299.6567742348
 21
-193.3646689503
  0
LINE
  8
5
  6
CONTINUOUS
 62
6
 10
299.6567742348
 20
-193.3646689503
 11
309.6567742348
 21
-193.3646689503
  0
LINE
  8
5
  6
CONTINUOUS
 62
6
 10
309.6567742348
 20
-198.3646689503
 11
304.6567742348
 21
-198.3646689503
  0
LINE
  8
5
  6
CONTINUOUS
 62
6
 10
309.6567742348
 20
-193.3646689503
 11
309.6567742348
 21
-198.3646689503
  0
TEXT
  8
5
  6
CONTINUOUS
 62
7
 10
302.194993
 20
-197.364669
 40
3.000000
  1
型番
 41
0.921659
 50
0.000000
 51
0.000000
 72
   5
 73
   0
 11
308.194993
 21
-197.364669
  0
LINE
  8
5
  6
CONTINUOUS
 62
6
 10
299.6567742348
 20
-203.3646689503
 11
299.6567742348
 21
-198.3646689503
  0
LINE
  8
5
  6
CONTINUOUS
 62
6
 10
299.6567742348
 20
-198.3646689503
 11
309.6567742348
 21
-198.3646689503
  0
LINE
  8
5
  6
CONTINUOUS
 62
6
 10
309.6567742348
 20
-198.3646689503
 11
309.6567742348
 21
-203.3646689503
  0
TEXT
  8
5
  6
CONTINUOUS
 62
7
 10
302.944993
 20
-202.864669
 40
4.000000
  1
R2
 41
0.961538
 50
0.000000
 51
0.000000
 72
   5
 73
   0
 11
307.444993
 21
-202.864669
  0
LINE
  8
5
  6
CONTINUOUS
 62
6
 10
299.6567742348
 20
-208.3646689503
 11
299.6567742348
 21
-203.3646689503
  0
LINE
  8
5
  6
CONTINUOUS
 62
6
 10
299.6567742348
 20
-213.3646689503
 11
299.6567742348
 21
-208.3646689503
  0
LINE
  8
5
  6
CONTINUOUS
 62
6
 10
309.6567742348
 20
-203.3646689503
 11
309.6567742348
 21
-208.3646689503
  0
LINE
  8
5
  6
CONTINUOUS
 62
6
 10
309.6567742348
 20
-208.3646689503
 11
309.6567742348
 21
-213.3646689503
  0
LINE
  8
5
  6
CONTINUOUS
 62
6
 10
394.6567742348
 20
-213.3646689503
 11
389.6567742348
 21
-213.3646689503
  0
LINE
  8
5
  6
CONTINUOUS
 62
6
 10
389.6567742348
 20
-213.3646689503
 11
374.6567742348
 21
-213.3646689503
  0
LINE
  8
5
  6
CONTINUOUS
 62
6
 10
374.6567742348
 20
-213.3646689503
 11
334.6567742348
 21
-213.3646689503
  0
LINE
  8
5
  6
CONTINUOUS
 62
6
 10
334.6567742348
 20
-213.3646689503
 11
314.6567742348
 21
-213.3646689503
  0
LINE
  8
5
  6
CONTINUOUS
 62
6
 10
314.6567742348
 20
-213.3646689503
 11
309.6567742348
 21
-213.3646689503
  0
LINE
  8
5
  6
CONTINUOUS
 62
6
 10
309.6567742348
 20
-213.3646689503
 11
299.6567742348
 21
-213.3646689503
  0
TEXT
  8
5
  6
CONTINUOUS
 62
7
 10
375.656774
 20
-202.364669
 40
3.000000
  1
MISUMI
 41
0.836104
 50
0.000000
 51
0.000000
 72
   5
 73
   0
 11
385.313774
 21
-202.364669
  0
TEXT
  8
5
  6
CONTINUOUS
 62
7
 10
375.656774
 20
-212.364669
 40
3.000000
  1
--
 41
0.854701
 50
0.000000
 51
0.000000
 72
   5
 73
   0
 11
378.656774
 21
-212.364669
  0
TEXT
  8
5
  6
CONTINUOUS
 62
7
 10
375.656774
 20
-207.364669
 40
3.000000
  1
MISUMI
 41
0.836104
 50
0.000000
 51
0.000000
 72
   5
 73
   0
 11
385.313774
 21
-207.364669
  0
TEXT
  8
3
  6
CONTINUOUS
 62
7
 10
10.971525
 20
-83.423393
 40
5.000000
  1
型番仕様　
 41
0.880282
 50
0.000000
 51
0.000000
 72
   5
 73
   0
 11
35.971525
 21
-83.423393
  0
TEXT
  8
3
  6
CONTINUOUS
 62
7
 10
10.971525
 20
-90.423393
 40
5.000000
  1
MCON-001-059 %%uPB%%u %%uA*%%u %%uR*
 41
0.755396
 50
0.000000
 51
0.000000
 72
   5
 73
   0
 11
63.471525
 21
-90.423393
  0
TEXT
  8
3
  6
CONTINUOUS
 62
7
 10
69.407718
 20
-97.145485
 40
4.000000
  1
⑩ R0:RJ45 左右共無し(ﾌﾞﾗﾝｸﾊﾟﾈﾙ)
 41
0.790123
 50
0.000000
 51
0.000000
 72
   5
 73
   0
 11
133.407718
 21
-97.145485
  0
TEXT
  8
3
  6
CONTINUOUS
 62
7
 10
69.407718
 20
-102.145485
 40
4.000000
  1
　 R1:RJ45 1個左側有り
 41
0.811808
 50
0.000000
 51
0.000000
 72
   5
 73
   0
 11
113.407718
 21
-102.145485
  0
TEXT
  8
3
  6
CONTINUOUS
 62
7
 10
69.407718
 20
-107.145485
 40
4.000000
  1
　 R2:RJ45 2個左右有り
 41
0.811808
 50
0.000000
 51
0.000000
 72
   5
 73
   0
 11
113.407718
 21
-107.145485
  0
TEXT
  8
3
  6
CONTINUOUS
 62
7
 10
69.209860
 20
-113.933264
 40
4.000000
  1
⑨ A0:ACｱｳﾄﾚｯﾄ通常ﾀｲﾌﾟ
 41
0.782361
 50
0.000000
 51
0.000000
 72
   5
 73
   0
 11
113.209860
 21
-113.933264
  0
TEXT
  8
3
  6
CONTINUOUS
 62
7
 10
69.209860
 20
-118.933264
 40
4.000000
  1
　 A1:ACｱｳﾄﾚｯﾄ抜け防止ﾀｲﾌﾟ
 41
0.792683
 50
0.000000
 51
0.000000
 72
   5
 73
   0
 11
121.209860
 21
-118.933264
  0
TEXT
  8
3
  6
CONTINUOUS
 62
7
 10
69.209860
 20
-123.933264
 40
4.000000
  1
　 A2:ACｱｳﾄﾚｯﾄ無し(ﾌﾞﾗﾝｸﾊﾟﾈﾙ)
 41
0.773333
 50
0.000000
 51
0.000000
 72
   5
 73
   0
 11
127.209860
 21
-123.933264
  0
POINT
  8
1
  6
CONTINUOUS
 62
7
 10
69.2098604961
 20
-93.5119107662
  0
POINT
  8
1
  6
CONTINUOUS
 62
7
 10
69.2098604961
 20
-109.9332643289
  0
LINE
  8
1
  6
CONTINUOUS
 62
7
 10
68.2098604961
 20
-94.9141986479
 11
61.2003489928
 21
-94.9141986479
  0
LINE
  8
1
  6
CONTINUOUS
 62
7
 10
61.2003489928
 20
-94.9141986479
 11
61.2003489928
 21
-90.5772112268
  0
LINE
  8
1
  6
CONTINUOUS
 62
7
 10
68.2098604961
 20
-111.3355522106
 11
53.4667720572
 21
-111.3355522106
  0
LINE
  8
1
  6
CONTINUOUS
 62
7
 10
53.4667720572
 20
-111.3355522106
 11
53.4667720572
 21
-90.5772112268
  0
TEXT
  8
5
  6
CONTINUOUS
 62
7
 10
315.656774
 20
-189.864669
 40
3.000000
  1
ﾌﾞﾗﾝｸﾍﾞｾﾞﾙ
 41
0.745942
 50
0.000000
 51
0.000000
 72
   5
 73
   0
 11
330.269774
 21
-189.864669
  0
TEXT
  8
5
  6
CONTINUOUS
 62
7
 10
309.906774
 20
-189.864669
 40
3.000000
  1
104
 41
0.815217
 50
0.000000
 51
0.000000
 72
   5
 73
   0
 11
314.406774
 21
-189.864669
  0
TEXT
  8
5
  6
CONTINUOUS
 62
7
 10
335.656774
 20
-190.364669
 40
4.000000
  1
NW-073-FBK-IV
 41
0.761124
 50
0.000000
 51
0.000000
 72
   5
 73
   0
 11
361.656774
 21
-190.364669
  0
TEXT
  8
5
  6
CONTINUOUS
 62
7
 10
375.656774
 20
-189.864669
 40
3.000000
  1
MISUMI
 41
0.836104
 50
0.000000
 51
0.000000
 72
   5
 73
   0
 11
385.313774
 21
-189.864669
  0
TEXT
  8
5
  6
CONTINUOUS
 62
7
 10
391.281774
 20
-190.114669
 40
3.500000
  1
1
 41
1.000000
 50
0.000000
 51
0.000000
 72
   5
 73
   0
 11
393.031774
 21
-190.114669
  0
INSERT
  8
1
  6
CONTINUOUS
 62
5
  2
BALN12
 10
148.7927919984
 20
-145.3406564734
  0
INSERT
  8
1
  6
CONTINUOUS
 62
5
  2
BALN13
 10
173.7927919984
 20
-145.3406564734
  0
INSERT
  8
1
  6
CONTINUOUS
 62
5
  2
BALN14
 10
228.7427919984
 20
-145.3406564734
  0
INSERT
  8
1
  6
CONTINUOUS
 62
5
  2
BALN15
 10
203.7427919984
 20
-145.3406564734
  0
INSERT
  8
1
  6
CONTINUOUS
 62
5
  2
BALN16
 10
203.7427919984
 20
-149.9406564734
  0
INSERT
  8
1
  6
CONTINUOUS
 62
5
  2
BALN17
 10
258.6927919984
 20
-149.9406564734
  0
INSERT
  8
1
  6
CONTINUOUS
 62
5
  2
BALN18
 10
258.6927919984
 20
-145.3406564734
  0
INSERT
  8
1
  6
CONTINUOUS
 62
5
  2
BALN19
 10
283.6927919984
 20
-149.9406564734
  0
INSERT
  8
1
  6
CONTINUOUS
 62
5
  2
BALN20
 10
283.6927919984
 20
-145.3406564734
  0
POINT
  8
5
  6
CONTINUOUS
 62
6
 10
8.9999999999
 20
262.0000000000
  0
POINT
  8
5
  6
CONTINUOUS
 62
6
 10
9.0000000001
 20
262.0000000000
  0
POINT
  8
5
  6
CONTINUOUS
 62
6
 10
9.0000000001
 20
262.0000000000
  0
POINT
  8
5
  6
CONTINUOUS
 62
6
 10
9.0000000001
 20
262.0000000000
  0
POINT
  8
5
  6
CONTINUOUS
 62
6
 10
9.0000000001
 20
262.0000000000
  0
POINT
  8
5
  6
CONTINUOUS
 62
6
 10
9.0000000001
 20
262.0000000000
  0
POINT
  8
1
  6
CONTINUOUS
 62
7
 10
9.0000000001
 20
262.0000000000
  0
POINT
  8
5
  6
CONTINUOUS
 62
6
 10
9.0000000001
 20
262.0000000000
  0
POINT
  8
5
  6
CONTINUOUS
 62
6
 10
9.0000000001
 20
262.0000000000
  0
POINT
  8
5
  6
CONTINUOUS
 62
6
 10
9.0000000001
 20
262.0000000000
  0
POINT
  8
5
  6
CONTINUOUS
 62
6
 10
9.0000000001
 20
262.0000000000
  0
INSERT
  8
1
  6
CONTINUOUS
 62
7
  2
S6
 10
9.0000000001
 20
262.0000000000
  0
INSERT
  8
1
  6
CONTINUOUS
 62
7
  2
S7
 10
9.0000000001
 20
262.0000000000
  0
TEXT
  8
1
  6
CONTINUOUS
 62
7
 10
14.500000
 20
260.750000
 40
2.500000
  1
'22/3/23
 41
0.770713
 50
0.000000
 51
0.000000
 72
   5
 73
   0
 11
24.500000
 21
260.750000
  0
TEXT
  8
1
  6
CONTINUOUS
 62
7
 10
26.397854
 20
260.612114
 40
2.500000
  1
PB追加に伴う変更
 41
0.854701
 50
0.000000
 51
0.000000
 72
   5
 73
   0
 11
46.397854
 21
260.612114
  0
TEXT
  8
1
  6
CONTINUOUS
 62
7
 10
91.500000
 20
260.500000
 40
3.000000
  1
山田
 41
0.921659
 50
0.000000
 51
0.000000
 72
   5
 73
   0
 11
97.500000
 21
260.500000
  0
POINT
  8
5
  6
CONTINUOUS
 62
6
 10
7.7490435001
 20
-51.9655230621
  0
POINT
  8
5
  6
CONTINUOUS
 62
6
 10
7.7490435000
 20
-51.9655230621
  0
POINT
  8
5
  6
CONTINUOUS
 62
6
 10
7.7490435002
 20
-51.9655230621
  0
POINT
  8
5
  6
CONTINUOUS
 62
6
 10
7.7490435002
 20
-51.9655230621
  0
POINT
  8
5
  6
CONTINUOUS
 62
6
 10
7.7490435002
 20
-51.9655230621
  0
POINT
  8
5
  6
CONTINUOUS
 62
6
 10
7.7490435002
 20
-51.9655230621
  0
POINT
  8
5
  6
CONTINUOUS
 62
6
 10
7.7490435002
 20
-51.9655230621
  0
POINT
  8
1
  6
CONTINUOUS
 62
7
 10
7.7490435002
 20
-51.9655230621
  0
POINT
  8
5
  6
CONTINUOUS
 62
6
 10
7.7490435002
 20
-51.9655230621
  0
POINT
  8
5
  6
CONTINUOUS
 62
6
 10
7.7490435002
 20
-51.9655230621
  0
POINT
  8
5
  6
CONTINUOUS
 62
6
 10
7.7490435002
 20
-51.9655230621
  0
POINT
  8
5
  6
CONTINUOUS
 62
6
 10
7.7490435002
 20
-51.9655230621
  0
INSERT
  8
1
  6
CONTINUOUS
 62
7
  2
S8
 10
7.7490435002
 20
-51.9655230621
  0
INSERT
  8
1
  6
CONTINUOUS
 62
7
  2
S9
 10
7.7490435002
 20
-51.9655230621
  0
TEXT
  8
1
  6
CONTINUOUS
 62
7
 10
13.249044
 20
-53.215523
 40
2.500000
  1
'22/3/23
 41
0.770713
 50
0.000000
 51
0.000000
 72
   5
 73
   0
 11
23.249044
 21
-53.215523
  0
TEXT
  8
1
  6
CONTINUOUS
 62
7
 10
25.146897
 20
-53.353409
 40
2.500000
  1
PB追加に伴う変更
 41
0.854701
 50
0.000000
 51
0.000000
 72
   5
 73
   0
 11
45.146897
 21
-53.353409
  0
TEXT
  8
1
  6
CONTINUOUS
 62
7
 10
90.249044
 20
-53.465523
 40
3.000000
  1
山田
 41
0.921659
 50
0.000000
 51
0.000000
 72
   5
 73
   0
 11
96.249044
 21
-53.465523
  0
POINT
  8
5
  6
CONTINUOUS
 62
6
 10
166.4235700656
 20
249.8830107178
  0
POINT
  8
5
  6
CONTINUOUS
 62
6
 10
166.4235700656
 20
249.8830107178
  0
POINT
  8
1
  6
CONTINUOUS
 62
6
 10
166.4235700656
 20
249.8830107178
  0
POINT
  8
5
  6
CONTINUOUS
 62
6
 10
166.4235700656
 20
249.8830107178
  0
INSERT
  8
1
  6
CONTINUOUS
 62
7
  2
S10
 10
166.4235700656
 20
249.8830107178
  0
TEXT
  8
1
  6
CONTINUOUS
 62
7
 10
172.180891
 20
247.362228
 40
3.500000
  1
①ﾍﾞｰｽ,②ｶﾊﾞｰ材質
 41
0.806452
 50
0.000000
 51
0.000000
 72
   5
 73
   0
 11
201.930891
 21
247.362228
  0
TEXT
  8
1
  6
CONTINUOUS
 62
7
 10
172.180891
 20
243.862228
 40
3.500000
  1
無印:ｱﾙﾐﾀﾞｲｷｬｽﾄ
 41
0.786164
 50
0.000000
 51
0.000000
 72
   5
 73
   0
 11
198.430891
 21
243.862228
  0
TEXT
  8
1
  6
CONTINUOUS
 62
7
 10
172.180891
 20
240.362228
 40
3.500000
  1
PB:PBT(UL:V-0)
 41
0.760043
 50
0.000000
 51
0.000000
 72
   5
 73
   0
 11
196.680891
 21
240.362228
  0
LINE
  8
1
  6
CONTINUOUS
 62
7
 10
174.0915340906
 20
261.2328103354
 11
174.0915340906
 21
252.0214663153
  0
LINE
  8
1
  6
CONTINUOUS
 62
7
 10
197.4221795323
 20
261.2328103354
 11
174.0915340906
 21
261.2328103354
  0
LINE
  8
1
  6
CONTINUOUS
 62
7
 10
197.4221795323
 20
270.2299370527
 11
197.4221795323
 21
261.2328103354
  0
POINT
  8
5
  6
CONTINUOUS
 62
6
 10
15.3753467910
 20
-111.1961015257
  0
POINT
  8
5
  6
CONTINUOUS
 62
6
 10
15.3753467910
 20
-111.1961015257
  0
POINT
  8
1
  6
CONTINUOUS
 62
6
 10
15.3753467910
 20
-111.1961015257
  0
POINT
  8
5
  6
CONTINUOUS
 62
6
 10
15.3753467910
 20
-111.1961015257
  0
INSERT
  8
1
  6
CONTINUOUS
 62
7
  2
S11
 10
15.3753467910
 20
-111.1961015257
  0
TEXT
  8
1
  6
CONTINUOUS
 62
7
 10
21.132667
 20
-113.716884
 40
3.500000
  1
①ﾍﾞｰｽ,②ｶﾊﾞｰ材質
 41
0.806452
 50
0.000000
 51
0.000000
 72
   5
 73
   0
 11
50.882667
 21
-113.716884
  0
TEXT
  8
1
  6
CONTINUOUS
 62
7
 10
21.132667
 20
-117.216884
 40
3.500000
  1
無印:ｱﾙﾐﾀﾞｲｷｬｽﾄ
 41
0.786164
 50
0.000000
 51
0.000000
 72
   5
 73
   0
 11
47.382667
 21
-117.216884
  0
TEXT
  8
1
  6
CONTINUOUS
 62
7
 10
21.132667
 20
-120.716884
 40
3.500000
  1
PB:PBT(UL:V-0)
 41
0.760043
 50
0.000000
 51
0.000000
 72
   5
 73
   0
 11
45.632667
 21
-120.716884
  0
LINE
  8
1
  6
CONTINUOUS
 62
7
 10
23.0433108160
 20
-99.8463019081
 11
23.0433108160
 21
-109.0576459281
  0
LINE
  8
1
  6
CONTINUOUS
 62
7
 10
46.3739562577
 20
-99.8463019081
 11
23.0433108160
 21
-99.8463019081
  0
LINE
  8
1
  6
CONTINUOUS
 62
7
 10
46.3739562577
 20
-90.8491751908
 11
46.3739562577
 21
-99.8463019081
  0
INSERT
  8
1
  6
CONTINUOUS
 62
7
  2
S12
 10
309.6589196101
 20
266.9570411776
  0
TEXT
  8
5
  6
CONTINUOUS
 62
7
 10
339.214499
 20
268.261754
 40
3.000000
  1
ｱﾙﾐﾀﾞｲｷｬｽﾄ銀色塗装
 41
0.833541
 50
0.000000
 51
0.000000
 72
   5
 73
   0
 11
367.246499
 21
268.261754
  0
TEXT
  8
5
  6
CONTINUOUS
 62
7
 10
339.214499
 20
265.261754
 40
3.000000
  1
又は
 41
0.921659
 50
0.000000
 51
0.000000
 72
   5
 73
   0
 11
345.214499
 21
265.261754
  0
TEXT
  8
5
  6
CONTINUOUS
 62
7
 10
339.214499
 20
262.261754
 40
3.000000
  1
PBT 黒色(UL  V-0)
 41
0.751838
 50
0.000000
 51
0.000000
 72
   5
 73
   0
 11
363.754499
 21
262.261754
  0
INSERT
  8
3
  6
CONTINUOUS
 62
5
  2
LTEX2
 10
134.5962334454
 20
86.7605564293
  0
POINT
  8
5
  6
CONTINUOUS
 62
6
 10
137.2868002249
 20
38.5097255163
  0
POINT
  8
5
  6
CONTINUOUS
 62
6
 10
137.2868002249
 20
38.5097255163
  0
POINT
  8
1
  6
CONTINUOUS
 62
6
 10
137.2868002249
 20
38.5097255163
  0
POINT
  8
5
  6
CONTINUOUS
 62
6
 10
137.2868002249
 20
38.5097255163
  0
INSERT
  8
1
  6
CONTINUOUS
 62
7
  2
S13
 10
137.2868002249
 20
38.5097255163
  0
INSERT
  8
3
  6
CONTINUOUS
 62
5
  2
LTEX3
 10
88.2645106558
 20
17.3439335173
  0
INSERT
  8
3
  6
CONTINUOUS
 62
5
  2
LTEX4
 10
39.2645106558
 20
18.7789024664
  0
INSERT
  8
1
  6
CONTINUOUS
 62
5
  2
LTEX5
 10
208.1607622865
 20
127.0062661343
  0
CIRCLE
  8
1
  6
HIDDEN
 62
6
 10
174.6605182328
 20
130.8525214537
 40
4.0000000000
  0
CIRCLE
  8
1
  6
HIDDEN
 62
6
 10
174.6605182328
 20
130.8525214537
 40
2.0000000000
  0
INSERT
  8
1
  6
CONTINUOUS
 62
7
  2
S14
 10
190.4105182328
 20
130.8525214537
  0
INSERT
  8
1
  6
CONTINUOUS
 62
7
  2
S15
 10
145.4123684031
 20
132.5342321022
  0
INSERT
  8
1
  6
CONTINUOUS
 62
5
  2
LTEX6
 10
170.6605182328
 20
130.8525214537
  0
INSERT
  8
1
  6
CONTINUOUS
 62
5
  2
LTEX7
 10
76.5222266806
 20
-224.3963793629
  0
CIRCLE
  8
1
  6
HIDDEN
 62
6
 10
43.0219826269
 20
-220.5501240435
 40
4.0000000000
  0
CIRCLE
  8
1
  6
HIDDEN
 62
6
 10
43.0219826269
 20
-220.5501240435
 40
2.0000000000
  0
INSERT
  8
1
  6
CONTINUOUS
 62
7
  2
S16
 10
58.7719826269
 20
-220.5501240435
  0
INSERT
  8
1
  6
CONTINUOUS
 62
7
  2
S17
 10
13.7738327972
 20
-218.8684133949
  0
INSERT
  8
1
  6
CONTINUOUS
 62
5
  2
LTEX8
 10
39.0219826269
 20
-220.5501240435
  0
INSERT
  8
1
  6
CONTINUOUS
 62
7
  2
S18
 10
309.3497198050
 20
234.4360296824
  0
ENDSEC
  0
EOF
