  0
SECTION
  2
HEADER
  9
$ACADVER
  1
AC1009
  9
$DWGCODEPAGE
  3
dos932
  9
$INSBASE
 10
893.2477781160
 20
206.9327354514
  9
$EXTMIN
 10
610.1366997272
 20
36.1577354514
  9
$EXTMAX
 10
1254.8032602368
 20
377.7077354514
  9
$LIMMIN
 10
610.1366997272
 20
36.1577354514
  9
$LIMMAX
 10
1254.8032602368
 20
377.7077354514
  9
$VIEWCTR
 10
0.0000000000
 20
0.0000000000
  9
$VIEWSIZE
 40
0.0000000000
  9
$SNAPMODE
 70
     0
  9
$SNAPUNIT
 10
20.0
 20
20.0
  9
$SNAPBASE
 10
0.000000
 20
0.000000
  9
$SNAPANG
 50
0.0
  9
$SNAPSTYLE
 70
     0
  9
$SNAPISOPAIR
 70
     0
  9
$GRIDMODE
 70
     0
  9
$GRIDUNIT
 10
10.000000
 20
10.000000
  9
$ORTHOMODE
 70
     0
  9
$REGENMODE
 70
     0
  9
$FILLMODE
 70
     1
  9
$QTEXTMODE
 70
     0
  9
$DRAGMODE
 70
     1
  9
$LTSCALE
 40
1.0
  9
$OSMODE
 70
     0
  9
$ATTMODE
 70
     1
  9
$TEXTSIZE
 40
4.000000
  9
$TRACEWID
 40
0.05
  9
$TEXTSTYLE
  7
STANDARD
  9
$CLAYER
  8
1
  9
$CELTYPE
  6
HIDDEN
  9
$CECOLOR
  62
3
  9
$DIMSCALE
 40
1.0000000000
  9
$DIMASZ
 40
2.0000000000
  9
$DIMEXO
 40
0.5000000000
  9
$DIMDLI
 40
7.000000
  9
$DIMRND
 40
0.0
  9
$DIMDLE
 40
0.0
  9
$DIMEXE
 40
1.0000000000
  9
$DIMTP
 40
0.0
  9
$DIMTM
 40
0.0
  9
$DIMTXT
 40
3.500000
  9
$DIMCEN
 40
0.09
  9
$DIMTSZ
 40
0.0
  9
$DIMTOL
 70
     0
  9
$DIMLIM
 70
     0
  9
$DIMTIH
 70
     0
  9
$DIMTOH
 70
     0
  9
$DIMSE1
 70
     0
  9
$DIMSE2
 70
     0
  9
$DIMTAD
 70
     1
  9
$DIMZIN
 70
     0
  9
$DIMBLK
  1

  9
$DIMASO
 70
     1
  9
$DIMSHO
 70
     0
  9
$DIMPOST
  1

  9
$DIMAPOST
  1

  9
$DIMALT
 70
     0
  9
$DIMALTD
 70
     3
  9
$DIMCLRD
 70
     5
  9
$DIMCLRE
 70
     5
  9
$DIMCLRT
 70
     7
  9
$DIMALTF
 40
25.4
  9
$DIMLFAC
 40
1.0
  9
$DIMTOFL
 70
     0
  9
$DIMTVP
 40
0.0
  9
$DIMTIX
 70
     0
  9
$DIMSOXD
 70
     0
  9
$DIMSAH
 70
     0
  9
$LUNITS
 70
     2
  9
$LUPREC
 70
     4
  9
$AXISMODE
 70
     0
  9
$AXISUNIT
 10
0.0
 20
0.0
  9
$SKETCHINC
 40
0.1
  9
$FILLETRAD
 40
0.0
  9
$AUNITS
 70
     0
  9
$AUPREC
 70
     0
  9
$MENU
  1
ACAD
  9
$ELEVATION
 40
0.0
  9
$THICKNESS
 40
0.0
  9
$VIEWDIR
 10
0.0
 20
0.0
 30
1.0
  9
$LIMCHECK
 70
     0
  9
$BLIPMODE
 70
     1
  9
$CHAMFERA
 40
0.0
  9
$CHAMFERB
 40
0.0
  9
$FASTZOOM
 70
     1
  9
$SKPOLY
 70
     0
  9
$TDCREATE
 40
2460137.0000000051
  9
$TDUPDATE
 40
2460137.0000000051
  9
$TDINDWG
 40
0.0000000000
  9
$TDUSRTIMER
 40
0.0000000000
  9
$USRTIMER
 70
     1
  9
$ANGBASE
 50
0.0
  9
$ANGDIR
 70
     0
  9
$PDMODE
 70
     65
  9
$PDSIZE
 40
0.2
  9
$PLINEWID
 40
0.0
  9
$COORDS
 70
     2
  9
$USERI1
 70
     0
  9
$USERI2
 70
     0
  9
$USERI3
 70
     0
  9
$USERI4
 70
     0
  9
$USERI5
 70
     0
  9
$USERR1
 40
0.0
  9
$USERR2
 40
0.0
  9
$USERR3
 40
0.0
  9
$USERR4
 40
0.0
  9
$USERR5
 40
0.0
  0
ENDSEC
  0
SECTION
  2
TABLES
  0
TABLE
  2
LTYPE
 70
     9
  0
LTYPE
  2
CONTINUOUS
 70
    64
  3
Solid line
 72
    65
 73
     0
 40
0.0
  0
LTYPE
  2
DASHED
 70
    64
  3
__ __ __ __ __ __ __ __ __ __ __ __ __ __ __
 72
    65
 73
     2
 40
3.0
 49
2.0
 49
-1.0
  0
LTYPE
  2
HIDDEN
 70
    64
  3
_ _ _ _ _ _ _ _ _ _ _ _ _ _ _ _ _ _ _ _ _ _ _
 72
    65
 73
     2
 40
1.5
 49
1.0
 49
-0.5
  0
LTYPE
  2
CENTER
 70
    64
  3
____ _ ____ _ ____ _ ____ _ ____ _ ____ _ ____
 72
    65
 73
     4
 40
24.0
 49
20.0
 49
-1.0
 49
2.0
 49
-1.0
  0
LTYPE
  2
PHANTOM
 70
    64
  3
_____ _ _ _____ _ _ _____ _ _ _____ _ _ ____
 72
    65
 73
     6
 40
27.0
 49
20.0
 49
-1.0
 49
2.0
 49
-1.0
 49
2.0
 49
-1.0
  0
LTYPE
  2
DOT
 70
    64
  3
...............................................
 72
    65
 73
     2
 40
1.5
 49
0.5
 49
-1.0
  0
LTYPE
  2
DASHDOT
 70
    64
  3
__ . __ . __ . __ . __ . __ . __ . __ . __ . __
 72
    65
 73
     4
 40
8.5
 49
6.0
 49
-1.0
 49
0.5
 49
-1.0
  0
LTYPE
  2
DIVIDE
 70
    64
  3
__ . . __ . . __ . . __ . . __ . . __ . . __
 72
    65
 73
     6
 40
10.0
 49
6.0
 49
-1.0
 49
0.5
 49
-1.0
 49
0.5
 49
-1.0
  0
LTYPE
  2
BORDER
 70
    64
  3
__ __ . __ __ . __ __ . __ __ . __ __ . __ __
 72
    65
 73
     6
 40
15.5
 49
6.0
 49
-1.0
 49
6.0
 49
-1.0
 49
0.5
 49
-1.0
  0
ENDTAB
  0
TABLE
  2
LAYER
 70
  7
  0
LAYER
  2
0
 70
    64
 62
     7
  6
CONTINUOUS
  0
LAYER
  2
1
 70
    64
 62
     7
  6
CONTINUOUS
  0
LAYER
  2
2
 70
    64
 62
     7
  6
CONTINUOUS
  0
LAYER
  2
3
 70
    64
 62
     7
  6
CONTINUOUS
  0
LAYER
  2
4
 70
    64
 62
     7
  6
CONTINUOUS
  0
LAYER
  2
5
 70
    64
 62
     7
  6
CONTINUOUS
  0
LAYER
  2
DEFPOINTS
 70
     0
 62
    -7
  6
CONTINUOUS
  0
ENDTAB
  0
TABLE
  2
STYLE
 70
     1
  0
STYLE
  2
STANDARD
 70
    64
 40
0.0
 41
1.0
 71
     0
 42
4.000000
  3
TXT
  4
EXTFONT
 50
0.0
  0
ENDTAB
  0
TABLE
  2
VIEW
 70
     0
  0
ENDTAB
  0
ENDSEC
  0
SECTION
  2
BLOCKS
  0
BLOCK
  8
0
  2
CI
 70
   0
 10
0.0
 20
0.0
  0
CIRCLE
  8
0
  62
0
 10
0.0
 20
0.0
 40
0.1666666666
  0
ENDBLK
  8
0
  0
BLOCK
  8
5
  2
S0
 70
     0
 10
689.7477781160
 20
64.9327354514
  3
S0
  0
POINT
  8
5
  6
CONTINUOUS
 62
6
 10
683.2477781160
 20
58.4327354514
  0
LINE
  8
5
  6
CONTINUOUS
 62
6
 10
694.2477781160
 20
69.4327354514
 11
1092.2477781160
 21
69.4327354514
  0
LINE
  8
5
  6
CONTINUOUS
 62
6
 10
694.2477781160
 20
69.4327354514
 11
694.2477781160
 21
344.4327354514
  0
LINE
  8
5
  6
CONTINUOUS
 62
6
 10
734.2477781160
 20
348.9327354514
 11
734.2477781160
 21
344.4327354514
  0
LINE
  8
5
  6
CONTINUOUS
 62
6
 10
734.2477781160
 20
69.4327354514
 11
734.2477781160
 21
64.9327354514
  0
LINE
  8
5
  6
CONTINUOUS
 62
6
 10
774.2477781160
 20
348.9327354514
 11
774.2477781160
 21
344.4327354514
  0
LINE
  8
5
  6
CONTINUOUS
 62
6
 10
814.2477781160
 20
348.9327354514
 11
814.2477781160
 21
344.4327354514
  0
LINE
  8
5
  6
CONTINUOUS
 62
6
 10
854.2477781160
 20
348.9327354514
 11
854.2477781160
 21
344.4327354514
  0
LINE
  8
5
  6
CONTINUOUS
 62
6
 10
894.2477781160
 20
348.9327354514
 11
894.2477781160
 21
344.4327354514
  0
LINE
  8
5
  6
CONTINUOUS
 62
6
 10
934.2477781160
 20
348.9327354514
 11
934.2477781160
 21
344.4327354514
  0
LINE
  8
5
  6
CONTINUOUS
 62
6
 10
774.2477781160
 20
69.4327354514
 11
774.2477781160
 21
64.9327354514
  0
LINE
  8
5
  6
CONTINUOUS
 62
6
 10
814.2477781160
 20
69.4327354514
 11
814.2477781160
 21
64.9327354514
  0
LINE
  8
5
  6
CONTINUOUS
 62
6
 10
854.2477781160
 20
69.4327354514
 11
854.2477781160
 21
64.9327354514
  0
LINE
  8
5
  6
CONTINUOUS
 62
6
 10
894.2477781160
 20
69.4327354514
 11
894.2477781160
 21
64.9327354514
  0
LINE
  8
5
  6
CONTINUOUS
 62
6
 10
934.2477781160
 20
69.4327354514
 11
934.2477781160
 21
64.9327354514
  0
LINE
  8
5
  6
CONTINUOUS
 62
6
 10
689.7477781160
 20
304.4327354514
 11
694.2477781160
 21
304.4327354514
  0
LINE
  8
5
  6
CONTINUOUS
 62
6
 10
1092.2477781160
 20
304.4327354514
 11
1096.7477781160
 21
304.4327354514
  0
LINE
  8
5
  6
CONTINUOUS
 62
6
 10
689.7477781160
 20
264.4327354514
 11
694.2477781160
 21
264.4327354514
  0
LINE
  8
5
  6
CONTINUOUS
 62
6
 10
689.7477781160
 20
224.4327354514
 11
694.2477781160
 21
224.4327354514
  0
LINE
  8
5
  6
CONTINUOUS
 62
6
 10
689.7477781160
 20
184.4327354514
 11
694.2477781160
 21
184.4327354514
  0
LINE
  8
5
  6
CONTINUOUS
 62
6
 10
1092.2477781160
 20
264.4327354514
 11
1096.7477781160
 21
264.4327354514
  0
LINE
  8
5
  6
CONTINUOUS
 62
6
 10
1092.2477781160
 20
224.4327354514
 11
1096.7477781160
 21
224.4327354514
  0
LINE
  8
5
  6
CONTINUOUS
 62
6
 10
1092.2477781160
 20
184.4327354514
 11
1096.7477781160
 21
184.4327354514
  0
TEXT
  8
5
  6
CONTINUOUS
 62
6
 10
713.247778
 20
344.432735
 40
4.000000
  1
1
 41
1.000000
 50
0.000000
 51
0.000000
 72
   5
 73
   0
 11
715.247778
 21
344.432735
  0
TEXT
  8
5
  6
CONTINUOUS
 62
6
 10
713.247778
 20
65.432735
 40
4.000000
  1
1
 41
1.000000
 50
0.000000
 51
0.000000
 72
   5
 73
   0
 11
715.247778
 21
65.432735
  0
TEXT
  8
5
  6
CONTINUOUS
 62
6
 10
753.247778
 20
344.432735
 40
4.000000
  1
2
 41
1.000000
 50
0.000000
 51
0.000000
 72
   5
 73
   0
 11
755.247778
 21
344.432735
  0
TEXT
  8
5
  6
CONTINUOUS
 62
6
 10
793.247778
 20
344.432735
 40
4.000000
  1
3
 41
1.000000
 50
0.000000
 51
0.000000
 72
   5
 73
   0
 11
795.247778
 21
344.432735
  0
TEXT
  8
5
  6
CONTINUOUS
 62
6
 10
873.247778
 20
344.432735
 40
4.000000
  1
5
 41
1.000000
 50
0.000000
 51
0.000000
 72
   5
 73
   0
 11
875.247778
 21
344.432735
  0
TEXT
  8
5
  6
CONTINUOUS
 62
6
 10
913.247778
 20
344.432735
 40
4.000000
  1
6
 41
1.000000
 50
0.000000
 51
0.000000
 72
   5
 73
   0
 11
915.247778
 21
344.432735
  0
TEXT
  8
5
  6
CONTINUOUS
 62
6
 10
953.247778
 20
344.432735
 40
4.000000
  1
7
 41
1.000000
 50
0.000000
 51
0.000000
 72
   5
 73
   0
 11
955.247778
 21
344.432735
  0
TEXT
  8
5
  6
CONTINUOUS
 62
6
 10
753.247778
 20
65.432735
 40
4.000000
  1
2
 41
1.000000
 50
0.000000
 51
0.000000
 72
   5
 73
   0
 11
755.247778
 21
65.432735
  0
TEXT
  8
5
  6
CONTINUOUS
 62
6
 10
793.247778
 20
65.432735
 40
4.000000
  1
3
 41
1.000000
 50
0.000000
 51
0.000000
 72
   5
 73
   0
 11
795.247778
 21
65.432735
  0
TEXT
  8
5
  6
CONTINUOUS
 62
6
 10
833.247778
 20
65.432735
 40
4.000000
  1
4
 41
1.000000
 50
0.000000
 51
0.000000
 72
   5
 73
   0
 11
835.247778
 21
65.432735
  0
TEXT
  8
5
  6
CONTINUOUS
 62
6
 10
873.247778
 20
65.432735
 40
4.000000
  1
5
 41
1.000000
 50
0.000000
 51
0.000000
 72
   5
 73
   0
 11
875.247778
 21
65.432735
  0
TEXT
  8
5
  6
CONTINUOUS
 62
6
 10
913.247778
 20
65.432735
 40
4.000000
  1
6
 41
1.000000
 50
0.000000
 51
0.000000
 72
   5
 73
   0
 11
915.247778
 21
65.432735
  0
TEXT
  8
5
  6
CONTINUOUS
 62
6
 10
953.247778
 20
65.432735
 40
4.000000
  1
7
 41
1.000000
 50
0.000000
 51
0.000000
 72
   5
 73
   0
 11
955.247778
 21
65.432735
  0
TEXT
  8
5
  6
CONTINUOUS
 62
6
 10
691.374551
 20
322.386878
 40
4.000000
  1
A
 41
1.266000
 50
0.000000
 51
0.000000
 72
   5
 73
   0
 11
693.906551
 21
322.386878
  0
TEXT
  8
5
  6
CONTINUOUS
 62
6
 10
1092.534292
 20
322.425090
 40
4.000000
  1
A
 41
1.266000
 50
0.000000
 51
0.000000
 72
   5
 73
   0
 11
1095.066292
 21
322.425090
  0
TEXT
  8
5
  6
CONTINUOUS
 62
6
 10
691.358551
 20
282.386878
 40
4.000000
  1
B
 41
1.274000
 50
0.000000
 51
0.000000
 72
   5
 73
   0
 11
693.906551
 21
282.386878
  0
TEXT
  8
5
  6
CONTINUOUS
 62
6
 10
691.250551
 20
242.386878
 40
4.000000
  1
C
 41
1.328000
 50
0.000000
 51
0.000000
 72
   5
 73
   0
 11
693.906551
 21
242.386878
  0
TEXT
  8
5
  6
CONTINUOUS
 62
6
 10
691.314551
 20
202.386878
 40
4.000000
  1
D
 41
1.296000
 50
0.000000
 51
0.000000
 72
   5
 73
   0
 11
693.906551
 21
202.386878
  0
TEXT
  8
5
  6
CONTINUOUS
 62
6
 10
691.642551
 20
162.386878
 40
4.000000
  1
E
 41
1.132000
 50
0.000000
 51
0.000000
 72
   5
 73
   0
 11
693.906551
 21
162.386878
  0
TEXT
  8
5
  6
CONTINUOUS
 62
6
 10
1092.534292
 20
282.425090
 40
4.000000
  1
B
 41
1.274000
 50
0.000000
 51
0.000000
 72
   5
 73
   0
 11
1095.082292
 21
282.425090
  0
TEXT
  8
5
  6
CONTINUOUS
 62
6
 10
1092.534292
 20
242.425090
 40
4.000000
  1
C
 41
1.328000
 50
0.000000
 51
0.000000
 72
   5
 73
   0
 11
1095.190292
 21
242.425090
  0
TEXT
  8
5
  6
CONTINUOUS
 62
6
 10
1092.534292
 20
202.425090
 40
4.000000
  1
D
 41
1.296000
 50
0.000000
 51
0.000000
 72
   5
 73
   0
 11
1095.126292
 21
202.425090
  0
TEXT
  8
5
  6
CONTINUOUS
 62
6
 10
1092.534292
 20
162.425090
 40
4.000000
  1
E
 41
1.132000
 50
0.000000
 51
0.000000
 72
   5
 73
   0
 11
1094.798292
 21
162.425090
  0
LINE
  8
5
  6
CONTINUOUS
 62
6
 10
1037.2477781160
 20
94.4327354514
 11
1037.2477781160
 21
69.4327354514
  0
LINE
  8
5
  6
CONTINUOUS
 62
6
 10
1037.2477781160
 20
79.4327354514
 11
1092.2477781160
 21
79.4327354514
  0
LINE
  8
5
  6
CONTINUOUS
 62
6
 10
1037.2477781160
 20
72.4327354514
 11
971.2477781160
 21
72.4327354514
  0
LINE
  8
5
  6
CONTINUOUS
 62
6
 10
993.2477781160
 20
69.4327354514
 11
993.2477781160
 21
85.9327354514
  0
LINE
  8
5
  6
CONTINUOUS
 62
6
 10
1026.2477781160
 20
81.9327354514
 11
1026.2477781160
 21
69.4327354514
  0
LINE
  8
5
  6
CONTINUOUS
 62
6
 10
1015.2477781160
 20
69.4327354514
 11
1015.2477781158
 21
85.9327354514
  0
LINE
  8
5
  6
CONTINUOUS
 62
6
 10
1004.2477781160
 20
81.9327354514
 11
1004.2477781160
 21
69.4327354514
  0
TEXT
  8
5
  6
CONTINUOUS
 62
6
 10
984.271528
 20
69.682735
 40
2.500000
  1
Design
 41
0.722338
 50
0.000000
 51
0.000000
 72
   5
 73
   0
 11
991.224028
 21
69.682735
  0
TEXT
  8
5
  6
CONTINUOUS
 62
6
 10
996.086528
 20
69.682735
 40
2.500000
  1
Draft
 41
0.669497
 50
0.000000
 51
0.000000
 72
   5
 73
   0
 11
1001.409028
 21
69.682735
  0
TEXT
  8
5
  6
CONTINUOUS
 62
6
 10
1006.466528
 20
69.682735
 40
2.500000
  1
Check
 41
0.825472
 50
0.000000
 51
0.000000
 72
   5
 73
   0
 11
1013.029028
 21
69.682735
  0
LINE
  8
5
  6
CONTINUOUS
 62
6
 10
971.2477781160
 20
94.4327354514
 11
1092.2477781160
 21
94.4327354514
  0
LINE
  8
5
  6
CONTINUOUS
 62
6
 10
971.2477781160
 20
81.9327354514
 11
1037.2477781160
 21
81.9327354514
  0
LINE
  8
5
  6
CONTINUOUS
 62
6
 10
1082.2477781160
 20
79.4327354514
 11
1082.2477781160
 21
69.4327354514
  0
TEXT
  8
5
  6
CONTINUOUS
 62
6
 10
1085.267778
 20
69.932735
 40
2.000000
  1
SIZE
 41
0.788845
 50
0.000000
 51
0.000000
 72
   5
 73
   0
 11
1089.227778
 21
69.932735
  0
LINE
  8
5
  6
CONTINUOUS
 62
6
 10
1082.2477781160
 20
72.4327354514
 11
1092.2477781160
 21
72.4327354514
  0
TEXT
  8
5
  6
CONTINUOUS
 62
6
 10
1083.752778
 20
73.432735
 40
5.000000
  1
Ａ３
 41
0.644240
 50
0.000000
 51
0.000000
 72
   5
 73
   0
 11
1090.742778
 21
73.432735
  0
TEXT
  8
5
  6
CONTINUOUS
 62
6
 10
1028.886528
 20
69.682735
 40
2.500000
  1
Scale
 41
0.719811
 50
0.000000
 51
0.000000
 72
   5
 73
   0
 11
1034.609028
 21
69.682735
  0
TEXT
  8
5
  6
CONTINUOUS
 62
6
 10
1027.997778
 20
74.682735
 40
5.000000
  1
1/1
 41
0.815217
 50
0.000000
 51
0.000000
 72
   5
 73
   0
 11
1035.497778
 21
74.682735
  0
TEXT
  8
5
  6
CONTINUOUS
 62
6
 10
1016.660278
 20
69.682735
 40
2.500000
  1
Confirm
 41
0.723451
 50
0.000000
 51
0.000000
 72
   5
 73
   0
 11
1024.835278
 21
69.682735
  0
TEXT
  8
5
  6
CONTINUOUS
 62
6
 10
974.276528
 20
69.682735
 40
2.500000
  1
Date
 41
0.787649
 50
0.000000
 51
0.000000
 72
   5
 73
   0
 11
979.219028
 21
69.682735
  0
TEXT
  8
5
  6
CONTINUOUS
 62
6
 10
972.997778
 20
77.395235
 40
3.000000
  1
2022/
 41
0.786164
 50
0.000000
 51
0.000000
 72
   5
 73
   0
 11
980.497778
 21
77.395235
  0
TEXT
  8
5
  6
CONTINUOUS
 62
6
 10
972.997778
 20
73.970235
 40
3.000000
  1
05/26
 41
0.786164
 50
0.000000
 51
0.000000
 72
   5
 73
   0
 11
980.497778
 21
73.970235
  0
LINE
  8
5
  6
CONTINUOUS
 62
6
 10
982.2477781160
 20
81.9327354514
 11
982.2477781160
 21
69.4327354514
  0
LINE
  8
5
  6
CONTINUOUS
 62
6
 10
971.2477781160
 20
69.4327354514
 11
971.2477781160
 21
94.4327354514
  0
TEXT
  8
5
  6
CONTINUOUS
 62
6
 10
971.503071
 20
83.145926
 40
2.000000
  1
Material
 41
0.638921
 50
0.000000
 51
0.000000
 72
   5
 73
   0
 11
978.135071
 21
83.145926
  0
LINE
  8
5
  6
CONTINUOUS
 62
6
 10
978.2477781160
 20
85.9327354514
 11
978.2477781160
 21
81.9327354514
  0
TEXT
  8
5
  6
CONTINUOUS
 62
6
 10
993.352778
 20
82.932735
 40
2.000000
  1
Process
 41
0.751106
 50
0.000000
 51
0.000000
 72
   5
 73
   0
 11
1000.142778
 21
82.932735
  0
LINE
  8
5
  6
CONTINUOUS
 62
6
 10
1000.2477781160
 20
85.9327354514
 11
1000.2477781160
 21
81.9327354514
  0
TEXT
  8
5
  6
CONTINUOUS
 62
6
 10
1015.520778
 20
82.932735
 40
2.000000
  1
Amount
 41
0.838182
 50
0.000000
 51
0.000000
 72
   5
 73
   0
 11
1021.974778
 21
82.932735
  0
LINE
  8
5
  6
CONTINUOUS
 62
6
 10
1022.2477781159
 20
85.9327354514
 11
1022.2477781159
 21
81.9327354514
  0
LINE
  8
5
  6
CONTINUOUS
 62
6
 10
1037.2477781160
 20
85.9327354514
 11
971.2477781160
 21
85.9327354514
  0
POINT
  8
5
  6
CONTINUOUS
 62
6
 10
979.2477781160
 20
83.9327354514
  0
POINT
  8
5
  6
CONTINUOUS
 62
6
 10
1001.2477781160
 20
83.9327354514
  0
POINT
  8
5
  6
CONTINUOUS
 62
6
 10
1029.7477781159
 20
83.9327354514
  0
POINT
  8
5
  6
CONTINUOUS
 62
6
 10
987.7477781160
 20
77.1827354514
  0
POINT
  8
5
  6
CONTINUOUS
 62
6
 10
998.7477781160
 20
77.1827354514
  0
POINT
  8
5
  6
CONTINUOUS
 62
6
 10
1009.7477781160
 20
77.1827354514
  0
POINT
  8
5
  6
CONTINUOUS
 62
6
 10
1020.7477781160
 20
77.1827354514
  0
POINT
  8
5
  6
CONTINUOUS
 62
6
 10
689.7477781160
 20
64.9327354514
  0
TEXT
  8
5
  6
CONTINUOUS
 62
7
 10
990.847584
 20
85.712819
 40
4.000000
  1
MADOKA SYSTEM co,.ltd
 41
0.778201
 50
0.000000
 51
0.000000
 72
   5
 73
   0
 11
1034.115584
 21
85.712819
  0
LINE
  8
5
  6
CONTINUOUS
 62
6
 10
974.2477781160
 20
348.9327354514
 11
974.2477781160
 21
344.4327354514
  0
LINE
  8
5
  6
CONTINUOUS
 62
6
 10
974.2477781160
 20
69.4327354514
 11
974.2477781160
 21
64.9327354514
  0
TEXT
  8
5
  6
CONTINUOUS
 62
6
 10
993.247778
 20
344.432735
 40
4.000000
  1
8
 41
1.000000
 50
0.000000
 51
0.000000
 72
   5
 73
   0
 11
995.247778
 21
344.432735
  0
TEXT
  8
5
  6
CONTINUOUS
 62
6
 10
993.247778
 20
65.432735
 40
4.000000
  1
8
 41
1.000000
 50
0.000000
 51
0.000000
 72
   5
 73
   0
 11
995.247778
 21
65.432735
  0
LINE
  8
5
  6
CONTINUOUS
 62
6
 10
1014.2477781160
 20
348.9327354514
 11
1014.2477781160
 21
344.4327354514
  0
LINE
  8
5
  6
CONTINUOUS
 62
6
 10
1014.2477781160
 20
69.4327354514
 11
1014.2477781160
 21
64.9327354514
  0
TEXT
  8
5
  6
CONTINUOUS
 62
6
 10
1033.247778
 20
344.432735
 40
4.000000
  1
9
 41
1.000000
 50
0.000000
 51
0.000000
 72
   5
 73
   0
 11
1035.247778
 21
344.432735
  0
TEXT
  8
5
  6
CONTINUOUS
 62
6
 10
1033.247778
 20
65.432735
 40
4.000000
  1
9
 41
1.000000
 50
0.000000
 51
0.000000
 72
   5
 73
   0
 11
1035.247778
 21
65.432735
  0
LINE
  8
5
  6
CONTINUOUS
 62
6
 10
1054.2477781160
 20
348.9327354514
 11
1054.2477781160
 21
344.4327354514
  0
LINE
  8
5
  6
CONTINUOUS
 62
6
 10
1054.2477781160
 20
69.4327354514
 11
1054.2477781160
 21
64.9327354514
  0
TEXT
  8
5
  6
CONTINUOUS
 62
6
 10
1072.247778
 20
344.432735
 40
4.000000
  1
10
 41
0.854701
 50
0.000000
 51
0.000000
 72
   5
 73
   0
 11
1076.247778
 21
344.432735
  0
TEXT
  8
5
  6
CONTINUOUS
 62
6
 10
1072.247778
 20
65.432735
 40
4.000000
  1
10
 41
0.854701
 50
0.000000
 51
0.000000
 72
   5
 73
   0
 11
1076.247778
 21
65.432735
  0
LINE
  8
5
  6
CONTINUOUS
 62
6
 10
689.7477781160
 20
144.4327354514
 11
694.2477781160
 21
144.4327354514
  0
LINE
  8
5
  6
CONTINUOUS
 62
6
 10
1092.2477781160
 20
144.4327354514
 11
1096.7477781160
 21
144.4327354514
  0
LINE
  8
5
  6
CONTINUOUS
 62
6
 10
689.7477781160
 20
104.4327354514
 11
694.2477781160
 21
104.4327354514
  0
LINE
  8
5
  6
CONTINUOUS
 62
6
 10
1092.2477781160
 20
104.4327354514
 11
1096.7477781160
 21
104.4327354514
  0
TEXT
  8
5
  6
CONTINUOUS
 62
6
 10
691.702551
 20
122.386878
 40
4.000000
  1
F
 41
1.102000
 50
0.000000
 51
0.000000
 72
   5
 73
   0
 11
693.906551
 21
122.386878
  0
TEXT
  8
5
  6
CONTINUOUS
 62
6
 10
1092.534292
 20
122.425090
 40
4.000000
  1
F
 41
1.102000
 50
0.000000
 51
0.000000
 72
   5
 73
   0
 11
1094.738292
 21
122.425090
  0
TEXT
  8
5
  6
CONTINUOUS
 62
6
 10
691.186551
 20
82.386878
 40
4.000000
  1
G
 41
1.360000
 50
0.000000
 51
0.000000
 72
   5
 73
   0
 11
693.906551
 21
82.386878
  0
TEXT
  8
5
  6
CONTINUOUS
 62
6
 10
1092.534292
 20
82.425090
 40
4.000000
  1
G
 41
1.360000
 50
0.000000
 51
0.000000
 72
   5
 73
   0
 11
1095.254292
 21
82.425090
  0
LINE
  8
5
  6
CONTINUOUS
 62
6
 10
694.2477781160
 20
344.4327354514
 11
1092.2477781160
 21
344.4327354514
  0
LINE
  8
5
  6
CONTINUOUS
 62
6
 10
1092.2477781160
 20
344.4327354514
 11
1092.2477781160
 21
69.4327354514
  0
POINT
  8
5
  6
CONTINUOUS
 62
6
 10
1043.2477781160
 20
85.4327354514
  0
POINT
  8
5
  6
CONTINUOUS
 62
6
 10
1043.2477781160
 20
72.9327354514
  0
LINE
  8
5
  6
CONTINUOUS
 62
6
 10
1037.2477781160
 20
91.4327354514
 11
1092.2477781160
 21
91.4327354514
  0
LINE
  8
5
  6
CONTINUOUS
 62
6
 10
1037.2477781160
 20
76.4327354514
 11
1082.2477781160
 21
76.4327354514
  0
TEXT
  8
5
  6
CONTINUOUS
 62
7
 10
1052.676278
 20
91.182735
 40
3.500000
  1
Document Name
 41
0.807728
 50
0.000000
 51
0.000000
 72
   5
 73
   0
 11
1076.819278
 21
91.182735
  0
TEXT
  8
5
  6
CONTINUOUS
 62
7
 10
1049.426278
 20
76.182735
 40
3.500000
  1
Document No.
 41
0.749428
 50
0.000000
 51
0.000000
 72
   5
 73
   0
 11
1070.069278
 21
76.182735
  0
ENDBLK
  8
0
  0
BLOCK
  8
2
  2
*X0
 70
     1
 10
783.4691335883
 20
198.3247804973
  3
*X0
  0
LINE
  8
2
  6
CONTINUOUS
 62
6
 10
783.4691335883
 20
198.1833591411
 11
783.6105549445
 21
198.3247804973
  0
LINE
  8
2
  6
CONTINUOUS
 62
6
 10
783.4691335883
 20
198.0419377848
 11
783.7519763007
 21
198.3247804973
  0
LINE
  8
2
  6
CONTINUOUS
 62
6
 10
783.4691335883
 20
197.9005164286
 11
783.8933976570
 21
198.3247804973
  0
LINE
  8
2
  6
CONTINUOUS
 62
6
 10
783.4691335883
 20
197.7590950724
 11
784.0348190132
 21
198.3247804973
  0
LINE
  8
2
  6
CONTINUOUS
 62
6
 10
783.4691335883
 20
197.6176737161
 11
784.1762403694
 21
198.3247804973
  0
LINE
  8
2
  6
CONTINUOUS
 62
6
 10
783.4691335883
 20
197.4762523599
 11
784.3176617257
 21
198.3247804973
  0
LINE
  8
2
  6
CONTINUOUS
 62
6
 10
783.4691335883
 20
197.3348310036
 11
784.3691335883
 21
198.2348310036
  0
LINE
  8
2
  6
CONTINUOUS
 62
6
 10
783.4691335883
 20
197.1934096474
 11
784.3691335883
 21
198.0934096474
  0
LINE
  8
2
  6
CONTINUOUS
 62
6
 10
783.4691335883
 20
197.0519882912
 11
784.3691335883
 21
197.9519882912
  0
LINE
  8
2
  6
CONTINUOUS
 62
6
 10
783.4691335883
 20
196.9105669349
 11
784.3691335883
 21
197.8105669349
  0
LINE
  8
2
  6
CONTINUOUS
 62
6
 10
783.4691335883
 20
196.7691455787
 11
784.3691335883
 21
197.6691455787
  0
LINE
  8
2
  6
CONTINUOUS
 62
6
 10
783.4691335883
 20
196.6277242225
 11
784.3691335883
 21
197.5277242225
  0
LINE
  8
2
  6
CONTINUOUS
 62
6
 10
783.4691335883
 20
196.4863028662
 11
784.3691335883
 21
197.3863028662
  0
LINE
  8
2
  6
CONTINUOUS
 62
6
 10
783.4691335883
 20
196.3448815100
 11
784.3691335883
 21
197.2448815100
  0
LINE
  8
2
  6
CONTINUOUS
 62
6
 10
783.4691335883
 20
196.2034601537
 11
784.3691335883
 21
197.1034601537
  0
LINE
  8
2
  6
CONTINUOUS
 62
6
 10
783.4691335883
 20
196.0620387975
 11
784.3691335883
 21
196.9620387975
  0
LINE
  8
2
  6
CONTINUOUS
 62
6
 10
783.4691335883
 20
195.9206174413
 11
784.3691335883
 21
196.8206174413
  0
LINE
  8
2
  6
CONTINUOUS
 62
6
 10
783.4691335883
 20
195.7791960850
 11
784.3691335883
 21
196.6791960850
  0
LINE
  8
2
  6
CONTINUOUS
 62
6
 10
783.4691335883
 20
195.6377747288
 11
784.3691335883
 21
196.5377747288
  0
LINE
  8
2
  6
CONTINUOUS
 62
6
 10
783.4691335883
 20
195.4963533726
 11
784.3691335883
 21
196.3963533726
  0
LINE
  8
2
  6
CONTINUOUS
 62
6
 10
783.4691335883
 20
195.3549320163
 11
784.3691335883
 21
196.2549320163
  0
LINE
  8
2
  6
CONTINUOUS
 62
6
 10
783.4691335883
 20
195.2135106601
 11
784.3691335883
 21
196.1135106601
  0
LINE
  8
2
  6
CONTINUOUS
 62
6
 10
783.4691335883
 20
195.0720893038
 11
784.3691335883
 21
195.9720893038
  0
LINE
  8
2
  6
CONTINUOUS
 62
6
 10
783.4691335883
 20
194.9306679476
 11
784.3691335883
 21
195.8306679476
  0
LINE
  8
2
  6
CONTINUOUS
 62
6
 10
783.4691335883
 20
194.7892465914
 11
784.3691335883
 21
195.6892465914
  0
LINE
  8
2
  6
CONTINUOUS
 62
6
 10
783.4691335883
 20
194.6478252351
 11
784.3691335883
 21
195.5478252351
  0
LINE
  8
2
  6
CONTINUOUS
 62
6
 10
783.4691335883
 20
194.5064038789
 11
784.3691335883
 21
195.4064038789
  0
LINE
  8
2
  6
CONTINUOUS
 62
6
 10
783.4691335883
 20
194.3649825227
 11
784.3691335883
 21
195.2649825227
  0
LINE
  8
2
  6
CONTINUOUS
 62
6
 10
783.5703529191
 20
194.3247804973
 11
784.3691335883
 21
195.1235611664
  0
LINE
  8
2
  6
CONTINUOUS
 62
6
 10
783.7117742754
 20
194.3247804973
 11
784.3691335883
 21
194.9821398102
  0
LINE
  8
2
  6
CONTINUOUS
 62
6
 10
783.8531956316
 20
194.3247804973
 11
784.3691335883
 21
194.8407184539
  0
LINE
  8
2
  6
CONTINUOUS
 62
6
 10
783.9946169878
 20
194.3247804973
 11
784.3691335883
 21
194.6992970977
  0
LINE
  8
2
  6
CONTINUOUS
 62
6
 10
784.1360383441
 20
194.3247804973
 11
784.3691335883
 21
194.5578757415
  0
LINE
  8
2
  6
CONTINUOUS
 62
6
 10
784.2774597003
 20
194.3247804973
 11
784.3691335883
 21
194.4164543852
  0
LINE
  8
2
  6
CONTINUOUS
 62
6
 10
784.3176617257
 20
198.3247804973
 11
784.3691335883
 21
198.2733086347
  0
LINE
  8
2
  6
CONTINUOUS
 62
6
 10
784.1762403694
 20
198.3247804973
 11
784.3691335883
 21
198.1318872785
  0
LINE
  8
2
  6
CONTINUOUS
 62
6
 10
784.0348190132
 20
198.3247804973
 11
784.3691335883
 21
197.9904659223
  0
LINE
  8
2
  6
CONTINUOUS
 62
6
 10
783.8933976570
 20
198.3247804973
 11
784.3691335883
 21
197.8490445660
  0
LINE
  8
2
  6
CONTINUOUS
 62
6
 10
783.7519763007
 20
198.3247804973
 11
784.3691335883
 21
197.7076232098
  0
LINE
  8
2
  6
CONTINUOUS
 62
6
 10
783.6105549445
 20
198.3247804973
 11
784.3691335883
 21
197.5662018535
  0
LINE
  8
2
  6
CONTINUOUS
 62
6
 10
783.4691335883
 20
198.3247804973
 11
784.3691335883
 21
197.4247804973
  0
LINE
  8
2
  6
CONTINUOUS
 62
6
 10
783.4691335883
 20
198.1833591411
 11
784.3691335883
 21
197.2833591411
  0
LINE
  8
2
  6
CONTINUOUS
 62
6
 10
783.4691335883
 20
198.0419377848
 11
784.3691335883
 21
197.1419377848
  0
LINE
  8
2
  6
CONTINUOUS
 62
6
 10
783.4691335883
 20
197.9005164286
 11
784.3691335883
 21
197.0005164286
  0
LINE
  8
2
  6
CONTINUOUS
 62
6
 10
783.4691335883
 20
197.7590950724
 11
784.3691335883
 21
196.8590950724
  0
LINE
  8
2
  6
CONTINUOUS
 62
6
 10
783.4691335883
 20
197.6176737161
 11
784.3691335883
 21
196.7176737161
  0
LINE
  8
2
  6
CONTINUOUS
 62
6
 10
783.4691335883
 20
197.4762523599
 11
784.3691335883
 21
196.5762523599
  0
LINE
  8
2
  6
CONTINUOUS
 62
6
 10
783.4691335883
 20
197.3348310036
 11
784.3691335883
 21
196.4348310036
  0
LINE
  8
2
  6
CONTINUOUS
 62
6
 10
783.4691335883
 20
197.1934096474
 11
784.3691335883
 21
196.2934096474
  0
LINE
  8
2
  6
CONTINUOUS
 62
6
 10
783.4691335883
 20
197.0519882912
 11
784.3691335883
 21
196.1519882912
  0
LINE
  8
2
  6
CONTINUOUS
 62
6
 10
783.4691335883
 20
196.9105669349
 11
784.3691335883
 21
196.0105669349
  0
LINE
  8
2
  6
CONTINUOUS
 62
6
 10
783.4691335883
 20
196.7691455787
 11
784.3691335883
 21
195.8691455787
  0
LINE
  8
2
  6
CONTINUOUS
 62
6
 10
783.4691335883
 20
196.6277242225
 11
784.3691335883
 21
195.7277242225
  0
LINE
  8
2
  6
CONTINUOUS
 62
6
 10
783.4691335883
 20
196.4863028662
 11
784.3691335883
 21
195.5863028662
  0
LINE
  8
2
  6
CONTINUOUS
 62
6
 10
783.4691335883
 20
196.3448815100
 11
784.3691335883
 21
195.4448815100
  0
LINE
  8
2
  6
CONTINUOUS
 62
6
 10
783.4691335883
 20
196.2034601537
 11
784.3691335883
 21
195.3034601537
  0
LINE
  8
2
  6
CONTINUOUS
 62
6
 10
783.4691335883
 20
196.0620387975
 11
784.3691335883
 21
195.1620387975
  0
LINE
  8
2
  6
CONTINUOUS
 62
6
 10
783.4691335883
 20
195.9206174413
 11
784.3691335883
 21
195.0206174413
  0
LINE
  8
2
  6
CONTINUOUS
 62
6
 10
783.4691335883
 20
195.7791960850
 11
784.3691335883
 21
194.8791960850
  0
LINE
  8
2
  6
CONTINUOUS
 62
6
 10
783.4691335883
 20
195.6377747288
 11
784.3691335883
 21
194.7377747288
  0
LINE
  8
2
  6
CONTINUOUS
 62
6
 10
783.4691335883
 20
195.4963533726
 11
784.3691335883
 21
194.5963533726
  0
LINE
  8
2
  6
CONTINUOUS
 62
6
 10
783.4691335883
 20
195.3549320163
 11
784.3691335883
 21
194.4549320163
  0
LINE
  8
2
  6
CONTINUOUS
 62
6
 10
783.4691335883
 20
195.2135106601
 11
784.3578637510
 21
194.3247804973
  0
LINE
  8
2
  6
CONTINUOUS
 62
6
 10
783.4691335883
 20
195.0720893038
 11
784.2164423948
 21
194.3247804973
  0
LINE
  8
2
  6
CONTINUOUS
 62
6
 10
783.4691335883
 20
194.9306679476
 11
784.0750210386
 21
194.3247804973
  0
LINE
  8
2
  6
CONTINUOUS
 62
6
 10
783.4691335883
 20
194.7892465914
 11
783.9335996823
 21
194.3247804973
  0
LINE
  8
2
  6
CONTINUOUS
 62
6
 10
783.4691335883
 20
194.6478252351
 11
783.7921783261
 21
194.3247804973
  0
LINE
  8
2
  6
CONTINUOUS
 62
6
 10
783.4691335883
 20
194.5064038789
 11
783.6507569698
 21
194.3247804973
  0
LINE
  8
2
  6
CONTINUOUS
 62
6
 10
783.4691335883
 20
194.3649825227
 11
783.5093356136
 21
194.3247804973
  0
ENDBLK
  8
0
  0
BLOCK
  8
2
  2
*X1
 70
     1
 10
785.5691335882
 20
198.3247804973
  3
*X1
  0
LINE
  8
2
  6
CONTINUOUS
 62
6
 10
785.5691335882
 20
198.1833591411
 11
785.7105549445
 21
198.3247804973
  0
LINE
  8
2
  6
CONTINUOUS
 62
6
 10
785.5691335882
 20
198.0419377848
 11
785.8519763007
 21
198.3247804973
  0
LINE
  8
2
  6
CONTINUOUS
 62
6
 10
785.5691335882
 20
197.9005164286
 11
785.9933976570
 21
198.3247804973
  0
LINE
  8
2
  6
CONTINUOUS
 62
6
 10
785.5691335882
 20
197.7590950724
 11
786.1348190132
 21
198.3247804973
  0
LINE
  8
2
  6
CONTINUOUS
 62
6
 10
785.5691335882
 20
197.6176737161
 11
786.2762403694
 21
198.3247804973
  0
LINE
  8
2
  6
CONTINUOUS
 62
6
 10
785.5691335882
 20
197.4762523599
 11
786.4176617257
 21
198.3247804973
  0
LINE
  8
2
  6
CONTINUOUS
 62
6
 10
785.5691335882
 20
197.3348310036
 11
786.4691335882
 21
198.2348310036
  0
LINE
  8
2
  6
CONTINUOUS
 62
6
 10
785.5691335882
 20
197.1934096474
 11
786.4691335882
 21
198.0934096474
  0
LINE
  8
2
  6
CONTINUOUS
 62
6
 10
785.5691335882
 20
197.0519882912
 11
786.4691335882
 21
197.9519882912
  0
LINE
  8
2
  6
CONTINUOUS
 62
6
 10
785.5691335882
 20
196.9105669349
 11
786.4691335882
 21
197.8105669349
  0
LINE
  8
2
  6
CONTINUOUS
 62
6
 10
785.5691335882
 20
196.7691455787
 11
786.4691335882
 21
197.6691455787
  0
LINE
  8
2
  6
CONTINUOUS
 62
6
 10
785.5691335882
 20
196.6277242225
 11
786.4691335882
 21
197.5277242225
  0
LINE
  8
2
  6
CONTINUOUS
 62
6
 10
785.5691335882
 20
196.4863028662
 11
786.4691335882
 21
197.3863028662
  0
LINE
  8
2
  6
CONTINUOUS
 62
6
 10
785.5691335882
 20
196.3448815100
 11
786.4691335882
 21
197.2448815100
  0
LINE
  8
2
  6
CONTINUOUS
 62
6
 10
785.5691335882
 20
196.2034601537
 11
786.4691335882
 21
197.1034601537
  0
LINE
  8
2
  6
CONTINUOUS
 62
6
 10
785.5691335882
 20
196.0620387975
 11
786.4691335882
 21
196.9620387975
  0
LINE
  8
2
  6
CONTINUOUS
 62
6
 10
785.5691335882
 20
195.9206174413
 11
786.4691335882
 21
196.8206174413
  0
LINE
  8
2
  6
CONTINUOUS
 62
6
 10
785.5691335882
 20
195.7791960850
 11
786.4691335882
 21
196.6791960850
  0
LINE
  8
2
  6
CONTINUOUS
 62
6
 10
785.5691335882
 20
195.6377747288
 11
786.4691335882
 21
196.5377747288
  0
LINE
  8
2
  6
CONTINUOUS
 62
6
 10
785.5691335882
 20
195.4963533726
 11
786.4691335882
 21
196.3963533726
  0
LINE
  8
2
  6
CONTINUOUS
 62
6
 10
785.5691335882
 20
195.3549320163
 11
786.4691335882
 21
196.2549320163
  0
LINE
  8
2
  6
CONTINUOUS
 62
6
 10
785.5691335882
 20
195.2135106601
 11
786.4691335882
 21
196.1135106601
  0
LINE
  8
2
  6
CONTINUOUS
 62
6
 10
785.5691335882
 20
195.0720893038
 11
786.4691335882
 21
195.9720893038
  0
LINE
  8
2
  6
CONTINUOUS
 62
6
 10
785.5691335882
 20
194.9306679476
 11
786.4691335882
 21
195.8306679476
  0
LINE
  8
2
  6
CONTINUOUS
 62
6
 10
785.5691335882
 20
194.7892465914
 11
786.4691335882
 21
195.6892465914
  0
LINE
  8
2
  6
CONTINUOUS
 62
6
 10
785.5691335882
 20
194.6478252351
 11
786.4691335882
 21
195.5478252351
  0
LINE
  8
2
  6
CONTINUOUS
 62
6
 10
785.5691335882
 20
194.5064038789
 11
786.4691335882
 21
195.4064038789
  0
LINE
  8
2
  6
CONTINUOUS
 62
6
 10
785.5691335882
 20
194.3649825227
 11
786.4691335882
 21
195.2649825227
  0
LINE
  8
2
  6
CONTINUOUS
 62
6
 10
785.6703529191
 20
194.3247804973
 11
786.4691335882
 21
195.1235611664
  0
LINE
  8
2
  6
CONTINUOUS
 62
6
 10
785.8117742754
 20
194.3247804973
 11
786.4691335882
 21
194.9821398102
  0
LINE
  8
2
  6
CONTINUOUS
 62
6
 10
785.9531956316
 20
194.3247804973
 11
786.4691335882
 21
194.8407184539
  0
LINE
  8
2
  6
CONTINUOUS
 62
6
 10
786.0946169878
 20
194.3247804973
 11
786.4691335882
 21
194.6992970977
  0
LINE
  8
2
  6
CONTINUOUS
 62
6
 10
786.2360383441
 20
194.3247804973
 11
786.4691335882
 21
194.5578757415
  0
LINE
  8
2
  6
CONTINUOUS
 62
6
 10
786.3774597003
 20
194.3247804973
 11
786.4691335882
 21
194.4164543852
  0
LINE
  8
2
  6
CONTINUOUS
 62
6
 10
786.4176617257
 20
198.3247804973
 11
786.4691335882
 21
198.2733086347
  0
LINE
  8
2
  6
CONTINUOUS
 62
6
 10
786.2762403694
 20
198.3247804973
 11
786.4691335882
 21
198.1318872785
  0
LINE
  8
2
  6
CONTINUOUS
 62
6
 10
786.1348190132
 20
198.3247804973
 11
786.4691335882
 21
197.9904659223
  0
LINE
  8
2
  6
CONTINUOUS
 62
6
 10
785.9933976570
 20
198.3247804973
 11
786.4691335882
 21
197.8490445660
  0
LINE
  8
2
  6
CONTINUOUS
 62
6
 10
785.8519763007
 20
198.3247804973
 11
786.4691335882
 21
197.7076232098
  0
LINE
  8
2
  6
CONTINUOUS
 62
6
 10
785.7105549445
 20
198.3247804973
 11
786.4691335882
 21
197.5662018535
  0
LINE
  8
2
  6
CONTINUOUS
 62
6
 10
785.5691335882
 20
198.3247804973
 11
786.4691335882
 21
197.4247804973
  0
LINE
  8
2
  6
CONTINUOUS
 62
6
 10
785.5691335882
 20
198.1833591411
 11
786.4691335882
 21
197.2833591411
  0
LINE
  8
2
  6
CONTINUOUS
 62
6
 10
785.5691335882
 20
198.0419377848
 11
786.4691335882
 21
197.1419377848
  0
LINE
  8
2
  6
CONTINUOUS
 62
6
 10
785.5691335882
 20
197.9005164286
 11
786.4691335882
 21
197.0005164286
  0
LINE
  8
2
  6
CONTINUOUS
 62
6
 10
785.5691335882
 20
197.7590950724
 11
786.4691335882
 21
196.8590950724
  0
LINE
  8
2
  6
CONTINUOUS
 62
6
 10
785.5691335882
 20
197.6176737161
 11
786.4691335882
 21
196.7176737161
  0
LINE
  8
2
  6
CONTINUOUS
 62
6
 10
785.5691335882
 20
197.4762523599
 11
786.4691335882
 21
196.5762523599
  0
LINE
  8
2
  6
CONTINUOUS
 62
6
 10
785.5691335882
 20
197.3348310036
 11
786.4691335882
 21
196.4348310036
  0
LINE
  8
2
  6
CONTINUOUS
 62
6
 10
785.5691335882
 20
197.1934096474
 11
786.4691335882
 21
196.2934096474
  0
LINE
  8
2
  6
CONTINUOUS
 62
6
 10
785.5691335882
 20
197.0519882912
 11
786.4691335882
 21
196.1519882912
  0
LINE
  8
2
  6
CONTINUOUS
 62
6
 10
785.5691335882
 20
196.9105669349
 11
786.4691335882
 21
196.0105669349
  0
LINE
  8
2
  6
CONTINUOUS
 62
6
 10
785.5691335882
 20
196.7691455787
 11
786.4691335882
 21
195.8691455787
  0
LINE
  8
2
  6
CONTINUOUS
 62
6
 10
785.5691335882
 20
196.6277242225
 11
786.4691335882
 21
195.7277242225
  0
LINE
  8
2
  6
CONTINUOUS
 62
6
 10
785.5691335882
 20
196.4863028662
 11
786.4691335882
 21
195.5863028662
  0
LINE
  8
2
  6
CONTINUOUS
 62
6
 10
785.5691335882
 20
196.3448815100
 11
786.4691335882
 21
195.4448815100
  0
LINE
  8
2
  6
CONTINUOUS
 62
6
 10
785.5691335882
 20
196.2034601537
 11
786.4691335882
 21
195.3034601537
  0
LINE
  8
2
  6
CONTINUOUS
 62
6
 10
785.5691335882
 20
196.0620387975
 11
786.4691335882
 21
195.1620387975
  0
LINE
  8
2
  6
CONTINUOUS
 62
6
 10
785.5691335882
 20
195.9206174413
 11
786.4691335882
 21
195.0206174413
  0
LINE
  8
2
  6
CONTINUOUS
 62
6
 10
785.5691335882
 20
195.7791960850
 11
786.4691335882
 21
194.8791960850
  0
LINE
  8
2
  6
CONTINUOUS
 62
6
 10
785.5691335882
 20
195.6377747288
 11
786.4691335882
 21
194.7377747288
  0
LINE
  8
2
  6
CONTINUOUS
 62
6
 10
785.5691335882
 20
195.4963533726
 11
786.4691335882
 21
194.5963533726
  0
LINE
  8
2
  6
CONTINUOUS
 62
6
 10
785.5691335882
 20
195.3549320163
 11
786.4691335882
 21
194.4549320163
  0
LINE
  8
2
  6
CONTINUOUS
 62
6
 10
785.5691335882
 20
195.2135106601
 11
786.4578637510
 21
194.3247804973
  0
LINE
  8
2
  6
CONTINUOUS
 62
6
 10
785.5691335882
 20
195.0720893038
 11
786.3164423948
 21
194.3247804973
  0
LINE
  8
2
  6
CONTINUOUS
 62
6
 10
785.5691335882
 20
194.9306679476
 11
786.1750210386
 21
194.3247804973
  0
LINE
  8
2
  6
CONTINUOUS
 62
6
 10
785.5691335882
 20
194.7892465914
 11
786.0335996823
 21
194.3247804973
  0
LINE
  8
2
  6
CONTINUOUS
 62
6
 10
785.5691335882
 20
194.6478252351
 11
785.8921783261
 21
194.3247804973
  0
LINE
  8
2
  6
CONTINUOUS
 62
6
 10
785.5691335882
 20
194.5064038789
 11
785.7507569698
 21
194.3247804973
  0
LINE
  8
2
  6
CONTINUOUS
 62
6
 10
785.5691335882
 20
194.3649825227
 11
785.6093356136
 21
194.3247804973
  0
ENDBLK
  8
0
  0
BLOCK
  8
1
  2
*D0
 70
     1
 10
0.0000000000
 20
0.0000000000
  3
*D0
  0
LINE
  8
1
  6
BYBLOCK
 62
5
 10
710.9641709837
 20
258.0747827027
 11
700.4179392150
 21
258.0747827027
  0
LINE
  8
1
  6
BYBLOCK
 62
5
 10
710.9641709837
 20
134.5747782919
 11
700.4179392150
 21
134.5747782919
  0
LINE
  8
1
  6
BYBLOCK
 62
5
 10
701.4179392150
 20
134.5747782919
 11
701.4179392150
 21
258.0747827027
  0
SOLID
  8
1
  6
CONTINUOUS
 62
5
 10
701.9355773052
 20
256.1429310501
 11
700.9003011247
 21
256.1429310501
 12
701.4179392150
 22
258.0747827027
 13
701.4179392150
 23
258.0747827027
  0
SOLID
  8
1
  6
CONTINUOUS
 62
5
 10
700.9003011247
 20
136.5066299445
 11
701.9355773052
 21
136.5066299445
 12
701.4179392150
 22
134.5747782919
 13
701.4179392150
 23
134.5747782919
  0
TEXT
  8
1
  6
CONTINUOUS
 62
7
 10
700.417939
 20
191.949780
 40
3.500000
  1
123.5
 41
0.786164
 50
90.000000
 51
0.000000
 72
   5
 73
   0
 11
700.417939
 21
200.699780
  0
POINT
  8
DEFPOINTS
  6
BYBLOCK
 62
5
 10
711.4641709837
 20
258.0747827027
  0
POINT
  8
DEFPOINTS
  6
BYBLOCK
 62
5
 10
711.4641709837
 20
134.5747782919
  0
POINT
  8
DEFPOINTS
  6
BYBLOCK
 62
5
 10
701.4179392150
 20
134.5747782919
  0
ENDBLK
  8
0
  0
BLOCK
  8
1
  2
*D1
 70
     1
 10
0.0000000000
 20
0.0000000000
  3
*D1
  0
LINE
  8
1
  6
BYBLOCK
 62
5
 10
710.4691335882
 20
257.5797458071
 11
710.4691335882
 21
264.0415107393
  0
LINE
  8
1
  6
BYBLOCK
 62
5
 10
797.4691335882
 20
257.5797458071
 11
797.4691335882
 21
264.0415107393
  0
LINE
  8
1
  6
BYBLOCK
 62
5
 10
797.4691335882
 20
263.0415107393
 11
710.4691335882
 21
263.0415107393
  0
SOLID
  8
1
  6
CONTINUOUS
 62
5
 10
712.4009852408
 20
263.5591488295
 11
712.4009852408
 21
262.5238726491
 12
710.4691335882
 22
263.0415107393
 13
710.4691335882
 23
263.0415107393
  0
SOLID
  8
1
  6
CONTINUOUS
 62
5
 10
795.5372819357
 20
262.5238726491
 11
795.5372819357
 21
263.5591488295
 12
797.4691335882
 22
263.0415107393
 13
797.4691335882
 23
263.0415107393
  0
TEXT
  8
1
  6
CONTINUOUS
 62
7
 10
752.219134
 20
264.041511
 40
3.500000
  1
87
 41
0.854701
 50
0.000000
 51
0.000000
 72
   5
 73
   0
 11
755.719134
 21
264.041511
  0
POINT
  8
DEFPOINTS
  6
BYBLOCK
 62
5
 10
710.4691335882
 20
257.0797458071
  0
POINT
  8
DEFPOINTS
  6
BYBLOCK
 62
5
 10
797.4691335882
 20
257.0797458071
  0
POINT
  8
DEFPOINTS
  6
BYBLOCK
 62
5
 10
797.4691335882
 20
263.0415107393
  0
ENDBLK
  8
0
  0
BLOCK
  8
1
  2
*D2
 70
     1
 10
0.0000000000
 20
0.0000000000
  3
*D2
  0
LINE
  8
1
  6
BYBLOCK
 62
5
 10
797.4691335882
 20
257.5797458071
 11
797.4691335882
 21
264.0415107393
  0
LINE
  8
1
  6
BYBLOCK
 62
5
 10
800.0691335883
 20
196.8247804973
 11
800.0691335883
 21
264.0415107393
  0
LINE
  8
1
  6
BYBLOCK
 62
5
 10
802.5691335883
 20
263.0415107393
 11
794.9691335882
 21
263.0415107393
  0
SOLID
  8
1
  6
CONTINUOUS
 62
5
 10
795.5372819357
 20
262.5238726491
 11
795.5372819357
 21
263.5591488295
 12
797.4691335882
 22
263.0415107393
 13
797.4691335882
 23
263.0415107393
  0
SOLID
  8
1
  6
CONTINUOUS
 62
5
 10
802.0009852408
 20
263.5591488295
 11
802.0009852408
 21
262.5238726491
 12
800.0691335883
 22
263.0415107393
 13
800.0691335883
 23
263.0415107393
  0
TEXT
  8
1
  6
CONTINUOUS
 62
7
 10
801.978107
 20
264.041511
 40
2.500000
  1
(2.6)
 41
0.786164
 50
0.000000
 51
0.000000
 72
   5
 73
   0
 11
808.228107
 21
264.041511
  0
POINT
  8
DEFPOINTS
  6
BYBLOCK
 62
5
 10
797.4691335882
 20
257.0797458071
  0
POINT
  8
DEFPOINTS
  6
BYBLOCK
 62
5
 10
800.0691335883
 20
196.3247804973
  0
POINT
  8
DEFPOINTS
  6
BYBLOCK
 62
5
 10
800.0691335883
 20
263.0415107393
  0
ENDBLK
  8
0
  0
BLOCK
  8
1
  2
*D3
 70
     1
 10
0.0000000000
 20
0.0000000000
  3
*D3
  0
LINE
  8
1
  6
BYBLOCK
 62
5
 10
709.9691333722
 20
94.5747782919
 11
700.4179392150
 21
94.5747782919
  0
LINE
  8
1
  6
BYBLOCK
 62
5
 10
729.7975607129
 20
119.5747782919
 11
700.4179392150
 21
119.5747782919
  0
LINE
  8
1
  6
BYBLOCK
 62
5
 10
701.4179392150
 20
119.5747782919
 11
701.4179392150
 21
94.5747782919
  0
SOLID
  8
1
  6
CONTINUOUS
 62
5
 10
700.9003011247
 20
96.5066299445
 11
701.9355773052
 21
96.5066299445
 12
701.4179392150
 22
94.5747782919
 13
701.4179392150
 23
94.5747782919
  0
SOLID
  8
1
  6
CONTINUOUS
 62
5
 10
701.9355773052
 20
117.6429266393
 11
700.9003011247
 21
117.6429266393
 12
701.4179392150
 22
119.5747782919
 13
701.4179392150
 23
119.5747782919
  0
TEXT
  8
1
  6
CONTINUOUS
 62
7
 10
700.417939
 20
105.324778
 40
3.500000
  1
25
 41
0.854701
 50
90.000000
 51
0.000000
 72
   5
 73
   0
 11
700.417939
 21
108.824778
  0
POINT
  8
DEFPOINTS
  6
BYBLOCK
 62
5
 10
710.4691333722
 20
94.5747782919
  0
POINT
  8
DEFPOINTS
  6
BYBLOCK
 62
5
 10
730.2975607129
 20
119.5747782919
  0
POINT
  8
DEFPOINTS
  6
BYBLOCK
 62
5
 10
701.4179392150
 20
119.5747782919
  0
ENDBLK
  8
0
  0
BLOCK
  8
1
  2
LTEX0
 70
     0
 10
785.0226001316
 20
195.0024526531
  3
LTEX0
  0
SOLID
  8
1
  6
CONTINUOUS
 62
5
 10
785.4137628418
 20
193.0410776930
 11
784.3806694956
 21
193.1082707562
 12
785.0226001316
 22
195.0024526531
 13
785.0226001316
 23
195.0024526531
  0
TEXT
  8
1
  6
CONTINUOUS
 62
7
 10
766.527299
 20
180.699701
 40
2.500000
  1
ｽﾗｲﾄﾞﾛｯｸ
 41
0.770713
 50
0.000000
 51
0.000000
 72
   5
 73
   0
 11
776.527299
 21
180.699701
  0
TEXT
  8
1
  6
CONTINUOUS
 62
7
 10
766.527299
 20
176.699701
 40
2.500000
  1
%%u「-」ﾄﾞﾗｲﾊﾞｰを%%u
 41
0.804598
 50
0.000000
 51
0.000000
 72
   5
 73
   0
 11
784.027299
 21
176.699701
  0
TEXT
  8
1
  6
CONTINUOUS
 62
7
 10
766.527299
 20
172.699701
 40
2.500000
  1
%%u使用してｽﾗｲﾄﾞ%%u
 41
0.826972
 50
0.000000
 51
0.000000
 72
   5
 73
   0
 11
782.777299
 21
172.699701
  0
TEXT
  8
1
  6
CONTINUOUS
 62
7
 10
766.527299
 20
168.699701
 40
2.500000
  1
%%uしてください%%u
 41
0.875912
 50
0.000000
 51
0.000000
 72
   5
 73
   0
 11
781.527299
 21
168.699701
  0
LINE
  8
1
  6
BYBLOCK
 62
5
 10
785.0226001316
 20
195.0024526531
 11
784.0272991913
 21
179.6997006963
  0
LINE
  8
1
  6
BYBLOCK
 62
5
 10
784.0272991913
 20
179.6997006963
 11
766.5272991913
 21
179.6997006963
  0
ENDBLK
  8
0
  0
BLOCK
  8
1
  2
*D4
 70
     1
 10
0.0000000000
 20
0.0000000000
  3
*D4
  0
LINE
  8
1
  6
BYBLOCK
 62
5
 10
750.4691323962
 20
293.0747827027
 11
756.1998801677
 21
293.0747827027
  0
LINE
  8
1
  6
BYBLOCK
 62
5
 10
750.4691323962
 20
286.5747825686
 11
756.1998801677
 21
286.5747825686
  0
LINE
  8
1
  6
BYBLOCK
 62
5
 10
755.1998801677
 20
284.0747825686
 11
755.1998801677
 21
295.5747827027
  0
SOLID
  8
1
  6
CONTINUOUS
 62
5
 10
754.6822420774
 20
295.0066343553
 11
755.7175182579
 21
295.0066343553
 12
755.1998801677
 22
293.0747827027
 13
755.1998801677
 23
293.0747827027
  0
SOLID
  8
1
  6
CONTINUOUS
 62
5
 10
755.7175182579
 20
284.6429309160
 11
754.6822420774
 21
284.6429309160
 12
755.1998801677
 22
286.5747825686
 13
755.1998801677
 23
286.5747825686
  0
TEXT
  8
1
  6
CONTINUOUS
 62
7
 10
754.199880
 20
287.574783
 40
3.000000
  1
6.5
 41
0.815217
 50
90.000000
 51
0.000000
 72
   5
 73
   0
 11
754.199880
 21
292.074783
  0
POINT
  8
DEFPOINTS
  6
BYBLOCK
 62
5
 10
749.9691323962
 20
293.0747827027
  0
POINT
  8
DEFPOINTS
  6
BYBLOCK
 62
5
 10
749.9691323962
 20
286.5747825686
  0
POINT
  8
DEFPOINTS
  6
BYBLOCK
 62
5
 10
755.1998801677
 20
286.5747825686
  0
ENDBLK
  8
0
  0
BLOCK
  8
1
  2
*D5
 70
     1
 10
0.0000000000
 20
0.0000000000
  3
*D5
  0
LINE
  8
1
  6
BYBLOCK
 62
5
 10
753.4086389511
 20
270.0747827027
 11
756.1998801677
 21
270.0747827027
  0
LINE
  8
1
  6
BYBLOCK
 62
5
 10
755.1998801677
 20
270.0747827027
 11
755.1998801677
 21
286.5747825686
  0
SOLID
  8
1
  6
CONTINUOUS
 62
5
 10
755.7175182579
 20
284.6429309160
 11
754.6822420774
 21
284.6429309160
 12
755.1998801677
 22
286.5747825686
 13
755.1998801677
 23
286.5747825686
  0
SOLID
  8
1
  6
CONTINUOUS
 62
5
 10
754.6822420774
 20
272.0066343553
 11
755.7175182579
 21
272.0066343553
 12
755.1998801677
 22
270.0747827027
 13
755.1998801677
 23
270.0747827027
  0
TEXT
  8
1
  6
CONTINUOUS
 62
7
 10
754.199880
 20
275.324783
 40
3.000000
  1
16.5
 41
0.796813
 50
90.000000
 51
0.000000
 72
   5
 73
   0
 11
754.199880
 21
281.324783
  0
POINT
  8
DEFPOINTS
  6
BYBLOCK
 62
5
 10
749.9691323962
 20
286.5747825686
  0
POINT
  8
DEFPOINTS
  6
BYBLOCK
 62
5
 10
752.9086389511
 20
270.0747827027
  0
POINT
  8
DEFPOINTS
  6
BYBLOCK
 62
5
 10
755.1998801677
 20
270.0747827027
  0
ENDBLK
  8
0
  0
BLOCK
  8
1
  2
*D6
 70
     1
 10
0.0000000000
 20
0.0000000000
  3
*D6
  0
LINE
  8
1
  6
BYBLOCK
 62
5
 10
769.4691319491
 20
286.5747825686
 11
766.0379597864
 21
286.5747825686
  0
LINE
  8
1
  6
BYBLOCK
 62
5
 10
768.9691335872
 20
275.5747827030
 11
766.0379597864
 21
275.5747827030
  0
LINE
  8
1
  6
BYBLOCK
 62
5
 10
767.0379597864
 20
275.5747827030
 11
767.0379597864
 21
286.5747825686
  0
SOLID
  8
1
  6
CONTINUOUS
 62
5
 10
767.5555978766
 20
284.6429309160
 11
766.5203216962
 21
284.6429309160
 12
767.0379597864
 22
286.5747825686
 13
767.0379597864
 23
286.5747825686
  0
SOLID
  8
1
  6
CONTINUOUS
 62
5
 10
766.5203216962
 20
277.5066343556
 11
767.5555978766
 21
277.5066343556
 12
767.0379597864
 22
275.5747827030
 13
767.0379597864
 23
275.5747827030
  0
TEXT
  8
1
  6
CONTINUOUS
 62
7
 10
766.037960
 20
279.574783
 40
3.000000
  1
11
 41
0.854701
 50
90.000000
 51
0.000000
 72
   5
 73
   0
 11
766.037960
 21
282.574783
  0
POINT
  8
DEFPOINTS
  6
BYBLOCK
 62
5
 10
769.9691319491
 20
286.5747825686
  0
POINT
  8
DEFPOINTS
  6
BYBLOCK
 62
5
 10
769.4691335872
 20
275.5747827030
  0
POINT
  8
DEFPOINTS
  6
BYBLOCK
 62
5
 10
767.0379597864
 20
275.5747827030
  0
ENDBLK
  8
0
  0
BLOCK
  8
1
  2
*D7
 70
     1
 10
0.0000000000
 20
0.0000000000
  3
*D7
  0
LINE
  8
1
  6
BYBLOCK
 62
5
 10
731.9691332530
 20
286.5747825686
 11
728.7098216338
 21
286.5747825686
  0
LINE
  8
1
  6
BYBLOCK
 62
5
 10
736.2191334839
 20
290.5747827586
 11
728.7098216338
 21
290.5747827586
  0
LINE
  8
1
  6
BYBLOCK
 62
5
 10
729.7098216338
 20
290.5747827586
 11
729.7098216338
 21
286.5747825686
  0
SOLID
  8
1
  6
CONTINUOUS
 62
5
 10
729.1921835435
 20
288.5066342211
 11
730.2274597240
 21
288.5066342211
 12
729.7098216338
 22
286.5747825686
 13
729.7098216338
 23
286.5747825686
  0
SOLID
  8
1
  6
CONTINUOUS
 62
5
 10
730.2274597240
 20
288.6429311060
 11
729.1921835435
 21
288.6429311060
 12
729.7098216338
 22
290.5747827586
 13
729.7098216338
 23
290.5747827586
  0
TEXT
  8
1
  6
CONTINUOUS
 62
7
 10
728.709822
 20
287.824783
 40
3.000000
  1
4
 41
1.000000
 50
90.000000
 51
0.000000
 72
   5
 73
   0
 11
728.709822
 21
289.324783
  0
POINT
  8
DEFPOINTS
  6
BYBLOCK
 62
5
 10
732.4691332530
 20
286.5747825686
  0
POINT
  8
DEFPOINTS
  6
BYBLOCK
 62
5
 10
736.7191334839
 20
290.5747827586
  0
POINT
  8
DEFPOINTS
  6
BYBLOCK
 62
5
 10
729.7098216338
 20
290.5747827586
  0
ENDBLK
  8
0
  0
BLOCK
  8
1
  2
*D8
 70
     1
 10
0.0000000000
 20
0.0000000000
  3
*D8
  0
LINE
  8
1
  6
BYBLOCK
 62
5
 10
737.7191327985
 20
293.0747827027
 11
728.7098216338
 21
293.0747827027
  0
LINE
  8
1
  6
BYBLOCK
 62
5
 10
729.7098216338
 20
295.5747827027
 11
729.7098216338
 21
288.0747827586
  0
SOLID
  8
1
  6
CONTINUOUS
 62
5
 10
729.1921835435
 20
295.0066343553
 11
730.2274597240
 21
295.0066343553
 12
729.7098216338
 22
293.0747827027
 13
729.7098216338
 23
293.0747827027
  0
TEXT
  8
1
  6
CONTINUOUS
 62
7
 10
728.709822
 20
295.074783
 40
3.000000
  1
2.5
 41
0.815217
 50
90.000000
 51
0.000000
 72
   5
 73
   0
 11
728.709822
 21
299.574783
  0
POINT
  8
DEFPOINTS
  6
BYBLOCK
 62
5
 10
736.7191334839
 20
290.5747827586
  0
POINT
  8
DEFPOINTS
  6
BYBLOCK
 62
5
 10
738.2191327985
 20
293.0747827027
  0
POINT
  8
DEFPOINTS
  6
BYBLOCK
 62
5
 10
729.7098216338
 20
293.0747827027
  0
ENDBLK
  8
0
  0
BLOCK
  8
5
  2
S1
 70
     0
 10
1001.8157033784
 20
286.1572533604
  3
S1
  0
LINE
  8
5
  6
CONTINUOUS
 62
6
 10
1001.8157033784
 20
336.1572533604
 11
1001.8157033784
 21
341.1572533604
  0
LINE
  8
5
  6
CONTINUOUS
 62
6
 10
1001.8157033784
 20
341.1572533604
 11
1006.8157033784
 21
341.1572533604
  0
LINE
  8
5
  6
CONTINUOUS
 62
6
 10
1006.8157033784
 20
341.1572533604
 11
1026.8157033784
 21
341.1572533604
  0
LINE
  8
5
  6
CONTINUOUS
 62
6
 10
1026.8157033784
 20
341.1572533604
 11
1066.8157033784
 21
341.1572533604
  0
LINE
  8
5
  6
CONTINUOUS
 62
6
 10
1066.8157033784
 20
341.1572533604
 11
1081.8157033784
 21
341.1572533604
  0
LINE
  8
5
  6
CONTINUOUS
 62
6
 10
1081.8157033784
 20
341.1572533604
 11
1086.8157033784
 21
341.1572533604
  0
LINE
  8
5
  6
CONTINUOUS
 62
6
 10
1086.8157033784
 20
341.1572533604
 11
1086.8157033784
 21
336.1572533604
  0
LINE
  8
5
  6
CONTINUOUS
 62
6
 10
1086.8157033784
 20
336.1572533604
 11
1081.8157033784
 21
336.1572533604
  0
LINE
  8
5
  6
CONTINUOUS
 62
6
 10
1081.8157033784
 20
336.1572533604
 11
1066.8157033784
 21
336.1572533604
  0
LINE
  8
5
  6
CONTINUOUS
 62
6
 10
1066.8157033784
 20
336.1572533604
 11
1026.8157033784
 21
336.1572533604
  0
LINE
  8
5
  6
CONTINUOUS
 62
6
 10
1026.8157033784
 20
336.1572533604
 11
1006.8157033784
 21
336.1572533604
  0
LINE
  8
5
  6
CONTINUOUS
 62
6
 10
1006.8157033784
 20
336.1572533604
 11
1001.8157033784
 21
336.1572533604
  0
LINE
  8
5
  6
CONTINUOUS
 62
6
 10
1006.8157033784
 20
341.1572533604
 11
1006.8157033784
 21
336.1572533604
  0
LINE
  8
5
  6
CONTINUOUS
 62
6
 10
1026.8157033784
 20
341.1572533604
 11
1026.8157033784
 21
336.1572533604
  0
LINE
  8
5
  6
CONTINUOUS
 62
6
 10
1066.8157033784
 20
341.1572533604
 11
1066.8157033784
 21
336.1572533604
  0
LINE
  8
5
  6
CONTINUOUS
 62
6
 10
1081.8157033784
 20
341.1572533604
 11
1081.8157033784
 21
336.1572533604
  0
TEXT
  8
5
  6
CONTINUOUS
 62
7
 10
1002.015703
 20
337.507253
 40
2.300000
  1
項番
 41
0.921659
 50
0.000000
 51
0.000000
 72
   5
 73
   0
 11
1006.615703
 21
337.507253
  0
TEXT
  8
5
  6
CONTINUOUS
 62
7
 10
1011.823703
 20
337.157253
 40
3.000000
  1
品　　名
 41
0.737916
 50
0.000000
 51
0.000000
 72
   5
 73
   0
 11
1021.807703
 21
337.157253
  0
TEXT
  8
5
  6
CONTINUOUS
 62
7
 10
1031.662703
 20
337.157253
 40
3.000000
  1
定  格 / 型  番 / 材　質
 41
0.686277
 50
0.000000
 51
0.000000
 72
   5
 73
   0
 11
1061.968703
 21
337.157253
  0
TEXT
  8
5
  6
CONTINUOUS
 62
7
 10
1069.118203
 20
337.157253
 40
3.000000
  1
メーカー
 41
0.768293
 50
0.000000
 51
0.000000
 72
   5
 73
   0
 11
1079.513203
 21
337.157253
  0
TEXT
  8
5
  6
CONTINUOUS
 62
7
 10
1082.015703
 20
337.507253
 40
2.300000
  1
数量
 41
0.921659
 50
0.000000
 51
0.000000
 72
   5
 73
   0
 11
1086.615703
 21
337.507253
  0
LINE
  8
5
  6
CONTINUOUS
 62
6
 10
1001.8157033784
 20
331.1572533604
 11
1001.8157033784
 21
336.1572533604
  0
LINE
  8
5
  6
CONTINUOUS
 62
6
 10
1001.8157033784
 20
336.1572533604
 11
1006.8157033784
 21
336.1572533604
  0
LINE
  8
5
  6
CONTINUOUS
 62
6
 10
1006.8157033784
 20
336.1572533604
 11
1026.8157033784
 21
336.1572533604
  0
LINE
  8
5
  6
CONTINUOUS
 62
6
 10
1026.8157033784
 20
336.1572533604
 11
1066.8157033784
 21
336.1572533604
  0
LINE
  8
5
  6
CONTINUOUS
 62
6
 10
1066.8157033784
 20
336.1572533604
 11
1081.8157033784
 21
336.1572533604
  0
LINE
  8
5
  6
CONTINUOUS
 62
6
 10
1081.8157033784
 20
336.1572533604
 11
1086.8157033784
 21
336.1572533604
  0
LINE
  8
5
  6
CONTINUOUS
 62
6
 10
1086.8157033784
 20
336.1572533604
 11
1086.8157033784
 21
331.1572533604
  0
LINE
  8
5
  6
CONTINUOUS
 62
6
 10
1086.8157033784
 20
331.1572533604
 11
1081.8157033784
 21
331.1572533604
  0
LINE
  8
5
  6
CONTINUOUS
 62
6
 10
1081.8157033784
 20
331.1572533604
 11
1066.8157033784
 21
331.1572533604
  0
LINE
  8
5
  6
CONTINUOUS
 62
6
 10
1026.8157033784
 20
331.1572533604
 11
1006.8157033784
 21
331.1572533604
  0
LINE
  8
5
  6
CONTINUOUS
 62
6
 10
1006.8157033784
 20
331.1572533604
 11
1001.8157033784
 21
331.1572533604
  0
LINE
  8
5
  6
CONTINUOUS
 62
6
 10
1006.8157033784
 20
336.1572533604
 11
1006.8157033784
 21
331.1572533604
  0
LINE
  8
5
  6
CONTINUOUS
 62
6
 10
1026.8157033784
 20
336.1572533604
 11
1026.8157033784
 21
331.1572533604
  0
LINE
  8
5
  6
CONTINUOUS
 62
6
 10
1066.8157033784
 20
336.1572533604
 11
1066.8157033784
 21
331.1572533604
  0
LINE
  8
5
  6
CONTINUOUS
 62
6
 10
1081.8157033784
 20
336.1572533604
 11
1081.8157033784
 21
331.1572533604
  0
TEXT
  8
5
  6
CONTINUOUS
 62
7
 10
1003.440703
 20
331.907253
 40
3.500000
  1
1
 41
1.000000
 50
0.000000
 51
0.000000
 72
   5
 73
   0
 11
1005.190703
 21
331.907253
  0
TEXT
  8
5
  6
CONTINUOUS
 62
7
 10
1007.815703
 20
332.157253
 40
3.000000
  1
ベース
 41
0.841018
 50
0.000000
 51
0.000000
 72
   5
 73
   0
 11
1016.242703
 21
332.157253
  0
TEXT
  8
5
  6
CONTINUOUS
 62
7
 10
1027.695637
 20
329.395716
 40
3.000000
  1
PBT 黒色(UL  V-0)
 41
0.751838
 50
0.000000
 51
0.000000
 72
   5
 73
   0
 11
1052.235637
 21
329.395716
  0
TEXT
  8
5
  6
CONTINUOUS
 62
7
 10
1083.440703
 20
331.907253
 40
3.500000
  1
1
 41
1.000000
 50
0.000000
 51
0.000000
 72
   5
 73
   0
 11
1085.190703
 21
331.907253
  0
LINE
  8
5
  6
CONTINUOUS
 62
6
 10
1086.8157033784
 20
326.1572533604
 11
1081.8157033784
 21
326.1572533604
  0
LINE
  8
5
  6
CONTINUOUS
 62
6
 10
1086.8157033784
 20
321.1572533604
 11
1081.8157033784
 21
321.1572533604
  0
LINE
  8
5
  6
CONTINUOUS
 62
6
 10
1086.8157033784
 20
316.1572533604
 11
1081.8157033784
 21
316.1572533604
  0
LINE
  8
5
  6
CONTINUOUS
 62
6
 10
1086.8157033784
 20
311.1572533604
 11
1081.8157033784
 21
311.1572533604
  0
LINE
  8
5
  6
CONTINUOUS
 62
6
 10
1086.8157033784
 20
306.1572533604
 11
1081.8157033784
 21
306.1572533604
  0
LINE
  8
5
  6
CONTINUOUS
 62
6
 10
1086.8157033784
 20
301.1572533604
 11
1081.8157033784
 21
301.1572533604
  0
LINE
  8
5
  6
CONTINUOUS
 62
6
 10
1086.8157033784
 20
296.1572533604
 11
1081.8157033784
 21
296.1572533604
  0
LINE
  8
5
  6
CONTINUOUS
 62
6
 10
1086.8157033784
 20
291.1572533604
 11
1081.8157033784
 21
291.1572533604
  0
LINE
  8
5
  6
CONTINUOUS
 62
6
 10
1081.8157033784
 20
326.1572533604
 11
1066.8157033784
 21
326.1572533604
  0
LINE
  8
5
  6
CONTINUOUS
 62
6
 10
1081.8157033784
 20
321.1572533604
 11
1066.8157033784
 21
321.1572533604
  0
LINE
  8
5
  6
CONTINUOUS
 62
6
 10
1081.8157033784
 20
316.1572533604
 11
1066.8157033784
 21
316.1572533604
  0
LINE
  8
5
  6
CONTINUOUS
 62
6
 10
1081.8157033784
 20
311.1572533604
 11
1066.8157033784
 21
311.1572533604
  0
LINE
  8
5
  6
CONTINUOUS
 62
6
 10
1081.8157033784
 20
306.1572533604
 11
1066.8157033784
 21
306.1572533604
  0
LINE
  8
5
  6
CONTINUOUS
 62
6
 10
1081.8157033784
 20
301.1572533604
 11
1066.8157033784
 21
301.1572533604
  0
LINE
  8
5
  6
CONTINUOUS
 62
6
 10
1081.8157033784
 20
296.1572533604
 11
1066.8157033784
 21
296.1572533604
  0
LINE
  8
5
  6
CONTINUOUS
 62
6
 10
1081.8157033784
 20
291.1572533604
 11
1066.8157033784
 21
291.1572533604
  0
LINE
  8
5
  6
CONTINUOUS
 62
6
 10
1066.8157033784
 20
326.1572533604
 11
1026.8157033784
 21
326.1572533604
  0
LINE
  8
5
  6
CONTINUOUS
 62
6
 10
1066.8157033784
 20
321.1572533604
 11
1026.8157033784
 21
321.1572533604
  0
LINE
  8
5
  6
CONTINUOUS
 62
6
 10
1066.8157033784
 20
316.1572533604
 11
1026.8157033784
 21
316.1572533604
  0
LINE
  8
5
  6
CONTINUOUS
 62
6
 10
1066.8157033784
 20
311.1572533604
 11
1026.8157033784
 21
311.1572533604
  0
LINE
  8
5
  6
CONTINUOUS
 62
6
 10
1066.8157033784
 20
306.1572533604
 11
1026.8157033784
 21
306.1572533604
  0
LINE
  8
5
  6
CONTINUOUS
 62
6
 10
1066.8157033784
 20
301.1572533604
 11
1026.8157033784
 21
301.1572533604
  0
LINE
  8
5
  6
CONTINUOUS
 62
6
 10
1066.8157033784
 20
296.1572533604
 11
1026.8157033784
 21
296.1572533604
  0
LINE
  8
5
  6
CONTINUOUS
 62
6
 10
1066.8157033784
 20
291.1572533604
 11
1026.8157033784
 21
291.1572533604
  0
LINE
  8
5
  6
CONTINUOUS
 62
6
 10
1026.8157033784
 20
326.1572533604
 11
1006.8157033784
 21
326.1572533604
  0
LINE
  8
5
  6
CONTINUOUS
 62
6
 10
1026.8157033784
 20
321.1572533604
 11
1006.8157033784
 21
321.1572533604
  0
LINE
  8
5
  6
CONTINUOUS
 62
6
 10
1026.8157033784
 20
316.1572533604
 11
1006.8157033784
 21
316.1572533604
  0
LINE
  8
5
  6
CONTINUOUS
 62
6
 10
1026.8157033784
 20
311.1572533604
 11
1006.8157033784
 21
311.1572533604
  0
LINE
  8
5
  6
CONTINUOUS
 62
6
 10
1026.8157033784
 20
306.1572533604
 11
1006.8157033784
 21
306.1572533604
  0
LINE
  8
5
  6
CONTINUOUS
 62
6
 10
1026.8157033784
 20
301.1572533604
 11
1006.8157033784
 21
301.1572533604
  0
LINE
  8
5
  6
CONTINUOUS
 62
6
 10
1026.8157033784
 20
296.1572533604
 11
1006.8157033784
 21
296.1572533604
  0
LINE
  8
5
  6
CONTINUOUS
 62
6
 10
1026.8157033784
 20
291.1572533604
 11
1006.8157033784
 21
291.1572533604
  0
LINE
  8
5
  6
CONTINUOUS
 62
6
 10
1006.8157033784
 20
326.1572533604
 11
1001.8157033784
 21
326.1572533604
  0
LINE
  8
5
  6
CONTINUOUS
 62
6
 10
1006.8157033784
 20
321.1572533604
 11
1001.8157033784
 21
321.1572533604
  0
LINE
  8
5
  6
CONTINUOUS
 62
6
 10
1006.8157033784
 20
316.1572533604
 11
1001.8157033784
 21
316.1572533604
  0
LINE
  8
5
  6
CONTINUOUS
 62
6
 10
1006.8157033784
 20
311.1572533604
 11
1001.8157033784
 21
311.1572533604
  0
LINE
  8
5
  6
CONTINUOUS
 62
6
 10
1006.8157033784
 20
306.1572533604
 11
1001.8157033784
 21
306.1572533604
  0
LINE
  8
5
  6
CONTINUOUS
 62
6
 10
1006.8157033784
 20
301.1572533604
 11
1001.8157033784
 21
301.1572533604
  0
LINE
  8
5
  6
CONTINUOUS
 62
6
 10
1006.8157033784
 20
296.1572533604
 11
1001.8157033784
 21
296.1572533604
  0
LINE
  8
5
  6
CONTINUOUS
 62
6
 10
1006.8157033784
 20
291.1572533604
 11
1001.8157033784
 21
291.1572533604
  0
TEXT
  8
5
  6
CONTINUOUS
 62
7
 10
1003.440703
 20
326.907253
 40
3.500000
  1
2
 41
1.000000
 50
0.000000
 51
0.000000
 72
   5
 73
   0
 11
1005.190703
 21
326.907253
  0
TEXT
  8
5
  6
CONTINUOUS
 62
7
 10
1003.440703
 20
321.907253
 40
3.500000
  1
3
 41
1.000000
 50
0.000000
 51
0.000000
 72
   5
 73
   0
 11
1005.190703
 21
321.907253
  0
TEXT
  8
5
  6
CONTINUOUS
 62
7
 10
1003.440703
 20
316.907253
 40
3.500000
  1
4
 41
1.000000
 50
0.000000
 51
0.000000
 72
   5
 73
   0
 11
1005.190703
 21
316.907253
  0
TEXT
  8
5
  6
CONTINUOUS
 62
7
 10
1003.440703
 20
311.907253
 40
3.500000
  1
5
 41
1.000000
 50
0.000000
 51
0.000000
 72
   5
 73
   0
 11
1005.190703
 21
311.907253
  0
TEXT
  8
5
  6
CONTINUOUS
 62
7
 10
1003.440703
 20
306.907253
 40
3.500000
  1
6
 41
1.000000
 50
0.000000
 51
0.000000
 72
   5
 73
   0
 11
1005.190703
 21
306.907253
  0
TEXT
  8
5
  6
CONTINUOUS
 62
7
 10
1003.440703
 20
301.907253
 40
3.500000
  1
7
 41
1.000000
 50
0.000000
 51
0.000000
 72
   5
 73
   0
 11
1005.190703
 21
301.907253
  0
TEXT
  8
5
  6
CONTINUOUS
 62
7
 10
1003.440703
 20
296.907253
 40
3.500000
  1
8
 41
1.000000
 50
0.000000
 51
0.000000
 72
   5
 73
   0
 11
1005.190703
 21
296.907253
  0
TEXT
  8
5
  6
CONTINUOUS
 62
7
 10
1007.815703
 20
327.157253
 40
3.000000
  1
カバー
 41
0.833832
 50
0.000000
 51
0.000000
 72
   5
 73
   0
 11
1016.170703
 21
327.157253
  0
TEXT
  8
5
  6
CONTINUOUS
 62
7
 10
1007.815703
 20
322.157253
 40
3.000000
  1
ロック
 41
0.719162
 50
0.000000
 51
0.000000
 72
   5
 73
   0
 11
1015.021703
 21
322.157253
  0
TEXT
  8
5
  6
CONTINUOUS
 62
7
 10
1007.815703
 20
317.157253
 40
3.000000
  1
添付品ﾋﾞｽ
 41
0.822804
 50
0.000000
 51
0.000000
 72
   5
 73
   0
 11
1021.021703
 21
317.157253
  0
TEXT
  8
5
  6
CONTINUOUS
 62
7
 10
1027.815703
 20
322.157253
 40
3.000000
  1
ABS ﾛｯｸ部白色　ｽﾗｲﾄﾞ部黒色
 41
0.803861
 50
0.000000
 51
0.000000
 72
   5
 73
   0
 11
1066.545703
 21
322.157253
  0
TEXT
  8
5
  6
CONTINUOUS
 62
7
 10
1027.815703
 20
317.157253
 40
3.000000
  1
M3×8小ワｾﾑｽ(ﾍﾞｰｽ&内部ﾊﾟﾈﾙ固定用)
 41
0.832896
 50
0.000000
 51
0.000000
 72
   5
 73
   0
 11
1079.238703
 21
317.157253
  0
TEXT
  8
5
  6
CONTINUOUS
 62
7
 10
1083.440703
 20
326.907253
 40
3.500000
  1
1
 41
1.000000
 50
0.000000
 51
0.000000
 72
   5
 73
   0
 11
1085.190703
 21
326.907253
  0
TEXT
  8
5
  6
CONTINUOUS
 62
7
 10
1083.440703
 20
321.907253
 40
3.500000
  1
1
 41
1.000000
 50
0.000000
 51
0.000000
 72
   5
 73
   0
 11
1085.190703
 21
321.907253
  0
TEXT
  8
5
  6
CONTINUOUS
 62
7
 10
1083.440703
 20
316.907253
 40
3.500000
  1
4
 41
1.000000
 50
0.000000
 51
0.000000
 72
   5
 73
   0
 11
1085.190703
 21
316.907253
  0
LINE
  8
5
  6
CONTINUOUS
 62
6
 10
1001.8157033784
 20
326.1572533604
 11
1001.8157033784
 21
331.1572533604
  0
LINE
  8
5
  6
CONTINUOUS
 62
6
 10
1001.8157033784
 20
321.1572533604
 11
1001.8157033784
 21
326.1572533604
  0
LINE
  8
5
  6
CONTINUOUS
 62
6
 10
1001.8157033784
 20
316.1572533604
 11
1001.8157033784
 21
321.1572533604
  0
LINE
  8
5
  6
CONTINUOUS
 62
6
 10
1001.8157033784
 20
311.1572533604
 11
1001.8157033784
 21
316.1572533604
  0
LINE
  8
5
  6
CONTINUOUS
 62
6
 10
1001.8157033784
 20
306.1572533604
 11
1001.8157033784
 21
311.1572533604
  0
LINE
  8
5
  6
CONTINUOUS
 62
6
 10
1001.8157033784
 20
301.1572533604
 11
1001.8157033784
 21
306.1572533604
  0
LINE
  8
5
  6
CONTINUOUS
 62
6
 10
1001.8157033784
 20
296.1572533604
 11
1001.8157033784
 21
301.1572533604
  0
LINE
  8
5
  6
CONTINUOUS
 62
6
 10
1001.8157033784
 20
291.1572533604
 11
1001.8157033784
 21
296.1572533604
  0
LINE
  8
5
  6
CONTINUOUS
 62
6
 10
1006.8157033784
 20
331.1572533604
 11
1006.8157033784
 21
326.1572533604
  0
LINE
  8
5
  6
CONTINUOUS
 62
6
 10
1006.8157033784
 20
326.1572533604
 11
1006.8157033784
 21
321.1572533604
  0
LINE
  8
5
  6
CONTINUOUS
 62
6
 10
1006.8157033784
 20
321.1572533604
 11
1006.8157033784
 21
316.1572533604
  0
LINE
  8
5
  6
CONTINUOUS
 62
6
 10
1006.8157033784
 20
316.1572533604
 11
1006.8157033784
 21
311.1572533604
  0
LINE
  8
5
  6
CONTINUOUS
 62
6
 10
1006.8157033784
 20
311.1572533604
 11
1006.8157033784
 21
306.1572533604
  0
LINE
  8
5
  6
CONTINUOUS
 62
6
 10
1006.8157033784
 20
306.1572533604
 11
1006.8157033784
 21
301.1572533604
  0
LINE
  8
5
  6
CONTINUOUS
 62
6
 10
1006.8157033784
 20
301.1572533604
 11
1006.8157033784
 21
296.1572533604
  0
LINE
  8
5
  6
CONTINUOUS
 62
6
 10
1006.8157033784
 20
296.1572533604
 11
1006.8157033784
 21
291.1572533604
  0
LINE
  8
5
  6
CONTINUOUS
 62
6
 10
1026.8157033784
 20
331.1572533604
 11
1026.8157033784
 21
326.1572533604
  0
LINE
  8
5
  6
CONTINUOUS
 62
6
 10
1026.8157033784
 20
326.1572533604
 11
1026.8157033784
 21
321.1572533604
  0
LINE
  8
5
  6
CONTINUOUS
 62
6
 10
1026.8157033784
 20
321.1572533604
 11
1026.8157033784
 21
316.1572533604
  0
LINE
  8
5
  6
CONTINUOUS
 62
6
 10
1026.8157033784
 20
316.1572533604
 11
1026.8157033784
 21
311.1572533604
  0
LINE
  8
5
  6
CONTINUOUS
 62
6
 10
1026.8157033784
 20
311.1572533604
 11
1026.8157033784
 21
306.1572533604
  0
LINE
  8
5
  6
CONTINUOUS
 62
6
 10
1026.8157033784
 20
306.1572533604
 11
1026.8157033784
 21
301.1572533604
  0
LINE
  8
5
  6
CONTINUOUS
 62
6
 10
1026.8157033784
 20
301.1572533604
 11
1026.8157033784
 21
296.1572533604
  0
LINE
  8
5
  6
CONTINUOUS
 62
6
 10
1026.8157033784
 20
296.1572533604
 11
1026.8157033784
 21
291.1572533604
  0
LINE
  8
5
  6
CONTINUOUS
 62
6
 10
1066.8157033784
 20
331.1572533604
 11
1066.8157033784
 21
326.1572533604
  0
LINE
  8
5
  6
CONTINUOUS
 62
6
 10
1066.8157033784
 20
326.1572533604
 11
1066.8157033784
 21
321.1572533604
  0
LINE
  8
5
  6
CONTINUOUS
 62
6
 10
1066.8157033784
 20
316.1572533604
 11
1066.8157033784
 21
311.1572533604
  0
LINE
  8
5
  6
CONTINUOUS
 62
6
 10
1066.8157033784
 20
311.1572533604
 11
1066.8157033784
 21
306.1572533604
  0
LINE
  8
5
  6
CONTINUOUS
 62
6
 10
1066.8157033784
 20
306.1572533604
 11
1066.8157033784
 21
301.1572533604
  0
LINE
  8
5
  6
CONTINUOUS
 62
6
 10
1066.8157033784
 20
301.1572533604
 11
1066.8157033784
 21
296.1572533604
  0
LINE
  8
5
  6
CONTINUOUS
 62
6
 10
1066.8157033784
 20
296.1572533604
 11
1066.8157033784
 21
291.1572533604
  0
LINE
  8
5
  6
CONTINUOUS
 62
6
 10
1081.8157033784
 20
331.1572533604
 11
1081.8157033784
 21
326.1572533604
  0
LINE
  8
5
  6
CONTINUOUS
 62
6
 10
1081.8157033784
 20
326.1572533604
 11
1081.8157033784
 21
321.1572533604
  0
LINE
  8
5
  6
CONTINUOUS
 62
6
 10
1081.8157033784
 20
321.1572533604
 11
1081.8157033784
 21
316.1572533604
  0
LINE
  8
5
  6
CONTINUOUS
 62
6
 10
1081.8157033784
 20
316.1572533604
 11
1081.8157033784
 21
311.1572533604
  0
LINE
  8
5
  6
CONTINUOUS
 62
6
 10
1081.8157033784
 20
311.1572533604
 11
1081.8157033784
 21
306.1572533604
  0
LINE
  8
5
  6
CONTINUOUS
 62
6
 10
1081.8157033784
 20
306.1572533604
 11
1081.8157033784
 21
301.1572533604
  0
LINE
  8
5
  6
CONTINUOUS
 62
6
 10
1081.8157033784
 20
301.1572533604
 11
1081.8157033784
 21
296.1572533604
  0
LINE
  8
5
  6
CONTINUOUS
 62
6
 10
1081.8157033784
 20
296.1572533604
 11
1081.8157033784
 21
291.1572533604
  0
LINE
  8
5
  6
CONTINUOUS
 62
6
 10
1086.8157033784
 20
331.1572533604
 11
1086.8157033784
 21
326.1572533604
  0
LINE
  8
5
  6
CONTINUOUS
 62
6
 10
1086.8157033784
 20
326.1572533604
 11
1086.8157033784
 21
321.1572533604
  0
LINE
  8
5
  6
CONTINUOUS
 62
6
 10
1086.8157033784
 20
321.1572533604
 11
1086.8157033784
 21
316.1572533604
  0
LINE
  8
5
  6
CONTINUOUS
 62
6
 10
1086.8157033784
 20
316.1572533604
 11
1086.8157033784
 21
311.1572533604
  0
LINE
  8
5
  6
CONTINUOUS
 62
6
 10
1086.8157033784
 20
311.1572533604
 11
1086.8157033784
 21
306.1572533604
  0
LINE
  8
5
  6
CONTINUOUS
 62
6
 10
1086.8157033784
 20
306.1572533604
 11
1086.8157033784
 21
301.1572533604
  0
LINE
  8
5
  6
CONTINUOUS
 62
6
 10
1086.8157033784
 20
301.1572533604
 11
1086.8157033784
 21
296.1572533604
  0
LINE
  8
5
  6
CONTINUOUS
 62
6
 10
1086.8157033784
 20
296.1572533604
 11
1086.8157033784
 21
291.1572533604
  0
LINE
  8
5
  6
CONTINUOUS
 62
6
 10
1086.8157033784
 20
286.1572533604
 11
1081.8157033784
 21
286.1572533604
  0
LINE
  8
5
  6
CONTINUOUS
 62
6
 10
1081.8157033784
 20
286.1572533604
 11
1066.8157033784
 21
286.1572533604
  0
LINE
  8
5
  6
CONTINUOUS
 62
6
 10
1026.8157033784
 20
286.1572533604
 11
1006.8157033784
 21
286.1572533604
  0
LINE
  8
5
  6
CONTINUOUS
 62
6
 10
1006.8157033784
 20
286.1572533604
 11
1001.8157033784
 21
286.1572533604
  0
TEXT
  8
5
  6
CONTINUOUS
 62
7
 10
1003.440703
 20
291.907253
 40
3.500000
  1
9
 41
1.000000
 50
0.000000
 51
0.000000
 72
   5
 73
   0
 11
1005.190703
 21
291.907253
  0
LINE
  8
5
  6
CONTINUOUS
 62
6
 10
1001.8157033784
 20
286.1572533604
 11
1001.8157033784
 21
291.1572533604
  0
LINE
  8
5
  6
CONTINUOUS
 62
6
 10
1006.8157033784
 20
291.1572533604
 11
1006.8157033784
 21
286.1572533604
  0
LINE
  8
5
  6
CONTINUOUS
 62
6
 10
1026.8157033784
 20
291.1572533604
 11
1026.8157033784
 21
286.1572533604
  0
LINE
  8
5
  6
CONTINUOUS
 62
6
 10
1066.8157033784
 20
291.1572533604
 11
1066.8157033784
 21
286.1572533604
  0
LINE
  8
5
  6
CONTINUOUS
 62
6
 10
1081.8157033784
 20
291.1572533604
 11
1081.8157033784
 21
286.1572533604
  0
LINE
  8
5
  6
CONTINUOUS
 62
6
 10
1086.8157033784
 20
291.1572533604
 11
1086.8157033784
 21
286.1572533604
  0
ENDBLK
  8
0
  0
BLOCK
  8
1
  2
BALN0
 70
     0
 10
832.3710109965
 20
252.1064980985
  3
BALN0
  0
SOLID
  8
1
  6
CONTINUOUS
 62
5
 10
831.9875149730
 20
254.0693864804
 11
833.0203378888
 21
253.9981573138
 12
832.3710109965
 22
252.1064980985
 13
832.3710109965
 23
252.1064980985
  0
LINE
  8
1
  6
BYBLOCK
 62
5
 10
832.3710109965
 20
252.1064980985
 11
833.2748435137
 21
265.2120695976
  0
CIRCLE
  8
1
  6
BYBLOCK
 62
5
 10
833.4812497885
 20
268.2049605829
 40
3.0000000000
  0
TEXT
  8
1
  6
CONTINUOUS
 62
7
 10
832.606250
 20
266.454961
 40
3.500000
  1
1
 41
1.000000
 50
0.000000
 51
0.000000
 72
   5
 73
   0
 11
834.356250
 21
266.454961
  0
ENDBLK
  8
0
  0
BLOCK
  8
1
  2
BALN1
 70
     0
 10
817.3827873041
 20
251.2738190045
  3
BALN1
  0
SOLID
  8
1
  6
CONTINUOUS
 62
5
 10
816.5887181753
 20
253.1094263205
 11
817.6129069243
 21
253.2605361359
 12
817.3827873041
 22
251.2738190045
 13
817.3827873041
 23
251.2738190045
  0
LINE
  8
1
  6
BYBLOCK
 62
5
 10
817.3827873041
 20
251.2738190045
 11
815.3226326420
 21
265.2370894922
  0
CIRCLE
  8
1
  6
BYBLOCK
 62
5
 10
814.8847500221
 20
268.2049605829
 40
3.0000000000
  0
TEXT
  8
1
  6
CONTINUOUS
 62
7
 10
814.009750
 20
266.454961
 40
3.500000
  1
2
 41
1.000000
 50
0.000000
 51
0.000000
 72
   5
 73
   0
 11
815.759750
 21
266.454961
  0
ENDBLK
  8
0
  0
BLOCK
  8
1
  2
BALN2
 70
     0
 10
794.5014295386
 20
189.1004466508
  3
BALN2
  0
SOLID
  8
1
  6
CONTINUOUS
 62
5
 10
796.1340564444
 20
190.2556649793
 11
796.4929350782
 21
189.2845816173
 12
794.5014295386
 22
189.1004466508
 13
794.5014295386
 23
189.1004466508
  0
LINE
  8
1
  6
BYBLOCK
 62
5
 10
794.5014295386
 20
189.1004466508
 11
804.4551921505
 21
192.7790110943
  0
CIRCLE
  8
1
  6
BYBLOCK
 62
5
 10
807.2691756470
 20
193.8189615169
 40
3.0000000000
  0
TEXT
  8
1
  6
CONTINUOUS
 62
7
 10
806.394176
 20
192.068962
 40
3.500000
  1
3
 41
1.000000
 50
0.000000
 51
0.000000
 72
   5
 73
   0
 11
808.144176
 21
192.068962
  0
ENDBLK
  8
0
  0
BLOCK
  8
3
  2
BALN3
 70
     0
 10
875.6604292122
 20
245.8247804973
  3
BALN3
  0
SOLID
  8
3
  6
CONTINUOUS
 62
5
 10
875.2991287809
 20
247.7918753090
 11
876.3310812661
 21
247.7089847916
 12
875.6604292122
 22
245.8247804973
 13
875.6604292122
 23
245.8247804973
  0
LINE
  8
3
  6
BYBLOCK
 62
5
 10
875.6604292122
 20
245.8247804973
 11
877.2178957859
 21
265.2145919119
  0
CIRCLE
  8
3
  6
BYBLOCK
 62
5
 10
877.4580940606
 20
268.2049605829
 40
3.0000000000
  0
TEXT
  8
3
  6
CONTINUOUS
 62
7
 10
876.583094
 20
266.454961
 40
3.500000
  1
4
 41
1.000000
 50
0.000000
 51
0.000000
 72
   5
 73
   0
 11
878.333094
 21
266.454961
  0
ENDBLK
  8
0
  0
BLOCK
  8
3
  2
BALN4
 70
     0
 10
882.1604292122
 20
248.8533519259
  3
BALN4
  0
SOLID
  8
3
  6
CONTINUOUS
 62
5
 10
882.1031598523
 20
250.8525318128
 11
883.1104224351
 21
250.6133271747
 12
882.1604292122
 22
248.8533519259
 13
882.1604292122
 23
248.8533519259
  0
LINE
  8
3
  6
BYBLOCK
 62
5
 10
882.1604292122
 20
248.8533519259
 11
886.0628858851
 21
265.2861377550
  0
CIRCLE
  8
3
  6
BYBLOCK
 62
5
 10
886.7560476983
 20
268.2049605829
 40
3.0000000000
  0
TEXT
  8
3
  6
CONTINUOUS
 62
7
 10
885.881048
 20
266.454961
 40
3.500000
  1
4
 41
1.000000
 50
0.000000
 51
0.000000
 72
   5
 73
   0
 11
887.631048
 21
266.454961
  0
ENDBLK
  8
0
  0
BLOCK
  8
1
  2
*D9
 70
     1
 10
0.0000000000
 20
0.0000000000
  3
*D9
  0
LINE
  8
1
  6
BYBLOCK
 62
5
 10
1069.5064359547
 20
245.8247804973
 11
1005.0376661751
 21
245.8247804973
  0
LINE
  8
1
  6
BYBLOCK
 62
5
 10
1069.5064359547
 20
146.8247804973
 11
1005.0376661751
 21
146.8247804973
  0
LINE
  8
1
  6
BYBLOCK
 62
5
 10
1006.0376661751
 20
146.8247804973
 11
1006.0376661751
 21
245.8247804973
  0
SOLID
  8
1
  6
CONTINUOUS
 62
5
 10
1006.5553042653
 20
243.8929288447
 11
1005.5200280849
 21
243.8929288447
 12
1006.0376661751
 22
245.8247804973
 13
1006.0376661751
 23
245.8247804973
  0
SOLID
  8
1
  6
CONTINUOUS
 62
5
 10
1005.5200280849
 20
148.7566321499
 11
1006.5553042653
 21
148.7566321499
 12
1006.0376661751
 22
146.8247804973
 13
1006.0376661751
 23
146.8247804973
  0
TEXT
  8
1
  6
CONTINUOUS
 62
7
 10
1005.037666
 20
194.574780
 40
3.500000
  1
99
 41
0.854701
 50
90.000000
 51
0.000000
 72
   5
 73
   0
 11
1005.037666
 21
198.074780
  0
POINT
  8
DEFPOINTS
  6
BYBLOCK
 62
5
 10
1070.0064359547
 20
245.8247804973
  0
POINT
  8
DEFPOINTS
  6
BYBLOCK
 62
5
 10
1070.0064359547
 20
146.8247804973
  0
POINT
  8
DEFPOINTS
  6
BYBLOCK
 62
5
 10
1006.0376661751
 20
146.8247804973
  0
ENDBLK
  8
0
  0
BLOCK
  8
1
  2
*D10
 70
     1
 10
0.0000000000
 20
0.0000000000
  3
*D10
  0
LINE
  8
1
  6
BYBLOCK
 62
5
 10
1019.5064359547
 20
241.3247804973
 11
1011.6223475767
 21
241.3247804973
  0
LINE
  8
1
  6
BYBLOCK
 62
5
 10
1019.5064359547
 20
151.3247804973
 11
1011.6223475767
 21
151.3247804973
  0
LINE
  8
1
  6
BYBLOCK
 62
5
 10
1012.6223475767
 20
151.3247804973
 11
1012.6223475767
 21
241.3247804973
  0
SOLID
  8
1
  6
CONTINUOUS
 62
5
 10
1013.1399856669
 20
239.3929288447
 11
1012.1047094865
 21
239.3929288447
 12
1012.6223475767
 22
241.3247804973
 13
1012.6223475767
 23
241.3247804973
  0
SOLID
  8
1
  6
CONTINUOUS
 62
5
 10
1012.1047094865
 20
153.2566321499
 11
1013.1399856669
 21
153.2566321499
 12
1012.6223475767
 22
151.3247804973
 13
1012.6223475767
 23
151.3247804973
  0
TEXT
  8
1
  6
CONTINUOUS
 62
7
 10
1011.622348
 20
194.574780
 40
3.500000
  1
90
 41
0.854701
 50
90.000000
 51
0.000000
 72
   5
 73
   0
 11
1011.622348
 21
198.074780
  0
POINT
  8
DEFPOINTS
  6
BYBLOCK
 62
5
 10
1020.0064359547
 20
241.3247804973
  0
POINT
  8
DEFPOINTS
  6
BYBLOCK
 62
5
 10
1020.0064359547
 20
151.3247804973
  0
POINT
  8
DEFPOINTS
  6
BYBLOCK
 62
5
 10
1012.6223475767
 20
151.3247804973
  0
ENDBLK
  8
0
  0
BLOCK
  8
1
  2
*D11
 70
     1
 10
0.0000000000
 20
0.0000000000
  3
*D11
  0
LINE
  8
1
  6
BYBLOCK
 62
5
 10
1027.4887580877
 20
147.9267477196
 11
1025.7926283093
 21
149.7633597567
  0
LINE
  8
1
  6
BYBLOCK
 62
5
 10
1029.5241138217
 20
145.7228132750
 11
1031.2202436001
 21
143.8862012379
  0
SOLID
  8
1
  6
CONTINUOUS
 62
5
 10
1025.7978095026
 20
148.9947799675
 11
1026.5583697805
 21
149.6971650709
 12
1027.4887580877
 22
147.9267477196
 13
1027.4887580877
 23
147.9267477196
  0
SOLID
  8
1
  6
CONTINUOUS
 62
5
 10
1031.2150624068
 20
144.6547810271
 11
1030.4545021289
 21
143.9523959237
 12
1029.5241138217
 22
145.7228132750
 13
1029.5241138217
 23
145.7228132750
  0
TEXT
  8
1
  6
CONTINUOUS
 62
7
 10
1035.241375
 20
141.005963
 40
3.500000
  1
4-M3
 41
0.796813
 50
312.722788
 51
0.000000
 72
   5
 73
   0
 11
1039.990538
 21
135.863449
  0
POINT
  8
DEFPOINTS
  6
BYBLOCK
 62
5
 10
1027.4887580877
 20
147.9267477196
  0
POINT
  8
DEFPOINTS
  6
BYBLOCK
 62
5
 10
1029.5241138217
 20
145.7228132750
  0
LINE
  8
1
  6
BYBLOCK
 62
5
 10
1027.4887580877
 20
147.9267477196
 11
1039.2558932617
 21
135.1849974250
  0
ENDBLK
  8
0
  0
BLOCK
  8
1
  2
*D12
 70
     1
 10
0.0000000000
 20
0.0000000000
  3
*D12
  0
LINE
  8
1
  6
BYBLOCK
 62
5
 10
1028.5064359547
 20
145.8247804973
 11
1028.5064359547
 21
250.4164335187
  0
LINE
  8
1
  6
BYBLOCK
 62
5
 10
1068.5064359547
 20
145.8247804973
 11
1068.5064359547
 21
250.4164335187
  0
LINE
  8
1
  6
BYBLOCK
 62
5
 10
1068.5064359547
 20
249.4164335187
 11
1028.5064359547
 21
249.4164335187
  0
SOLID
  8
1
  6
CONTINUOUS
 62
5
 10
1030.4382876073
 20
249.9340716089
 11
1030.4382876073
 21
248.8987954285
 12
1028.5064359547
 22
249.4164335187
 13
1028.5064359547
 23
249.4164335187
  0
SOLID
  8
1
  6
CONTINUOUS
 62
5
 10
1066.5745843022
 20
248.8987954285
 11
1066.5745843022
 21
249.9340716089
 12
1068.5064359547
 22
249.4164335187
 13
1068.5064359547
 23
249.4164335187
  0
TEXT
  8
1
  6
CONTINUOUS
 62
7
 10
1046.756436
 20
250.416434
 40
3.500000
  1
40
 41
0.854701
 50
0.000000
 51
0.000000
 72
   5
 73
   0
 11
1050.256436
 21
250.416434
  0
POINT
  8
DEFPOINTS
  6
BYBLOCK
 62
5
 10
1028.5064359547
 20
145.3247804973
  0
POINT
  8
DEFPOINTS
  6
BYBLOCK
 62
5
 10
1068.5064359547
 20
145.3247804973
  0
POINT
  8
DEFPOINTS
  6
BYBLOCK
 62
5
 10
1068.5064359547
 20
249.4164335187
  0
ENDBLK
  8
0
  0
BLOCK
  8
1
  2
*D13
 70
     1
 10
0.0000000000
 20
0.0000000000
  3
*D13
  0
LINE
  8
1
  6
BYBLOCK
 62
5
 10
999.0064359547
 20
257.5797458071
 11
999.0064359547
 21
264.9552575319
  0
LINE
  8
1
  6
BYBLOCK
 62
5
 10
1020.0064359547
 20
241.8247804973
 11
1020.0064359547
 21
264.9552575319
  0
LINE
  8
1
  6
BYBLOCK
 62
5
 10
1020.0064359547
 20
263.9552575319
 11
999.0064359547
 21
263.9552575319
  0
SOLID
  8
1
  6
CONTINUOUS
 62
5
 10
1000.9382876073
 20
264.4728956221
 11
1000.9382876073
 21
263.4376194417
 12
999.0064359547
 22
263.9552575319
 13
999.0064359547
 23
263.9552575319
  0
SOLID
  8
1
  6
CONTINUOUS
 62
5
 10
1018.0745843022
 20
263.4376194417
 11
1018.0745843022
 21
264.4728956221
 12
1020.0064359547
 22
263.9552575319
 13
1020.0064359547
 23
263.9552575319
  0
TEXT
  8
1
  6
CONTINUOUS
 62
7
 10
1007.756436
 20
264.955258
 40
3.500000
  1
21
 41
0.854701
 50
0.000000
 51
0.000000
 72
   5
 73
   0
 11
1011.256436
 21
264.955258
  0
POINT
  8
DEFPOINTS
  6
BYBLOCK
 62
5
 10
999.0064359547
 20
257.0797458071
  0
POINT
  8
DEFPOINTS
  6
BYBLOCK
 62
5
 10
1020.0064359547
 20
241.3247804973
  0
POINT
  8
DEFPOINTS
  6
BYBLOCK
 62
5
 10
1020.0064359547
 20
263.9552575319
  0
ENDBLK
  8
0
  0
BLOCK
  8
1
  2
*D14
 70
     1
 10
0.0000000000
 20
0.0000000000
  3
*D14
  0
LINE
  8
1
  6
BYBLOCK
 62
5
 10
1077.0064359547
 20
241.8247804973
 11
1077.0064359547
 21
264.9552575319
  0
LINE
  8
1
  6
BYBLOCK
 62
5
 10
1077.0064359547
 20
263.9552575319
 11
1020.0064359547
 21
263.9552575319
  0
SOLID
  8
1
  6
CONTINUOUS
 62
5
 10
1021.9382876073
 20
264.4728956221
 11
1021.9382876073
 21
263.4376194417
 12
1020.0064359547
 22
263.9552575319
 13
1020.0064359547
 23
263.9552575319
  0
SOLID
  8
1
  6
CONTINUOUS
 62
5
 10
1075.0745843022
 20
263.4376194417
 11
1075.0745843022
 21
264.4728956221
 12
1077.0064359547
 22
263.9552575319
 13
1077.0064359547
 23
263.9552575319
  0
TEXT
  8
1
  6
CONTINUOUS
 62
7
 10
1046.756436
 20
264.955258
 40
3.500000
  1
57
 41
0.854701
 50
0.000000
 51
0.000000
 72
   5
 73
   0
 11
1050.256436
 21
264.955258
  0
POINT
  8
DEFPOINTS
  6
BYBLOCK
 62
5
 10
1020.0064359547
 20
241.3247804973
  0
POINT
  8
DEFPOINTS
  6
BYBLOCK
 62
5
 10
1077.0064359547
 20
241.3247804973
  0
POINT
  8
DEFPOINTS
  6
BYBLOCK
 62
5
 10
1077.0064359547
 20
263.9552575319
  0
ENDBLK
  8
0
  0
BLOCK
  8
1
  2
*D15
 70
     1
 10
0.0000000000
 20
0.0000000000
  3
*D15
  0
LINE
  8
1
  6
BYBLOCK
 62
5
 10
1086.0064359547
 20
257.5797458071
 11
1086.0064359547
 21
264.9552575319
  0
LINE
  8
1
  6
BYBLOCK
 62
5
 10
1086.0064359547
 20
263.9552575319
 11
1077.0064359547
 21
263.9552575319
  0
SOLID
  8
1
  6
CONTINUOUS
 62
5
 10
1078.9382876073
 20
264.4728956221
 11
1078.9382876073
 21
263.4376194417
 12
1077.0064359547
 22
263.9552575319
 13
1077.0064359547
 23
263.9552575319
  0
SOLID
  8
1
  6
CONTINUOUS
 62
5
 10
1084.0745843022
 20
263.4376194417
 11
1084.0745843022
 21
264.4728956221
 12
1086.0064359547
 22
263.9552575319
 13
1086.0064359547
 23
263.9552575319
  0
TEXT
  8
1
  6
CONTINUOUS
 62
7
 10
1080.631436
 20
264.955258
 40
3.500000
  1
9
 41
1.000000
 50
0.000000
 51
0.000000
 72
   5
 73
   0
 11
1082.381436
 21
264.955258
  0
POINT
  8
DEFPOINTS
  6
BYBLOCK
 62
5
 10
1077.0064359547
 20
241.3247804973
  0
POINT
  8
DEFPOINTS
  6
BYBLOCK
 62
5
 10
1086.0064359547
 20
257.0797458071
  0
POINT
  8
DEFPOINTS
  6
BYBLOCK
 62
5
 10
1086.0064359547
 20
263.9552575319
  0
ENDBLK
  8
0
  0
BLOCK
  8
1
  2
LTEX1
 70
     0
 10
1046.3636410949
 20
134.5747782919
  3
LTEX1
  0
SOLID
  8
1
  6
CONTINUOUS
 62
5
 10
1046.5574506026
 20
136.5653656110
 11
1047.5267787116
 21
136.2017727248
 12
1046.3636410949
 22
134.5747782919
 13
1046.3636410949
 23
134.5747782919
  0
TEXT
  8
1
  6
CONTINUOUS
 62
7
 10
1048.298925
 20
140.734190
 40
3.000000
  1
製品外形
 41
0.886918
 50
0.000000
 51
0.000000
 72
   5
 73
   0
 11
1060.298925
 21
140.734190
  0
LINE
  8
1
  6
BYBLOCK
 62
5
 10
1046.3636410949
 20
134.5747782919
 11
1048.2989254893
 21
139.7341904639
  0
LINE
  8
1
  6
BYBLOCK
 62
5
 10
1048.2989254893
 20
139.7341904639
 11
1060.2989254893
 21
139.7341904639
  0
ENDBLK
  8
0
  0
BLOCK
  8
1
  2
BALN5
 70
     0
 10
894.7649830003
 20
245.2226582968
  3
BALN5
  0
SOLID
  8
1
  6
CONTINUOUS
 62
5
 10
894.2410034646
 20
247.1527995989
 11
895.2762740624
 21
247.1561994651
 12
894.7649830003
 22
245.2226582968
 13
894.7649830003
 23
245.2226582968
  0
LINE
  8
1
  6
BYBLOCK
 62
5
 10
894.7649830003
 20
245.2226582968
 11
894.6993603403
 21
265.2049767601
  0
CIRCLE
  8
1
  6
BYBLOCK
 62
5
 10
894.6895082845
 20
268.2049605829
 40
3.0000000000
  0
TEXT
  8
1
  6
CONTINUOUS
 62
7
 10
893.814508
 20
266.454961
 40
3.500000
  1
7
 41
1.000000
 50
0.000000
 51
0.000000
 72
   5
 73
   0
 11
895.564508
 21
266.454961
  0
ENDBLK
  8
0
  0
BLOCK
  8
1
  2
S2
 70
     0
 10
698.7477781160
 20
316.9327354514
  3
S2
  0
LINE
  8
1
  6
CONTINUOUS
 62
6
 10
701.2477781160
 20
314.9327354514
 11
696.2477781160
 21
314.9327354513
  0
LINE
  8
1
  6
CONTINUOUS
 62
6
 10
698.7477781160
 20
318.9327354514
 11
696.2477781160
 21
314.9327354513
  0
LINE
  8
1
  6
CONTINUOUS
 62
6
 10
698.7477781160
 20
318.9327354514
 11
701.2477781160
 21
314.9327354514
  0
POINT
  8
1
  6
CONTINUOUS
 62
6
 10
698.7477781160
 20
316.9327354514
  0
ENDBLK
  8
0
  0
BLOCK
  8
1
  2
S3
 70
     0
 10
698.7477781160
 20
321.9327354514
  3
S3
  0
LINE
  8
1
  6
CONTINUOUS
 62
6
 10
701.2477781160
 20
319.9327354514
 11
696.2477781160
 21
319.9327354513
  0
LINE
  8
1
  6
CONTINUOUS
 62
6
 10
698.7477781160
 20
323.9327354514
 11
696.2477781160
 21
319.9327354513
  0
LINE
  8
1
  6
CONTINUOUS
 62
6
 10
698.7477781160
 20
323.9327354514
 11
701.2477781160
 21
319.9327354514
  0
POINT
  8
1
  6
CONTINUOUS
 62
6
 10
698.7477781160
 20
321.9327354514
  0
ENDBLK
  8
0
  0
BLOCK
  8
1
  2
S4
 70
     0
 10
698.7477781160
 20
326.9327354514
  3
S4
  0
LINE
  8
1
  6
CONTINUOUS
 62
6
 10
701.2477781160
 20
324.9327354514
 11
696.2477781160
 21
324.9327354513
  0
LINE
  8
1
  6
CONTINUOUS
 62
6
 10
698.7477781160
 20
328.9327354514
 11
696.2477781160
 21
324.9327354513
  0
LINE
  8
1
  6
CONTINUOUS
 62
6
 10
698.7477781160
 20
328.9327354514
 11
701.2477781160
 21
324.9327354514
  0
POINT
  8
1
  6
CONTINUOUS
 62
6
 10
698.7477781160
 20
326.9327354514
  0
ENDBLK
  8
0
  0
BLOCK
  8
1
  2
S5
 70
     0
 10
698.7477781160
 20
331.9327354514
  3
S5
  0
LINE
  8
1
  6
CONTINUOUS
 62
6
 10
701.2477781160
 20
329.9327354514
 11
696.2477781160
 21
329.9327354513
  0
LINE
  8
1
  6
CONTINUOUS
 62
6
 10
698.7477781160
 20
333.9327354514
 11
696.2477781160
 21
329.9327354513
  0
LINE
  8
1
  6
CONTINUOUS
 62
6
 10
698.7477781160
 20
333.9327354514
 11
701.2477781160
 21
329.9327354514
  0
POINT
  8
1
  6
CONTINUOUS
 62
6
 10
698.7477781160
 20
331.9327354514
  0
ENDBLK
  8
0
  0
BLOCK
  8
1
  2
S6
 70
     0
 10
698.7477781161
 20
336.9327354514
  3
S6
  0
LINE
  8
1
  6
CONTINUOUS
 62
6
 10
701.2477781161
 20
334.9327354514
 11
696.2477781161
 21
334.9327354513
  0
LINE
  8
1
  6
CONTINUOUS
 62
6
 10
698.7477781161
 20
338.9327354514
 11
696.2477781161
 21
334.9327354513
  0
LINE
  8
1
  6
CONTINUOUS
 62
6
 10
698.7477781161
 20
338.9327354514
 11
701.2477781161
 21
334.9327354514
  0
POINT
  8
1
  6
CONTINUOUS
 62
6
 10
698.7477781161
 20
336.9327354514
  0
ENDBLK
  8
0
  0
BLOCK
  8
1
  2
S7
 70
     0
 10
698.7477781161
 20
341.9327354514
  3
S7
  0
LINE
  8
1
  6
CONTINUOUS
 62
6
 10
701.2477781161
 20
339.9327354514
 11
696.2477781161
 21
339.9327354513
  0
LINE
  8
1
  6
CONTINUOUS
 62
6
 10
698.7477781161
 20
343.9327354514
 11
696.2477781161
 21
339.9327354513
  0
LINE
  8
1
  6
CONTINUOUS
 62
6
 10
698.7477781161
 20
343.9327354514
 11
701.2477781161
 21
339.9327354514
  0
POINT
  8
1
  6
CONTINUOUS
 62
6
 10
698.7477781161
 20
341.9327354514
  0
ENDBLK
  8
0
  0
BLOCK
  8
1
  2
BALN6
 70
     0
 10
913.4104292122
 20
233.9489221715
  3
BALN6
  0
SOLID
  8
1
  6
CONTINUOUS
 62
5
 10
915.0956483439
 20
235.0259720673
 11
915.4083967391
 21
234.0390651766
 12
913.4104292122
 22
233.9489221715
 13
913.4104292122
 23
233.9489221715
  0
LINE
  8
1
  6
BYBLOCK
 62
5
 10
913.4104292122
 20
233.9489221715
 11
939.6010863516
 21
242.2486777678
  0
CIRCLE
  8
1
  6
BYBLOCK
 62
5
 10
942.4609229134
 20
243.1549530239
 40
3.0000000000
  0
TEXT
  8
1
  6
CONTINUOUS
 62
7
 10
941.585923
 20
241.404953
 40
3.500000
  1
8
 41
1.000000
 50
0.000000
 51
0.000000
 72
   5
 73
   0
 11
943.335923
 21
241.404953
  0
ENDBLK
  8
0
  0
BLOCK
  8
1
  2
BALN7
 70
     0
 10
910.1604292122
 20
229.3247804973
  3
BALN7
  0
SOLID
  8
1
  6
CONTINUOUS
 62
5
 10
911.9834910982
 20
230.1472434812
 11
912.1504786101
 21
229.1255233920
 12
910.1604292122
 22
229.3247804973
 13
910.1604292122
 23
229.3247804973
  0
LINE
  8
1
  6
BYBLOCK
 62
5
 10
910.1604292122
 20
229.3247804973
 11
939.5002054493
 21
234.1200040474
  0
CIRCLE
  8
1
  6
BYBLOCK
 62
5
 10
942.4609229134
 20
234.6038966986
 40
3.0000000000
  0
TEXT
  8
1
  6
CONTINUOUS
 62
7
 10
940.710923
 20
232.853897
 40
3.500000
  1
10
 41
0.854701
 50
0.000000
 51
0.000000
 72
   5
 73
   0
 11
944.210923
 21
232.853897
  0
ENDBLK
  8
0
  0
BLOCK
  8
1
  2
BALN8
 70
     0
 10
913.4104292122
 20
214.7489221715
  3
BALN8
  0
SOLID
  8
1
  6
CONTINUOUS
 62
5
 10
915.0956483439
 20
215.8259720673
 11
915.4083967391
 21
214.8390651766
 12
913.4104292122
 22
214.7489221715
 13
913.4104292122
 23
214.7489221715
  0
LINE
  8
1
  6
BYBLOCK
 62
5
 10
913.4104292122
 20
214.7489221715
 11
939.6010863516
 21
223.0486777678
  0
CIRCLE
  8
1
  6
BYBLOCK
 62
5
 10
942.4609229133
 20
223.9549530239
 40
3.0000000000
  0
TEXT
  8
1
  6
CONTINUOUS
 62
7
 10
941.585923
 20
222.204953
 40
3.500000
  1
8
 41
1.000000
 50
0.000000
 51
0.000000
 72
   5
 73
   0
 11
943.335923
 21
222.204953
  0
ENDBLK
  8
0
  0
BLOCK
  8
1
  2
BALN9
 70
     0
 10
913.4104292122
 20
195.5489221715
  3
BALN9
  0
SOLID
  8
1
  6
CONTINUOUS
 62
5
 10
915.0956483439
 20
196.6259720673
 11
915.4083967391
 21
195.6390651766
 12
913.4104292122
 22
195.5489221715
 13
913.4104292122
 23
195.5489221715
  0
LINE
  8
1
  6
BYBLOCK
 62
5
 10
913.4104292122
 20
195.5489221715
 11
939.6010863515
 21
203.8486777678
  0
CIRCLE
  8
1
  6
BYBLOCK
 62
5
 10
942.4609229133
 20
204.7549530239
 40
3.0000000000
  0
TEXT
  8
1
  6
CONTINUOUS
 62
7
 10
941.585923
 20
203.004953
 40
3.500000
  1
8
 41
1.000000
 50
0.000000
 51
0.000000
 72
   5
 73
   0
 11
943.335923
 21
203.004953
  0
ENDBLK
  8
0
  0
BLOCK
  8
1
  2
BALN10
 70
     0
 10
913.4104292122
 20
167.9489221715
  3
BALN10
  0
SOLID
  8
1
  6
CONTINUOUS
 62
5
 10
915.0956483439
 20
169.0259720673
 11
915.4083967391
 21
168.0390651766
 12
913.4104292122
 22
167.9489221715
 13
913.4104292122
 23
167.9489221715
  0
LINE
  8
1
  6
BYBLOCK
 62
5
 10
913.4104292122
 20
167.9489221715
 11
939.6010863516
 21
176.2486777678
  0
CIRCLE
  8
1
  6
BYBLOCK
 62
5
 10
942.4609229133
 20
177.1549530239
 40
3.0000000000
  0
TEXT
  8
1
  6
CONTINUOUS
 62
7
 10
941.585923
 20
175.404953
 40
3.500000
  1
9
 41
1.000000
 50
0.000000
 51
0.000000
 72
   5
 73
   0
 11
943.335923
 21
175.404953
  0
ENDBLK
  8
0
  0
ENDSEC
  0
SECTION
  2
ENTITIES
  0
INSERT
  8
5
  6
CONTINUOUS
 62
7
  2
S0
 10
689.7477781160
 20
64.9327354514
  0
TEXT
  8
5
  6
CONTINUOUS
 62
7
 10
1043.247778
 20
69.932735
 40
6.000000
  1
M0051A361A
 41
0.843492
 50
0.000000
 51
0.000000
 72
   5
 73
   0
 11
1076.295778
 21
69.932735
  0
TEXT
  8
5
  6
CONTINUOUS
 62
7
 10
1038.533230
 20
83.788121
 40
4.200000
  1
Type:
 41
0.786164
 50
0.000000
 51
0.000000
 72
   5
 73
   0
 11
1049.033230
 21
83.788121
  0
TEXT
  8
5
  6
CONTINUOUS
 62
7
 10
1038.533230
 20
79.588121
 40
4.200000
  1
MCON-030-361PB UAUAUAHD
 41
0.754593
 50
0.000000
 51
0.000000
 72
   5
 73
   0
 11
1086.833230
 21
79.588121
  0
TEXT
  8
5
  6
CONTINUOUS
 62
7
 10
982.872778
 20
75.682735
 40
3.000000
  1
Yamada
 41
0.844156
 50
0.000000
 51
0.000000
 72
   5
 73
   0
 11
992.622778
 21
75.682735
  0
TEXT
  8
5
  6
CONTINUOUS
 62
7
 10
993.872778
 20
75.682735
 40
3.000000
  1
Yamada
 41
0.844156
 50
0.000000
 51
0.000000
 72
   5
 73
   0
 11
1003.622778
 21
75.682735
  0
TEXT
  8
1
  6
CONTINUOUS
 62
7
 10
1021.188761
 20
125.453157
 40
5.000000
  1
パネルカット図
 41
0.872818
 50
0.000000
 51
0.000000
 72
   5
 73
   0
 11
1056.188761
 21
125.453157
  0
TEXT
  8
1
  6
CONTINUOUS
 62
7
 10
1021.188761
 20
120.453157
 40
5.000000
  1
推奨板厚 t=1.6以上
 41
0.827967
 50
0.000000
 51
0.000000
 72
   5
 73
   0
 11
1066.188761
 21
120.453157
  0
LINE
  8
1
  6
CONTINUOUS
 62
7
 10
711.4691335361
 20
252.0747817192
 11
723.4691336404
 21
252.0747817192
  0
LINE
  8
1
  6
CONTINUOUS
 62
7
 10
711.4691335361
 20
255.7697928581
 11
711.4691335361
 21
252.0747817192
  0
LINE
  8
1
  6
CONTINUOUS
 62
7
 10
723.4691336404
 20
255.7697928581
 11
723.4691336404
 21
252.0747817192
  0
POLYLINE
  8
1
  6
CONTINUOUS
 62
7
 66
     1
 70
     0
  0
VERTEX
  8
1
 62
7
 10
721.9339328573
 20
136.1098004261
 42
0.0225421746
  0
VERTEX
  8
1
 62
7
 10
721.0046674944
 20
136.2382859850
 42
0.0121462168
  0
VERTEX
  8
1
 62
7
 10
719.7052015659
 20
136.3319464264
 42
0.0122764779
  0
VERTEX
  8
1
 62
7
 10
717.4691335882
 20
136.3847329642
 42
0.0122764779
  0
VERTEX
  8
1
 62
7
 10
715.2330656106
 20
136.3319464264
 42
0.0121462168
  0
VERTEX
  8
1
 62
7
 10
713.9335996821
 20
136.2382859850
 42
0.0228681651
  0
VERTEX
  8
1
 62
7
 10
713.0064308262
 20
136.1102158416
 42
0.0101065848
  0
SEQEND
  8
1
  0
LINE
  8
1
  6
CONTINUOUS
 62
7
 10
723.4691336404
 20
140.5747792754
 11
723.4691336404
 21
136.8797681365
  0
LINE
  8
1
  6
CONTINUOUS
 62
7
 10
711.4691335361
 20
140.5747792754
 11
711.4691335361
 21
136.8797681365
  0
LINE
  8
1
  6
CONTINUOUS
 62
7
 10
711.4691335361
 20
140.5747792754
 11
723.4691336404
 21
140.5747792754
  0
LINE
  8
1
  6
CONTINUOUS
 62
7
 10
722.4691334765
 20
257.1648321185
 11
795.5641450013
 21
257.1648321185
  0
LINE
  8
1
  6
CONTINUOUS
 62
7
 10
711.4641709837
 20
258.0747827027
 11
796.4740993108
 21
258.0747827027
  0
LINE
  8
1
  6
CONTINUOUS
 62
7
 10
722.4691334765
 20
135.4847288761
 11
722.4691334765
 21
135.8847319219
  0
LINE
  8
1
  6
CONTINUOUS
 62
7
 10
795.5641450013
 20
135.4847288761
 11
722.4691334765
 21
135.4847288761
  0
LINE
  8
1
  6
CONTINUOUS
 62
7
 10
711.4641709837
 20
134.5747782919
 11
796.4740993108
 21
134.5747782919
  0
LINE
  8
1
  6
CONTINUOUS
 62
7
 10
712.4691337000
 20
135.8847319219
 11
712.4691337000
 21
135.5797424052
  0
POLYLINE
  8
1
  6
CONTINUOUS
 62
7
 66
     1
 70
     1
  0
VERTEX
  8
1
 10
719.4691335882
 20
135.8747812798
 42
0.1629625566
  0
VERTEX
  8
1
 10
719.2579879703
 20
135.9642242247
 42
0.0228681651
  0
VERTEX
  8
1
 10
718.8833471507
 20
136.0162029931
 42
0.0121462168
  0
VERTEX
  8
1
 10
718.3635607793
 20
136.0536671697
 42
0.0122764779
  0
VERTEX
  8
1
 10
717.4691335882
 20
136.0747817848
 42
0.0122764779
  0
VERTEX
  8
1
 10
716.5747063972
 20
136.0536671697
 42
0.0121462168
  0
VERTEX
  8
1
 10
716.0549200258
 20
136.0162029931
 42
0.0228681651
  0
VERTEX
  8
1
 10
715.6802792062
 20
135.9642242247
 42
0.1629625566
  0
VERTEX
  8
1
 10
715.4691335882
 20
135.8747812798
 42
0.1629625566
  0
VERTEX
  8
1
 10
715.6802792062
 20
135.7853383349
 42
0.0228681651
  0
VERTEX
  8
1
 10
716.0549200258
 20
135.7333595665
 42
0.0121462168
  0
VERTEX
  8
1
 10
716.5747063972
 20
135.6958953899
 42
0.0122764779
  0
VERTEX
  8
1
 10
717.4691335882
 20
135.6747807748
 42
0.0122764779
  0
VERTEX
  8
1
 10
718.3635607793
 20
135.6958953899
 42
0.0121462168
  0
VERTEX
  8
1
 10
718.8833471507
 20
135.7333595665
 42
0.0228681651
  0
VERTEX
  8
1
 10
719.2579879703
 20
135.7853383349
 42
0.1629625566
  0
SEQEND
  8
1
  0
POLYLINE
  8
1
  6
CONTINUOUS
 62
7
 66
     1
 70
     0
  0
VERTEX
  8
1
 62
7
 10
711.4691335882
 20
136.5797681095
 42
0.0441499573
  0
VERTEX
  8
1
 62
7
 10
711.4691826044
 20
136.5698667289
 42
0.0392133150
  0
SEQEND
  8
1
  0
LINE
  8
1
  6
CONTINUOUS
 62
7
 10
711.4691335361
 20
136.5797667835
 11
711.4691335361
 21
136.8797681365
  0
POLYLINE
  8
1
  6
CONTINUOUS
 62
7
 66
     1
 70
     0
  0
VERTEX
  8
1
 62
7
 10
711.4691826044
 20
136.5698667289
 42
0.0158105905
  0
VERTEX
  8
1
 62
7
 10
711.4718279524
 20
136.5067111124
 42
0.0807888691
  0
VERTEX
  8
1
 62
7
 10
711.5462043821
 20
136.1962790761
 42
0.0804310507
  0
VERTEX
  8
1
 62
7
 10
711.7153041777
 20
135.9246939329
 42
0.1157045986
  0
VERTEX
  8
1
 62
7
 10
712.0887387832
 20
135.6564245980
 42
0.1157045986
  0
VERTEX
  8
1
 62
7
 10
712.4691335882
 20
135.5797433695
 42
0.0182734515
  0
SEQEND
  8
1
  0
LINE
  8
1
  6
CONTINUOUS
 62
7
 10
723.4691336404
 20
136.8797681365
 11
723.4691336404
 21
136.5797667835
  0
POLYLINE
  8
1
  6
CONTINUOUS
 62
7
 66
     1
 70
     0
  0
VERTEX
  8
1
 62
7
 10
723.4641707536
 20
136.4797678570
 42
0.0250460769
  0
VERTEX
  8
1
 62
7
 10
723.4691335883
 20
136.5797681095
 42
0.1159165546
  0
VERTEX
  8
1
 62
7
 10
723.4691335883
 20
136.5797681095
 42
0.1159165546
  0
SEQEND
  8
1
  0
POLYLINE
  8
1
  6
CONTINUOUS
 62
7
 66
     1
 70
     0
  0
VERTEX
  8
1
 62
7
 10
722.4691335883
 20
135.4847306917
 42
0.0714605935
  0
VERTEX
  8
1
 62
7
 10
722.7377112187
 20
135.5480148448
 42
0.1063852091
  0
VERTEX
  8
1
 62
7
 10
723.1401388164
 20
135.8087626290
 42
0.1063852091
  0
VERTEX
  8
1
 62
7
 10
723.4008866006
 20
136.2111902267
 42
0.0777603711
  0
VERTEX
  8
1
 62
7
 10
723.4641707536
 20
136.4797678570
 42
0.0123362576
  0
SEQEND
  8
1
  0
POLYLINE
  8
1
  6
CONTINUOUS
 62
7
 66
     1
 70
     0
  0
VERTEX
  8
1
 62
7
 10
710.4691335882
 20
135.5698151875
 42
0.0791249785
  0
VERTEX
  8
1
 62
7
 10
710.5191449988
 20
135.2572433521
 42
0.1174683520
  0
VERTEX
  8
1
 62
7
 10
710.7599791914
 20
134.8656218224
 42
0.1174683520
  0
VERTEX
  8
1
 62
7
 10
711.1516013293
 20
134.6247886186
 42
0.0808607469
  0
VERTEX
  8
1
 62
7
 10
711.4641707536
 20
134.5747779973
 42
0.0012380847
  0
SEQEND
  8
1
  0
POLYLINE
  8
1
  6
CONTINUOUS
 62
7
 66
     1
 70
     0
  0
VERTEX
  8
1
 62
7
 10
711.4641707536
 20
258.0747829973
 42
0.0796147256
  0
VERTEX
  8
1
 62
7
 10
711.1516013293
 20
258.0247723760
 42
0.1174683520
  0
VERTEX
  8
1
 62
7
 10
710.7599791914
 20
257.7839391722
 42
0.1174683520
  0
VERTEX
  8
1
 62
7
 10
710.5191449988
 20
257.3923176425
 42
0.0808607469
  0
VERTEX
  8
1
 62
7
 10
710.4691335882
 20
257.0797458071
 42
0.0012373217
  0
SEQEND
  8
1
  0
LINE
  8
1
  6
CONTINUOUS
 62
7
 10
711.0191333692
 20
140.5747792754
 11
711.0191333692
 21
252.0747817192
  0
LINE
  8
1
  6
CONTINUOUS
 62
7
 10
710.4691333722
 20
257.0797464881
 11
710.4691333722
 21
135.5698145065
  0
LINE
  8
1
  6
CONTINUOUS
 62
7
 10
711.0191333692
 20
140.5747792754
 11
711.4691335361
 21
140.5747792754
  0
LINE
  8
1
  6
CONTINUOUS
 62
7
 10
711.0191333692
 20
252.0747817192
 11
711.4691335361
 21
252.0747817192
  0
ARC
  8
1
  6
CONTINUOUS
 62
7
 10
795.5521627416
 20
136.4917510758
 40
1.0070934838
 50
270.6817133899
 51
359.3182866101
  0
ARC
  8
1
  6
CONTINUOUS
 62
7
 10
795.5521627416
 20
256.1578099188
 40
1.0070934838
 50
0.6817133898
 51
89.3182866101
  0
LINE
  8
1
  6
CONTINUOUS
 62
7
 10
796.5591849412
 20
256.1697921786
 11
796.5591849412
 21
207.3247804973
  0
LINE
  8
1
  6
CONTINUOUS
 62
7
 10
796.5591849412
 20
185.3247804973
 11
796.5591849412
 21
136.4797688160
  0
LINE
  8
1
  6
CONTINUOUS
 62
7
 10
724.4691338043
 20
140.5747792754
 11
724.4691338043
 21
252.0747817192
  0
LINE
  8
1
  6
CONTINUOUS
 62
7
 10
723.4691336404
 20
140.5747792754
 11
724.4691338043
 21
140.5747792754
  0
LINE
  8
1
  6
CONTINUOUS
 62
7
 10
723.4691336404
 20
252.0747817192
 11
724.4691338043
 21
252.0747817192
  0
POLYLINE
  8
1
  6
CONTINUOUS
 62
7
 66
     1
 70
     0
  0
VERTEX
  8
1
 62
7
 10
797.4691335882
 20
257.0797458071
 42
0.0796153609
  0
VERTEX
  8
1
 62
7
 10
797.4191221777
 20
257.3923176424
 42
0.1174683520
  0
VERTEX
  8
1
 62
7
 10
797.1782879850
 20
257.7839391722
 42
0.1174683520
  0
VERTEX
  8
1
 62
7
 10
796.7866658472
 20
258.0247723760
 42
0.0808607469
  0
VERTEX
  8
1
 62
7
 10
796.4740964229
 20
258.0747829973
 42
0.0012379529
  0
SEQEND
  8
1
  0
POLYLINE
  8
1
  6
CONTINUOUS
 62
7
 66
     1
 70
     0
  0
VERTEX
  8
1
 62
7
 10
796.4740964229
 20
134.5747779973
 42
0.0791243434
  0
VERTEX
  8
1
 62
7
 10
796.7866658472
 20
134.6247886186
 42
0.1174683520
  0
VERTEX
  8
1
 62
7
 10
797.1782879850
 20
134.8656218224
 42
0.1174683520
  0
VERTEX
  8
1
 62
7
 10
797.4191221777
 20
135.2572433522
 42
0.0808607469
  0
VERTEX
  8
1
 62
7
 10
797.4691335882
 20
135.5698151875
 42
0.0012374534
  0
SEQEND
  8
1
  0
LINE
  8
1
  6
CONTINUOUS
 62
7
 10
796.7191340055
 20
208.8247806836
 11
797.4691318001
 21
208.8247806836
  0
LINE
  8
1
  6
CONTINUOUS
 62
7
 10
796.7191340055
 20
183.8247803110
 11
796.7191340055
 21
185.3247804973
  0
LINE
  8
1
  6
CONTINUOUS
 62
7
 10
796.7191340055
 20
207.3247804973
 11
796.7191340055
 21
208.8247806836
  0
LINE
  8
1
  6
CONTINUOUS
 62
7
 10
796.7191340055
 20
183.8247803110
 11
797.4691318001
 21
183.8247803110
  0
LINE
  8
1
  6
CONTINUOUS
 62
7
 10
797.4691318001
 20
135.5698145065
 11
797.4691318001
 21
183.8247803110
  0
LINE
  8
1
  6
CONTINUOUS
 62
7
 10
797.4691318001
 20
208.8247806836
 11
797.4691318001
 21
257.0797464881
  0
POLYLINE
  8
1
  6
CONTINUOUS
 62
7
 66
     1
 70
     0
  0
VERTEX
  8
1
 62
7
 10
722.4691335883
 20
135.8847317017
 42
0.1629625566
  0
VERTEX
  8
1
 62
7
 10
721.9412695435
 20
136.1083390641
 42
0.0228681651
  0
VERTEX
  8
1
 62
7
 10
721.9339328573
 20
136.1098004261
 42
0.0225421746
  0
SEQEND
  8
1
  0
POLYLINE
  8
1
  6
CONTINUOUS
 62
7
 66
     1
 70
     0
  0
VERTEX
  8
1
 62
7
 10
713.0064308262
 20
136.1102158416
 42
0.0101065848
  0
VERTEX
  8
1
 62
7
 10
712.9969976330
 20
136.1083390641
 42
0.1629625566
  0
VERTEX
  8
1
 62
7
 10
712.4691335882
 20
135.8847317017
 42
0.1629625566
  0
VERTEX
  8
1
 62
7
 10
712.4691335882
 20
135.8847317017
 42
0.1629625566
  0
SEQEND
  8
1
  0
ARC
  8
1
  6
CONTINUOUS
 62
7
 10
819.0394003688
 20
255.2697908651
 40
1.0000000000
 50
95.7106074615
 51
126.3907459364
  0
ARC
  8
1
  6
CONTINUOUS
 62
7
 10
819.0394003688
 20
137.3797701295
 40
1.0000000000
 50
233.6092540636
 51
264.2893925385
  0
LINE
  8
1
  6
CONTINUOUS
 62
7
 10
829.5394005365
 20
208.8247806836
 11
837.0394003688
 21
208.8247806836
  0
LINE
  8
1
  6
CONTINUOUS
 62
7
 10
829.5394005365
 20
183.8247803110
 11
829.5394005365
 21
190.3247804977
  0
LINE
  8
1
  6
CONTINUOUS
 62
7
 10
829.5394005365
 20
202.3247804977
 11
829.5394005365
 21
208.8247806836
  0
LINE
  8
1
  6
CONTINUOUS
 62
7
 10
829.5394005365
 20
183.8247803110
 11
837.0394003688
 21
183.8247803110
  0
LINE
  8
1
  6
CONTINUOUS
 62
7
 10
837.0394003688
 20
135.5698145065
 11
837.0394003688
 21
183.8247803110
  0
LINE
  8
1
  6
CONTINUOUS
 62
7
 10
837.0394003688
 20
208.8247806836
 11
837.0394003688
 21
257.0797464881
  0
LINE
  8
1
  6
CONTINUOUS
 62
7
 10
827.9398963898
 20
257.1648321185
 11
837.0394003688
 21
258.0747827027
  0
LINE
  8
1
  6
CONTINUOUS
 62
7
 10
837.0394003688
 20
258.0747827027
 11
837.0394003688
 21
257.0797464881
  0
LINE
  8
1
  6
CONTINUOUS
 62
7
 10
837.0394003688
 20
134.5747782919
 11
827.9398963898
 21
135.4847288761
  0
LINE
  8
1
  6
CONTINUOUS
 62
7
 10
837.0394003688
 20
135.5698145065
 11
837.0394003688
 21
134.5747782919
  0
LINE
  8
1
  6
CONTINUOUS
 62
7
 10
827.0394005924
 20
136.4797688160
 11
827.0394005924
 21
190.3247804977
  0
LINE
  8
1
  6
CONTINUOUS
 62
7
 10
827.0394005924
 20
202.3247804977
 11
827.0394005924
 21
256.1697921786
  0
ARC
  8
1
  6
CONTINUOUS
 62
7
 10
828.0394003688
 20
136.4797678570
 40
1.0000000000
 50
180.0000000000
 51
264.2893925385
  0
ARC
  8
1
  6
CONTINUOUS
 62
7
 10
828.0394003688
 20
256.1697931376
 40
1.0000000000
 50
95.7106074615
 51
180.0000000000
  0
LINE
  8
1
  6
CONTINUOUS
 62
7
 10
837.0394003688
 20
183.8247803110
 11
837.0394003688
 21
208.8247806836
  0
LINE
  8
1
  6
CONTINUOUS
 62
7
 10
823.9398966654
 20
256.7648290727
 11
827.9398963898
 21
257.1648321185
  0
LINE
  8
1
  6
CONTINUOUS
 62
7
 10
827.9398963898
 20
135.4847288761
 11
823.9398966654
 21
135.8847319219
  0
LINE
  8
1
  6
CONTINUOUS
 62
7
 10
818.9398967772
 20
256.2648280594
 11
818.9612259268
 21
256.2669626508
  0
LINE
  8
1
  6
CONTINUOUS
 62
7
 10
818.9612259268
 20
256.2669626508
 11
819.1307676136
 21
256.2839164469
  0
LINE
  8
1
  6
CONTINUOUS
 62
7
 10
819.1307676136
 20
256.2839164469
 11
819.4640805124
 21
256.3172466192
  0
LINE
  8
1
  6
CONTINUOUS
 62
7
 10
819.4640805124
 20
256.3172466192
 11
819.9498099386
 21
256.3658206794
  0
LINE
  8
1
  6
CONTINUOUS
 62
7
 10
819.9498099386
 20
256.3658206794
 11
820.5714174657
 21
256.4279808733
  0
LINE
  8
1
  6
CONTINUOUS
 62
7
 10
820.5714174657
 20
256.4279808733
 11
821.3077359944
 21
256.5016112361
  0
LINE
  8
1
  6
CONTINUOUS
 62
7
 10
821.3077359944
 20
256.5016112361
 11
822.1336878016
 21
256.5842083726
  0
LINE
  8
1
  6
CONTINUOUS
 62
7
 10
822.1336878016
 20
256.5842083726
 11
823.0211488082
 21
256.6729559634
  0
LINE
  8
1
  6
CONTINUOUS
 62
7
 10
823.0211488082
 20
256.6729559634
 11
823.9398966654
 21
256.7648290727
  0
LINE
  8
1
  6
CONTINUOUS
 62
7
 10
823.9398966654
 20
135.8847319219
 11
823.0716553628
 21
135.9715572629
  0
LINE
  8
1
  6
CONTINUOUS
 62
7
 10
823.0716553628
 20
135.9715572629
 11
822.2297956347
 21
136.0557413731
  0
LINE
  8
1
  6
CONTINUOUS
 62
7
 10
822.2297956347
 20
136.0557413731
 11
821.4398962556
 21
136.1347324285
  0
LINE
  8
1
  6
CONTINUOUS
 62
7
 10
821.4398962556
 20
136.1347324285
 11
820.7259592711
 21
136.2061276171
  0
LINE
  8
1
  6
CONTINUOUS
 62
7
 10
820.7259592711
 20
136.2061276171
 11
820.1096733212
 21
136.2677550945
  0
LINE
  8
1
  6
CONTINUOUS
 62
7
 10
820.1096733212
 20
136.2677550945
 11
819.6097691654
 21
136.3177447650
  0
LINE
  8
1
  6
CONTINUOUS
 62
7
 10
819.6097691654
 20
136.3177447650
 11
819.2414329498
 21
136.3545804355
  0
LINE
  8
1
  6
CONTINUOUS
 62
7
 10
819.2414329498
 20
136.3545804355
 11
819.0158573090
 21
136.3771370683
  0
LINE
  8
1
  6
CONTINUOUS
 62
7
 10
819.0158573090
 20
136.3771370683
 11
818.9398967772
 21
136.3847329352
  0
LINE
  8
1
  6
CONTINUOUS
 62
7
 10
710.4691333722
 20
293.0747827027
 11
711.4641709838
 21
293.0747827027
  0
LINE
  8
1
  6
CONTINUOUS
 62
7
 10
711.4691824305
 20
283.0742921192
 11
710.4691333722
 21
293.0747827027
  0
LINE
  8
1
  6
CONTINUOUS
 62
7
 10
711.4641709838
 20
293.0747827027
 11
796.4740993108
 21
293.0747827027
  0
LINE
  8
1
  6
CONTINUOUS
 62
7
 10
797.4691318001
 20
293.0747827027
 11
796.5591849412
 21
283.9752787236
  0
LINE
  8
1
  6
CONTINUOUS
 62
7
 10
796.4740993108
 20
293.0747827027
 11
797.4691318001
 21
293.0747827027
  0
LINE
  8
1
  6
CONTINUOUS
 62
7
 10
723.4691336404
 20
283.0747829262
 11
723.4691336404
 21
280.0747824345
  0
ARC
  8
1
  6
CONTINUOUS
 62
7
 10
795.5641460261
 20
284.0747827027
 40
1.0000000000
 50
270.0000000000
 51
354.2894068625
  0
LINE
  8
1
  6
CONTINUOUS
 62
7
 10
795.5641450013
 20
283.0747829262
 11
723.4641706224
 21
283.0747829262
  0
LINE
  8
1
  6
CONTINUOUS
 62
7
 10
711.4691335361
 20
280.0747824345
 11
711.4691335361
 21
283.0747829262
  0
ARC
  8
1
  6
CONTINUOUS
 62
7
 10
717.4691335883
 20
280.0747827027
 40
6.0000000001
 50
180.0000000000
 51
257.0277601138
  0
ARC
  8
1
  6
CONTINUOUS
 62
7
 10
717.4691335883
 20
280.0747827027
 40
6.0000000001
 50
257.0277601138
 51
0.0000000000
  0
LINE
  8
1
  6
HIDDEN
 62
7
 10
788.9691369261
 20
282.5747827027
 11
788.9691369261
 21
279.5747823525
  0
LINE
  8
1
  6
CONTINUOUS
 62
7
 10
788.9691369261
 20
283.0747829262
 11
788.9691369261
 21
282.5747827027
  0
LINE
  8
1
  6
CONTINUOUS
 62
7
 10
730.9691339384
 20
283.0747829262
 11
730.9691339384
 21
282.5747827027
  0
LINE
  8
1
  6
HIDDEN
 62
7
 10
730.9691339384
 20
282.5747827027
 11
730.9691339384
 21
279.5747823525
  0
LINE
  8
1
  6
HIDDEN
 62
7
 10
788.4691359128
 20
279.0747822705
 11
731.4691335883
 21
279.0747822705
  0
ARC
  8
1
  6
HIDDEN
 62
7
 10
788.4691335883
 20
279.5747827027
 40
0.5000000000
 50
270.0000000000
 51
0.0000000000
  0
ARC
  8
1
  6
HIDDEN
 62
7
 10
731.4691335883
 20
279.5747827027
 40
0.5000000000
 50
180.0000000000
 51
270.0000000000
  0
LINE
  8
1
  6
HIDDEN
 62
7
 10
724.4691338043
 20
287.5747827325
 11
711.0191333692
 21
287.5747827325
  0
LINE
  8
1
  6
HIDDEN
 62
7
 10
724.4691338043
 20
283.0747829262
 11
724.4691338043
 21
287.5747827325
  0
ARC
  8
1
  6
HIDDEN
 62
7
 10
787.9691335883
 20
279.5747827027
 40
0.5000000000
 50
180.0000000000
 51
270.0000000000
  0
ARC
  8
1
  6
HIDDEN
 62
7
 10
731.9691335883
 20
279.5747827027
 40
0.5000000000
 50
270.0000000000
 51
0.0000000000
  0
LINE
  8
1
  6
HIDDEN
 62
7
 10
749.9691323962
 20
293.0747827027
 11
749.9691323962
 21
286.5747825686
  0
LINE
  8
1
  6
HIDDEN
 62
7
 10
749.9691323962
 20
286.5747825686
 11
733.9691334988
 21
286.5747825686
  0
LINE
  8
1
  6
HIDDEN
 62
7
 10
769.9691319491
 20
293.0747827027
 11
769.9691319491
 21
286.5747825686
  0
LINE
  8
1
  6
HIDDEN
 62
7
 10
787.4691338863
 20
286.5747825686
 11
785.9691308464
 21
286.5747825686
  0
LINE
  8
1
  6
HIDDEN
 62
7
 10
787.4691338863
 20
279.5747823525
 11
787.4691338863
 21
286.5747825686
  0
LINE
  8
1
  6
HIDDEN
 62
7
 10
785.9691308464
 20
286.5747825686
 11
769.9691319491
 21
286.5747825686
  0
LINE
  8
1
  6
HIDDEN
 62
7
 10
732.4691332530
 20
279.5747823525
 11
732.4691332530
 21
286.5747825686
  0
LINE
  8
1
  6
HIDDEN
 62
7
 10
733.9691334988
 20
286.5747825686
 11
732.4691332530
 21
286.5747825686
  0
LINE
  8
1
  6
HIDDEN
 62
7
 10
743.2191336181
 20
290.5747827586
 11
736.7191334839
 21
290.5747827586
  0
LINE
  8
1
  6
HIDDEN
 62
7
 10
783.2191364493
 20
290.5747827586
 11
776.7191344525
 21
290.5747827586
  0
LINE
  8
1
  6
HIDDEN
 62
7
 10
795.4691351976
 20
293.0747827027
 11
795.4691351976
 21
285.5747828703
  0
LINE
  8
1
  6
HIDDEN
 62
7
 10
795.4691351976
 20
285.5747828703
 11
796.7191340055
 21
285.5747828703
  0
LINE
  8
1
  6
HIDDEN
 62
7
 10
743.2191336181
 20
286.5747825686
 11
743.2191336181
 21
290.5747827586
  0
LINE
  8
1
  6
HIDDEN
 62
7
 10
736.7191334839
 20
290.5747827586
 11
736.7191334839
 21
286.5747825686
  0
LINE
  8
1
  6
HIDDEN
 62
7
 10
783.2191364493
 20
286.5747825686
 11
783.2191364493
 21
290.5747827586
  0
LINE
  8
1
  6
HIDDEN
 62
7
 10
776.7191344525
 20
290.5747827586
 11
776.7191344525
 21
286.5747825686
  0
LINE
  8
1
  6
HIDDEN
 62
7
 10
741.7191343035
 20
290.5747827586
 11
741.7191343035
 21
293.0747827027
  0
LINE
  8
1
  6
HIDDEN
 62
7
 10
738.2191327985
 20
293.0747827027
 11
738.2191327985
 21
290.5747827586
  0
LINE
  8
1
  6
HIDDEN
 62
7
 10
781.7191334094
 20
290.5747827586
 11
781.7191334094
 21
293.0747827027
  0
LINE
  8
1
  6
HIDDEN
 62
7
 10
778.2191337671
 20
293.0747827027
 11
778.2191337671
 21
290.5747827586
  0
LINE
  8
1
  6
CONTINUOUS
 62
7
 10
710.4691333722
 20
94.5747782919
 11
711.4691824305
 21
104.5752688754
  0
LINE
  8
1
  6
CONTINUOUS
 62
7
 10
711.4641709837
 20
94.5747782919
 11
710.4691333722
 21
94.5747782919
  0
LINE
  8
1
  6
CONTINUOUS
 62
7
 10
796.5591849412
 20
103.6742822710
 11
797.4691318001
 21
94.5747782919
  0
LINE
  8
1
  6
CONTINUOUS
 62
7
 10
797.4691318001
 20
94.5747782919
 11
796.4740993108
 21
94.5747782919
  0
LINE
  8
1
  6
CONTINUOUS
 62
7
 10
711.4641709837
 20
94.5747782919
 11
796.4740993108
 21
94.5747782919
  0
LINE
  8
1
  6
CONTINUOUS
 62
7
 10
723.4691336404
 20
107.5747785602
 11
723.4691336404
 21
104.5747780684
  0
LINE
  8
1
  6
CONTINUOUS
 62
7
 10
723.4641706224
 20
104.5747780684
 11
795.5641450013
 21
104.5747780684
  0
ARC
  8
1
  6
CONTINUOUS
 62
7
 10
795.5641460261
 20
103.5747782919
 40
1.0000000000
 50
5.7105931375
 51
90.0000000000
  0
LINE
  8
1
  6
CONTINUOUS
 62
7
 10
711.4691335361
 20
104.5747780684
 11
711.4691335361
 21
107.5747785602
  0
ARC
  8
1
  6
CONTINUOUS
 62
7
 10
717.4691335882
 20
107.5747782919
 40
6.0000000001
 50
0.0000000000
 51
180.0000000000
  0
LINE
  8
1
  6
CONTINUOUS
 62
7
 10
788.9691369261
 20
104.5747780684
 11
788.9691369261
 21
105.0747782919
  0
LINE
  8
1
  6
CONTINUOUS
 62
7
 10
730.9691339384
 20
104.5747780684
 11
730.9691339384
 21
105.0747782919
  0
LINE
  8
1
  6
CONTINUOUS
 62
7
 10
797.2791345443
 20
96.4747783240
 11
797.4691318001
 21
94.5747782919
  0
LINE
  8
1
  6
CONTINUOUS
 62
7
 10
723.4691336404
 20
104.5747780684
 11
724.4691338043
 21
104.5747780684
  0
LINE
  8
1
  6
CONTINUOUS
 62
7
 10
711.0191333692
 20
100.0747782621
 11
711.4691335361
 21
104.5747780684
  0
POLYLINE
  8
1
  6
CONTINUOUS
 62
7
 66
     1
 70
     0
  0
VERTEX
  8
1
 62
7
 10
713.0064308262
 20
256.5393451530
 42
0.0224498690
  0
VERTEX
  8
1
 62
7
 10
713.9335996821
 20
256.4112750096
 42
0.0121462168
  0
VERTEX
  8
1
 62
7
 10
715.2330656106
 20
256.3176145682
 42
0.0122764779
  0
VERTEX
  8
1
 62
7
 10
717.4691335882
 20
256.2648280304
 42
0.0122764779
  0
VERTEX
  8
1
 62
7
 10
719.7052015659
 20
256.3176145682
 42
0.0121462168
  0
VERTEX
  8
1
 62
7
 10
721.0046674944
 20
256.4112750096
 42
0.0228681651
  0
VERTEX
  8
1
 62
7
 10
721.9339328573
 20
256.5397605685
 42
0.0078670227
  0
SEQEND
  8
1
  0
LINE
  8
1
  6
CONTINUOUS
 62
7
 10
722.4691334765
 20
257.1648321185
 11
722.4691334765
 21
256.7648290727
  0
LINE
  8
1
  6
CONTINUOUS
 62
7
 10
712.4691337000
 20
256.7648290727
 11
712.4691337000
 21
257.0698185894
  0
POLYLINE
  8
1
  6
CONTINUOUS
 62
7
 66
     1
 70
     1
  0
VERTEX
  8
1
 10
715.4691335882
 20
256.7747797148
 42
0.1629625566
  0
VERTEX
  8
1
 10
715.6802792062
 20
256.6853367699
 42
0.0228681651
  0
VERTEX
  8
1
 10
716.0549200258
 20
256.6333580015
 42
0.0121462168
  0
VERTEX
  8
1
 10
716.5747063972
 20
256.5958938249
 42
0.0122764779
  0
VERTEX
  8
1
 10
717.4691335882
 20
256.5747792098
 42
0.0122764779
  0
VERTEX
  8
1
 10
718.3635607793
 20
256.5958938249
 42
0.0121462168
  0
VERTEX
  8
1
 10
718.8833471507
 20
256.6333580015
 42
0.0228681651
  0
VERTEX
  8
1
 10
719.2579879703
 20
256.6853367699
 42
0.1629625566
  0
VERTEX
  8
1
 10
719.4691335882
 20
256.7747797148
 42
0.1629625566
  0
VERTEX
  8
1
 10
719.2579879703
 20
256.8642226597
 42
0.0228681651
  0
VERTEX
  8
1
 10
718.8833471507
 20
256.9162014281
 42
0.0121462168
  0
VERTEX
  8
1
 10
718.3635607793
 20
256.9536656047
 42
0.0122764779
  0
VERTEX
  8
1
 10
717.4691335882
 20
256.9747802198
 42
0.0122764779
  0
VERTEX
  8
1
 10
716.5747063972
 20
256.9536656047
 42
0.0121462168
  0
VERTEX
  8
1
 10
716.0549200258
 20
256.9162014281
 42
0.0228681651
  0
VERTEX
  8
1
 10
715.6802792062
 20
256.8642226597
 42
0.1629625566
  0
SEQEND
  8
1
  0
POLYLINE
  8
1
  6
CONTINUOUS
 62
7
 66
     1
 70
     0
  0
VERTEX
  8
1
 62
7
 10
711.4691826044
 20
256.0796942657
 42
0.0482940236
  0
VERTEX
  8
1
 62
7
 10
711.4691335882
 20
256.0697928851
 42
0.0458989087
  0
SEQEND
  8
1
  0
LINE
  8
1
  6
CONTINUOUS
 62
7
 10
711.4691335361
 20
256.0697942111
 11
711.4691335361
 21
255.7697928581
  0
POLYLINE
  8
1
  6
CONTINUOUS
 62
7
 66
     1
 70
     0
  0
VERTEX
  8
1
 62
7
 10
712.4691335882
 20
257.0698176251
 42
0.0985048074
  0
VERTEX
  8
1
 62
7
 10
712.0887387832
 20
256.9931363966
 42
0.1157045986
  0
VERTEX
  8
1
 62
7
 10
711.7153041777
 20
256.7248670617
 42
0.0804310507
  0
VERTEX
  8
1
 62
7
 10
711.5462043821
 20
256.4532819185
 42
0.0807888691
  0
VERTEX
  8
1
 62
7
 10
711.4718279524
 20
256.1428498822
 42
0.1171664547
  0
VERTEX
  8
1
 62
7
 10
711.4691826044
 20
256.0796942657
 42
0.1010165726
  0
SEQEND
  8
1
  0
LINE
  8
1
  6
CONTINUOUS
 62
7
 10
723.4691336404
 20
255.7697928581
 11
723.4691336404
 21
256.0697942111
  0
POLYLINE
  8
1
  6
CONTINUOUS
 62
7
 66
     1
 70
     0
  0
VERTEX
  8
1
 62
7
 10
723.4691335883
 20
256.0697928851
 42
0.1159165546
  0
VERTEX
  8
1
 62
7
 10
723.4641707536
 20
256.1697931376
 42
0.0908633124
  0
SEQEND
  8
1
  0
POLYLINE
  8
1
  6
CONTINUOUS
 62
7
 66
     1
 70
     0
  0
VERTEX
  8
1
 62
7
 10
723.4641707536
 20
256.1697931376
 42
0.0714605935
  0
VERTEX
  8
1
 62
7
 10
723.4008866006
 20
256.4383707679
 42
0.1063852091
  0
VERTEX
  8
1
 62
7
 10
723.1401388164
 20
256.8407983656
 42
0.1063852091
  0
VERTEX
  8
1
 62
7
 10
722.7377112187
 20
257.1015461498
 42
0.0777603711
  0
VERTEX
  8
1
 62
7
 10
722.4691335883
 20
257.1648303029
 42
0.0123362576
  0
SEQEND
  8
1
  0
POLYLINE
  8
1
  6
CONTINUOUS
 62
7
 66
     1
 70
     0
  0
VERTEX
  8
1
 62
7
 10
721.9339328573
 20
256.5397605685
 42
0.0078670227
  0
VERTEX
  8
1
 62
7
 10
721.9412695435
 20
256.5412219305
 42
0.1629625566
  0
VERTEX
  8
1
 62
7
 10
722.4691335883
 20
256.7648292929
 42
0.1629625566
  0
VERTEX
  8
1
 62
7
 10
722.4691335883
 20
256.7648292929
 42
0.1629625566
  0
SEQEND
  8
1
  0
POLYLINE
  8
1
  6
CONTINUOUS
 62
7
 66
     1
 70
     0
  0
VERTEX
  8
1
 62
7
 10
712.4691335882
 20
256.7648292929
 42
0.1629625566
  0
VERTEX
  8
1
 62
7
 10
712.9969976330
 20
256.5412219305
 42
0.0228681651
  0
VERTEX
  8
1
 62
7
 10
713.0064308262
 20
256.5393451530
 42
0.0224498690
  0
SEQEND
  8
1
  0
CIRCLE
  8
1
  6
CONTINUOUS
 62
7
 10
717.4691335882
 20
107.5747782919
 40
2.0000000000
  0
LINE
  8
1
  6
HIDDEN
 62
7
 10
747.7191335883
 20
293.0747827027
 11
747.7191335883
 21
286.5747825686
  0
LINE
  8
1
  6
HIDDEN
 62
7
 10
747.9691335883
 20
286.5747825686
 11
747.9691335883
 21
293.0747827027
  0
LINE
  8
1
  6
HIDDEN
 62
7
 10
745.2191335883
 20
293.0747827027
 11
745.2191335883
 21
286.5747825686
  0
LINE
  8
1
  6
HIDDEN
 62
7
 10
744.9691335883
 20
286.5747825686
 11
744.9691335883
 21
293.0747827027
  0
LINE
  8
1
  6
HIDDEN
 62
7
 10
772.2191335883
 20
293.0747827027
 11
772.2191335883
 21
286.5747825686
  0
LINE
  8
1
  6
HIDDEN
 62
7
 10
771.9691335883
 20
286.5747825686
 11
771.9691335883
 21
293.0747827027
  0
LINE
  8
1
  6
HIDDEN
 62
7
 10
774.7191335883
 20
293.0747827027
 11
774.7191335883
 21
286.5747825686
  0
LINE
  8
1
  6
HIDDEN
 62
7
 10
774.9691335883
 20
286.5747825686
 11
774.9691335883
 21
293.0747827027
  0
CIRCLE
  8
1
  6
CONTINUOUS
 62
7
 10
717.4673561229
 20
280.0747827027
 40
2.0000000000
  0
LINE
  8
2
  6
CONTINUOUS
 62
3
 10
711.4691335882
 20
193.6247804973
 11
711.4691335882
 21
140.7747804973
  0
LINE
  8
2
  6
CONTINUOUS
 62
3
 10
711.4691335882
 20
251.8747804973
 11
711.4691335882
 21
199.0247804973
  0
POLYLINE
  8
2
  6
CONTINUOUS
 62
3
 66
     1
 70
     0
  0
VERTEX
  8
2
 62
3
 10
732.4188810565
 20
252.6605669349
 42
0.0167340424
  0
VERTEX
  8
2
 62
3
 10
732.1047081417
 20
252.6014836041
 42
0.1432191097
  0
VERTEX
  8
2
 62
3
 10
730.0494702050
 20
251.4944438805
 42
0.1432191097
  0
VERTEX
  8
2
 62
3
 10
728.9424304814
 20
249.4392059438
 42
0.0846102946
  0
VERTEX
  8
2
 62
3
 10
728.8833471506
 20
249.1250330290
 42
0.0678163039
  0
SEQEND
  8
2
  0
ARC
  8
2
  6
CONTINUOUS
 62
3
 10
794.7191335883
 20
250.8927999820
 40
1.7853571071
 50
11.4217536597
 51
98.0494669760
  0
LINE
  8
2
  6
CONTINUOUS
 62
3
 10
732.4188810565
 20
252.6605669349
 11
794.4691335882
 21
252.6605669349
  0
LINE
  8
2
  6
CONTINUOUS
 62
3
 10
728.8833471506
 20
143.5245279656
 11
728.8833471506
 21
249.1250330290
  0
POLYLINE
  8
2
  6
CONTINUOUS
 62
3
 66
     1
 70
     0
  0
VERTEX
  8
2
 62
3
 10
728.8833471506
 20
143.5245279656
 42
0.0141047934
  0
VERTEX
  8
2
 62
3
 10
728.9424304814
 20
143.2103550508
 42
0.1432191097
  0
VERTEX
  8
2
 62
3
 10
730.0494702050
 20
141.1551171141
 42
0.1432191097
  0
VERTEX
  8
2
 62
3
 10
732.1047081417
 20
140.0480773905
 42
0.0846102946
  0
VERTEX
  8
2
 62
3
 10
732.4188810565
 20
139.9889940597
 42
0.0670035827
  0
SEQEND
  8
2
  0
LINE
  8
2
  6
CONTINUOUS
 62
3
 10
796.4691335882
 20
251.2463533726
 11
796.4691335882
 21
209.4247804973
  0
LINE
  8
2
  6
CONTINUOUS
 62
3
 10
760.4691335882
 20
147.5747804973
 11
760.4691335882
 21
245.0747804973
  0
LINE
  8
2
  6
CONTINUOUS
 62
3
 10
758.4691335882
 20
247.0747804973
 11
737.4691335882
 21
247.0747804973
  0
LINE
  8
2
  6
CONTINUOUS
 62
3
 10
735.4691335882
 20
245.0747804973
 11
735.4691335882
 21
147.5747804973
  0
LINE
  8
2
  6
CONTINUOUS
 62
3
 10
737.4691335882
 20
145.5747804973
 11
758.4691335882
 21
145.5747804973
  0
ARC
  8
2
  6
CONTINUOUS
 62
3
 10
758.4691335882
 20
147.5747804973
 40
2.0000000000
 50
270.0000000000
 51
0.0000000000
  0
ARC
  8
2
  6
CONTINUOUS
 62
3
 10
737.4691335882
 20
147.5747804973
 40
2.0000000000
 50
180.0000000000
 51
270.0000000000
  0
ARC
  8
2
  6
CONTINUOUS
 62
3
 10
758.4691335882
 20
245.0747804973
 40
2.0000000000
 50
0.0000000000
 51
90.0000000000
  0
ARC
  8
2
  6
CONTINUOUS
 62
3
 10
737.4691335882
 20
245.0747804973
 40
2.0000000000
 50
90.0000000000
 51
180.0000000000
  0
LINE
  8
2
  6
CONTINUOUS
 62
3
 10
796.4691335882
 20
183.2247804973
 11
796.4691335882
 21
141.4032076220
  0
ARC
  8
2
  6
CONTINUOUS
 62
3
 10
794.7191335882
 20
141.7567610126
 40
1.7853571071
 50
261.9505330247
 51
348.5782463413
  0
LINE
  8
2
  6
CONTINUOUS
 62
3
 10
794.4691335882
 20
139.9889940597
 11
732.4188810565
 21
139.9889940597
  0
LINE
  8
2
  6
CONTINUOUS
 62
3
 10
725.4691335882
 20
252.5392465914
 11
725.4691335882
 21
255.0144816413
  0
ARC
  8
2
  6
CONTINUOUS
 62
3
 10
726.4409560314
 20
255.0729503657
 40
0.9735797106
 50
88.3415014311
 51
183.4429930186
  0
ARC
  8
2
  6
CONTINUOUS
 62
3
 10
726.4307945025
 20
137.5667607558
 40
0.9640846150
 50
175.9364035055
 51
272.2791020229
  0
LINE
  8
2
  6
CONTINUOUS
 62
3
 10
725.4691335882
 20
137.6350793533
 11
725.4691335882
 21
140.1103144033
  0
LINE
  8
2
  6
CONTINUOUS
 62
3
 10
796.4691335882
 20
254.0747804973
 11
796.4691335882
 21
251.2463533726
  0
LINE
  8
2
  6
CONTINUOUS
 62
3
 10
725.4691335883
 20
140.1103144033
 11
725.4691335882
 21
140.7747804973
  0
LINE
  8
2
  6
CONTINUOUS
 62
3
 10
725.8750235939
 20
251.8747804973
 11
725.8750235939
 21
140.7747804973
  0
LINE
  8
2
  6
CONTINUOUS
 62
3
 10
725.4691335882
 20
252.5392465913
 11
725.4691335882
 21
251.8747804973
  0
LINE
  8
2
  6
CONTINUOUS
 62
3
 10
796.4691335882
 20
141.4032076220
 11
796.4691335882
 21
138.5747804973
  0
LINE
  8
2
  6
CONTINUOUS
 62
3
 10
726.4691335882
 20
256.0747804973
 11
726.4691335882
 21
256.0461222304
  0
LINE
  8
2
  6
CONTINUOUS
 62
3
 10
726.4691335882
 20
256.0747804973
 11
794.4691335882
 21
256.0747804973
  0
ARC
  8
2
  6
CONTINUOUS
 62
3
 10
794.4691335882
 20
254.0747804973
 40
2.0000000000
 50
0.0000000000
 51
90.0000000000
  0
LINE
  8
2
  6
CONTINUOUS
 62
3
 10
794.4691335882
 20
136.5747804973
 11
726.4691335882
 21
136.5747804973
  0
LINE
  8
2
  6
CONTINUOUS
 62
3
 10
726.4691335882
 20
136.6034387642
 11
726.4691335882
 21
136.5747804973
  0
ARC
  8
2
  6
CONTINUOUS
 62
3
 10
794.4691335882
 20
138.5747804973
 40
2.0000000000
 50
270.0000000000
 51
0.0000000000
  0
LINE
  8
2
  6
CONTINUOUS
 62
3
 10
725.8750235939
 20
140.7747804973
 11
724.9097679123
 21
140.7747804973
  0
LINE
  8
2
  6
CONTINUOUS
 62
3
 10
724.9097679123
 20
251.8747804973
 11
725.8750235939
 21
251.8747804973
  0
LINE
  8
2
  6
CONTINUOUS
 62
3
 10
717.8691335882
 20
193.6247804973
 11
716.1222599457
 21
193.6247804973
  0
LINE
  8
2
  6
CONTINUOUS
 62
3
 10
717.8691335882
 20
193.6247804973
 11
717.8691335882
 21
199.0247804973
  0
LINE
  8
2
  6
CONTINUOUS
 62
3
 10
717.8691335882
 20
199.0247804973
 11
716.1222599457
 21
199.0247804973
  0
LINE
  8
2
  6
CONTINUOUS
 62
3
 10
716.1222599457
 20
140.7747804973
 11
724.9097679123
 21
140.7747804973
  0
LINE
  8
2
  6
CONTINUOUS
 62
3
 10
724.9097679123
 20
251.8747804973
 11
716.1222599457
 21
251.8747804973
  0
ARC
  8
2
  6
CONTINUOUS
 62
3
 10
726.4691335882
 20
137.5747804973
 40
1.0000000000
 50
180.0000000000
 51
270.0000000000
  0
ARC
  8
2
  6
CONTINUOUS
 62
3
 10
726.4691335882
 20
255.0747804973
 40
1.0000000000
 50
90.0000000000
 51
180.0000000000
  0
LINE
  8
2
  6
CONTINUOUS
 62
3
 10
716.1222599457
 20
140.7747804973
 11
711.4691335882
 21
140.7747804973
  0
LINE
  8
2
  6
CONTINUOUS
 62
3
 10
711.4691335882
 20
193.6247804973
 11
716.1222599457
 21
193.6247804973
  0
LINE
  8
2
  6
CONTINUOUS
 62
3
 10
711.4691335882
 20
199.0247804973
 11
716.1222599457
 21
199.0247804973
  0
LINE
  8
2
  6
CONTINUOUS
 62
3
 10
711.4691335882
 20
251.8747804973
 11
716.1222599457
 21
251.8747804973
  0
LINE
  8
2
  6
CONTINUOUS
 62
3
 10
816.8678274936
 20
256.0747804973
 11
826.5394003689
 21
256.0747804973
  0
LINE
  8
2
  6
CONTINUOUS
 62
3
 10
826.5394003689
 20
136.5747804973
 11
816.8678274936
 21
136.5747804973
  0
LINE
  8
2
  6
CONTINUOUS
 62
3
 10
826.5394003689
 20
256.0747804973
 11
826.5394003689
 21
202.3247804977
  0
LINE
  8
2
  6
CONTINUOUS
 62
3
 10
826.5394003689
 20
190.3247804977
 11
826.5394003689
 21
136.5747804973
  0
LINE
  8
2
  6
CONTINUOUS
 62
3
 10
815.4536139313
 20
137.1605669349
 11
812.6251868065
 21
139.9889940597
  0
ARC
  8
2
  6
CONTINUOUS
 62
3
 10
816.8678274936
 20
138.5747804973
 40
2.0000000000
 50
225.0000000000
 51
270.0000000000
  0
ARC
  8
2
  6
CONTINUOUS
 62
3
 10
816.8678274936
 20
254.0747804973
 40
2.0000000000
 50
90.0000000000
 51
135.0000000000
  0
LINE
  8
2
  6
CONTINUOUS
 62
3
 10
812.6251868065
 20
252.6605669349
 11
815.4536139313
 21
255.4889940597
  0
LINE
  8
2
  6
CONTINUOUS
 62
3
 10
812.0394003689
 20
210.4247804968
 11
812.0394003689
 21
251.2463533726
  0
LINE
  8
2
  6
CONTINUOUS
 62
3
 10
812.0394003689
 20
141.4032076220
 11
812.0394003689
 21
182.2247804968
  0
ARC
  8
2
  6
CONTINUOUS
 62
3
 10
814.0394003689
 20
141.4032076220
 40
2.0000000000
 50
180.0000000000
 51
225.0000000000
  0
ARC
  8
2
  6
CONTINUOUS
 62
3
 10
814.0394003689
 20
251.2463533726
 40
2.0000000000
 50
135.0000000000
 51
180.0000000000
  0
LINE
  8
2
  6
CONTINUOUS
 62
3
 10
827.0394005924
 20
254.5747804973
 11
826.5394003689
 21
254.5747804973
  0
LINE
  8
2
  6
CONTINUOUS
 62
3
 10
827.0394005924
 20
138.0747804973
 11
826.5394003689
 21
138.0747804973
  0
LINE
  8
2
  6
CONTINUOUS
 62
3
 10
725.4691335882
 20
272.5612131022
 11
725.4691335882
 21
272.9032098274
  0
LINE
  8
2
  6
CONTINUOUS
 62
3
 10
726.4691335882
 20
272.9032098274
 11
725.4691335882
 21
272.9032098274
  0
LINE
  8
2
  6
CONTINUOUS
 62
3
 10
728.8833471506
 20
268.6605691403
 11
725.4691335882
 21
272.0747827027
  0
LINE
  8
2
  6
CONTINUOUS
 62
3
 10
725.4691335882
 20
272.0747827027
 11
725.4691335882
 21
272.5612131022
  0
LINE
  8
2
  6
CONTINUOUS
 62
3
 10
726.4691335882
 20
272.9032098274
 11
794.4691335883
 21
272.9032098274
  0
LINE
  8
2
  6
CONTINUOUS
 62
3
 10
794.4691335883
 20
282.5747827027
 11
726.4691335882
 21
282.5747827027
  0
LINE
  8
2
  6
CONTINUOUS
 62
3
 10
796.4691335883
 20
280.5747827027
 11
796.4691335883
 21
272.9032098274
  0
LINE
  8
2
  6
CONTINUOUS
 62
3
 10
796.4691335883
 20
272.9032098274
 11
794.4691335883
 21
272.9032098274
  0
ARC
  8
2
  6
CONTINUOUS
 62
3
 10
794.4691335883
 20
280.5747827027
 40
2.0000000000
 50
0.0000000000
 51
90.0000000000
  0
LINE
  8
2
  6
CONTINUOUS
 62
3
 10
725.4691335882
 20
272.9032098274
 11
725.4691335882
 21
282.5747827027
  0
LINE
  8
2
  6
CONTINUOUS
 62
3
 10
725.4691335882
 20
282.5747827027
 11
726.4691335882
 21
282.5747827027
  0
LINE
  8
2
  6
CONTINUOUS
 62
3
 10
796.4691335883
 20
272.9032098274
 11
796.4691335883
 21
270.0747827027
  0
LINE
  8
2
  6
HIDDEN
 62
3
 10
726.9691335883
 20
283.5747827027
 11
791.4691335883
 21
283.5747827027
  0
LINE
  8
2
  6
HIDDEN
 62
3
 10
791.4691335883
 20
283.5747827027
 11
791.4691335883
 21
283.0747829262
  0
LINE
  8
2
  6
CONTINUOUS
 62
3
 10
791.4691335883
 20
283.0747829262
 11
791.4691335883
 21
282.5747827027
  0
LINE
  8
2
  6
HIDDEN
 62
3
 10
726.9691335883
 20
283.5747827027
 11
726.9691335883
 21
283.0747829262
  0
LINE
  8
2
  6
CONTINUOUS
 62
3
 10
726.9691335883
 20
283.0747829262
 11
726.9691335883
 21
282.5747827027
  0
ARC
  8
2
  6
CONTINUOUS
 62
3
 10
794.4691335883
 20
270.0747827027
 40
2.0000000000
 50
270.0000000000
 51
0.0000000000
  0
LINE
  8
2
  6
CONTINUOUS
 62
3
 10
794.4691335883
 20
268.0747827027
 11
732.4188810565
 21
268.0747827027
  0
LINE
  8
2
  6
CONTINUOUS
 62
3
 10
730.2975607130
 20
268.0747827027
 11
732.4188810565
 21
268.0747827027
  0
ARC
  8
2
  6
CONTINUOUS
 62
3
 10
730.2975607130
 20
270.0747827027
 40
2.0000000000
 50
225.0000000000
 51
270.0000000000
  0
CIRCLE
  8
2
  6
CONTINUOUS
 62
3
 10
717.4691335883
 20
280.0747827027
 40
2.0000000000
  0
ARC
  8
2
  6
CONTINUOUS
 62
3
 10
724.4608100315
 20
270.2546791346
 40
2.0000000000
 50
45.0000000000
 51
77.0277601138
  0
LINE
  8
2
  6
CONTINUOUS
 62
3
 10
724.9097679124
 20
272.2036370155
 11
716.1222599457
 21
274.2279090602
  0
ARC
  8
2
  6
HIDDEN
 62
3
 10
717.4691335883
 20
280.0747827027
 40
6.0000000000
 50
24.6243183522
 51
180.0000000000
  0
LINE
  8
2
  6
CONTINUOUS
 62
3
 10
725.4691335882
 20
282.5747827027
 11
722.9234896456
 21
282.5747827027
  0
LINE
  8
2
  6
HIDDEN
 62
3
 10
790.4691335883
 20
283.5747827027
 11
790.4691335883
 21
270.0747827027
  0
LINE
  8
2
  6
HIDDEN
 62
3
 10
727.9691335883
 20
283.5747827027
 11
727.9691335883
 21
272.4031827027
  0
LINE
  8
2
  6
HIDDEN
 62
3
 10
727.9691335883
 20
272.4031827027
 11
728.4084734165
 21
271.9638428745
  0
LINE
  8
2
  6
HIDDEN
 62
3
 10
728.4084734165
 20
271.9638428745
 11
730.2975335883
 21
270.0747827027
  0
LINE
  8
2
  6
HIDDEN
 62
3
 10
730.2975335883
 20
270.0747827027
 11
790.4691335883
 21
270.0747827027
  0
LINE
  8
2
  6
HIDDEN
 62
3
 10
713.4691335881
 20
284.5469186576
 11
713.4691335881
 21
280.0747827027
  0
LINE
  8
2
  6
HIDDEN
 62
3
 10
724.4691335881
 20
273.9628029859
 11
724.4691335881
 21
282.5747827027
  0
ARC
  8
2
  6
HIDDEN
 62
3
 10
717.4691335883
 20
280.0747827027
 40
4.0000000001
 50
180.0000000000
 51
254.3699999996
  0
LINE
  8
2
  6
HIDDEN
 62
3
 10
716.3914372103
 20
276.2226961878
 11
724.4691335881
 21
273.9628029859
  0
LINE
  8
2
  6
HIDDEN
 62
3
 10
737.4691335882
 20
268.2747827027
 11
735.4691335882
 21
268.2747827027
  0
LINE
  8
2
  6
HIDDEN
 62
3
 10
735.4691335882
 20
268.2747827027
 11
735.4691335882
 21
268.0747827027
  0
LINE
  8
2
  6
HIDDEN
 62
3
 10
758.4691335882
 20
268.2747827027
 11
737.4691335882
 21
268.2747827027
  0
LINE
  8
2
  6
HIDDEN
 62
3
 10
760.4691335882
 20
268.2747827027
 11
760.4691335882
 21
268.0747827027
  0
LINE
  8
2
  6
HIDDEN
 62
3
 10
760.4691335882
 20
268.2747827027
 11
758.4691335882
 21
268.2747827027
  0
LINE
  8
2
  6
HIDDEN
 62
3
 10
717.8691335883
 20
275.8092817881
 11
717.8691335883
 21
273.8255028839
  0
ARC
  8
2
  6
HIDDEN
 62
3
 10
770.3691335883
 20
270.0747827023
 40
2.0000000000
 50
270.0000000000
 51
359.9999999995
  0
LINE
  8
2
  6
HIDDEN
 62
3
 10
769.4691335872
 20
270.0747827027
 11
769.4691335872
 21
275.5747827027
  0
LINE
  8
2
  6
HIDDEN
 62
3
 10
769.4691335872
 20
275.5747827027
 11
790.4691335882
 21
275.5747827027
  0
LINE
  8
2
  6
HIDDEN
 62
3
 10
794.9691335883
 20
282.5112743758
 11
794.9691335883
 21
281.4408081065
  0
LINE
  8
2
  6
HIDDEN
 62
3
 10
794.9691335883
 20
281.4408081065
 11
794.9691335883
 21
274.4747827027
  0
ARC
  8
2
  6
HIDDEN
 62
3
 10
793.9691335883
 20
274.4747827027
 40
1.0000000000
 50
270.0000000000
 51
0.0000000000
  0
LINE
  8
2
  6
HIDDEN
 62
3
 10
772.3691335883
 20
273.4747827023
 11
772.3691335883
 21
270.0747827023
  0
LINE
  8
2
  6
HIDDEN
 62
3
 10
772.3691335892
 20
273.4747827023
 11
793.9691335883
 21
273.4747826954
  0
LINE
  8
2
  6
HIDDEN
 62
3
 10
782.2691335872
 20
277.5747827027
 11
782.2691335872
 21
275.5747827034
  0
LINE
  8
2
  6
HIDDEN
 62
3
 10
782.2691335756
 20
277.5747827027
 11
787.4691335883
 21
277.5747827018
  0
LINE
  8
2
  6
HIDDEN
 62
3
 10
790.4691335883
 20
278.5747827027
 11
787.4691335883
 21
278.5747827027
  0
LINE
  8
2
  6
HIDDEN
 62
3
 10
796.4691335883
 20
272.9032098274
 11
794.4691335883
 21
272.9032098274
  0
LINE
  8
2
  6
HIDDEN
 62
3
 10
725.4691335882
 20
272.9032098274
 11
726.4691335882
 21
272.9032098274
  0
LINE
  8
2
  6
HIDDEN
 62
3
 10
794.4691335883
 20
272.9032098274
 11
726.4691335882
 21
272.9032098274
  0
LINE
  8
2
  6
CONTINUOUS
 62
3
 10
725.4691335883
 20
115.5747782920
 11
728.8833471506
 21
118.9889918543
  0
LINE
  8
2
  6
CONTINUOUS
 62
3
 10
725.4691335882
 20
115.0883478924
 11
725.4691335882
 21
115.5747782919
  0
LINE
  8
2
  6
CONTINUOUS
 62
3
 10
725.4691335882
 20
114.7463511672
 11
726.4691335882
 21
114.7463511672
  0
LINE
  8
2
  6
CONTINUOUS
 62
3
 10
725.4691335882
 20
114.7463511672
 11
725.4691335882
 21
115.0883478924
  0
LINE
  8
2
  6
CONTINUOUS
 62
3
 10
794.4691335882
 20
114.7463511672
 11
726.4691335882
 21
114.7463511672
  0
LINE
  8
2
  6
CONTINUOUS
 62
3
 10
794.4691335882
 20
105.0747782919
 11
726.4691335882
 21
105.0747782919
  0
LINE
  8
2
  6
CONTINUOUS
 62
3
 10
796.4691335882
 20
114.7463511672
 11
796.4691335882
 21
107.0747782919
  0
LINE
  8
2
  6
CONTINUOUS
 62
3
 10
796.4691335882
 20
114.7463511672
 11
794.4691335882
 21
114.7463511672
  0
ARC
  8
2
  6
CONTINUOUS
 62
3
 10
794.4691335882
 20
107.0747782919
 40
2.0000000000
 50
270.0000000000
 51
0.0000000000
  0
LINE
  8
2
  6
CONTINUOUS
 62
3
 10
725.4691335882
 20
105.0747782919
 11
725.4691335882
 21
114.7463511672
  0
LINE
  8
2
  6
CONTINUOUS
 62
3
 10
726.4691335882
 20
105.0747782919
 11
725.4691335882
 21
105.0747782919
  0
LINE
  8
2
  6
CONTINUOUS
 62
3
 10
796.4691335882
 20
117.5747782919
 11
796.4691335882
 21
114.7463511672
  0
LINE
  8
2
  6
CONTINUOUS
 62
3
 10
726.9691335882
 20
104.5747780684
 11
726.9691335882
 21
105.0747782919
  0
LINE
  8
2
  6
CONTINUOUS
 62
3
 10
791.4691335882
 20
104.5747780684
 11
791.4691335882
 21
105.0747782919
  0
ARC
  8
2
  6
CONTINUOUS
 62
3
 10
794.4691335882
 20
117.5747782919
 40
2.0000000000
 50
0.0000000000
 51
90.0000000000
  0
ARC
  8
2
  6
CONTINUOUS
 62
3
 10
730.2975607129
 20
117.5747782919
 40
2.0000000000
 50
90.0000000000
 51
135.0000000000
  0
LINE
  8
2
  6
CONTINUOUS
 62
3
 10
732.4188810565
 20
119.5747782919
 11
730.2975607129
 21
119.5747782919
  0
LINE
  8
2
  6
CONTINUOUS
 62
3
 10
732.4188810565
 20
119.5747782919
 11
794.4691335882
 21
119.5747782919
  0
CIRCLE
  8
2
  6
CONTINUOUS
 62
3
 10
717.4691335882
 20
107.5747782919
 40
2.0000000000
  0
LINE
  8
2
  6
CONTINUOUS
 62
3
 10
716.1222599457
 20
113.4216519344
 11
724.9097679123
 21
115.4459239791
  0
ARC
  8
2
  6
CONTINUOUS
 62
3
 10
724.4608100315
 20
117.3948818600
 40
2.0000000000
 50
282.9722398862
 51
315.0000000000
  0
LINE
  8
2
  6
CONTINUOUS
 62
3
 10
723.4691336404
 20
105.0747782919
 11
725.4691335882
 21
105.0747782919
  0
LINE
  8
2
  6
CONTINUOUS
 62
3
 10
769.4691335882
 20
119.5747782919
 11
781.4691335882
 21
119.5747782919
  0
LINE
  8
2
  6
CONTINUOUS
 62
3
 10
781.4691335882
 20
119.5747782919
 11
794.4691335882
 21
119.5747782919
  0
LINE
  8
2
  6
CONTINUOUS
 62
3
 10
794.9691335882
 20
208.4247804973
 11
794.9691335882
 21
207.3247804973
  0
LINE
  8
2
  6
CONTINUOUS
 62
3
 10
794.9691335882
 20
185.3247804973
 11
794.9691335882
 21
184.2247804973
  0
LINE
  8
2
  6
CONTINUOUS
 62
3
 10
781.4691335882
 20
208.4247804973
 11
795.4691335882
 21
208.4247804973
  0
ARC
  8
2
  6
CONTINUOUS
 62
3
 10
795.4691335882
 20
209.4247804973
 40
1.0000000000
 50
270.0000000000
 51
0.0000000000
  0
LINE
  8
2
  6
CONTINUOUS
 62
3
 10
781.4691335882
 20
184.2247804973
 11
795.4691335882
 21
184.2247804973
  0
ARC
  8
2
  6
CONTINUOUS
 62
3
 10
795.4691335882
 20
183.2247804973
 40
1.0000000000
 50
0.0000000000
 51
90.0000000000
  0
ARC
  8
2
  6
CONTINUOUS
 62
6
 10
739.0697095042
 20
196.3247804973
 40
60.9994240841
 50
351.3115966921
 51
8.6884033079
  0
ARC
  8
2
  6
CONTINUOUS
 62
6
 10
798.2299232497
 20
186.3247804973
 40
1.0000000000
 50
270.0000000000
 51
350.4058388122
  0
ARC
  8
2
  6
CONTINUOUS
 62
6
 10
798.2299232497
 20
206.3247804973
 40
1.0000000000
 50
9.5941611878
 51
90.0000000000
  0
ARC
  8
2
  6
CONTINUOUS
 62
6
 10
739.0697095042
 20
196.3247804973
 40
60.9994240841
 50
8.6884033079
 51
9.5941611878
  0
ARC
  8
2
  6
CONTINUOUS
 62
6
 10
739.0697095042
 20
196.3247804973
 40
60.9994240841
 50
350.4058388122
 51
351.3115966921
  0
LINE
  8
2
  6
CONTINUOUS
 62
6
 10
787.5691335943
 20
203.3247804981
 11
785.5691335737
 21
203.3247805013
  0
LINE
  8
2
  6
CONTINUOUS
 62
6
 10
785.5691335737
 20
203.3247805013
 11
785.5691335739
 21
204.3247804965
  0
LINE
  8
2
  6
CONTINUOUS
 62
6
 10
785.5691335739
 20
201.3247804965
 11
785.5691335721
 21
202.3247804965
  0
LINE
  8
2
  6
CONTINUOUS
 62
6
 10
785.5691335755
 20
202.3247804990
 11
787.5691335935
 21
202.3247804973
  0
LINE
  8
2
  6
CONTINUOUS
 62
6
 10
787.5691335943
 20
203.3247804981
 11
787.5691335944
 21
204.3247804981
  0
LINE
  8
2
  6
CONTINUOUS
 62
6
 10
787.5691335944
 20
201.3247804981
 11
787.5691335952
 21
202.3247804981
  0
POINT
  8
2
  6
CONTINUOUS
 62
6
 10
786.5691335883
 20
202.8247804941
  0
LINE
  8
2
  6
CONTINUOUS
 62
6
 10
790.8191335884
 20
201.3247804941
 11
790.8191335884
 21
201.5747804732
  0
LINE
  8
2
  6
CONTINUOUS
 62
6
 10
790.8191335884
 20
202.0747804969
 11
790.8191335884
 21
203.5747804884
  0
LINE
  8
2
  6
CONTINUOUS
 62
6
 10
790.8191335884
 20
204.0747805009
 11
790.8191335884
 21
204.3247804941
  0
LINE
  8
2
  6
CONTINUOUS
 62
6
 10
790.8191335868
 20
204.3247804941
 11
793.0691335874
 21
204.3247804941
  0
LINE
  8
2
  6
CONTINUOUS
 62
6
 10
793.0691335874
 20
204.3247804941
 11
793.0691335874
 21
201.3247804941
  0
LINE
  8
2
  6
CONTINUOUS
 62
6
 10
793.0691335874
 20
201.3247804941
 11
790.8191335868
 21
201.3247804941
  0
ARC
  8
2
  6
CONTINUOUS
 62
6
 10
790.3191335894
 20
202.8247804941
 40
0.7500000000
 50
90.0000000000
 51
270.0000000000
  0
ARC
  8
2
  6
CONTINUOUS
 62
6
 10
790.3191335894
 20
202.8247804941
 40
1.2500000000
 50
90.0000000000
 51
270.0000000000
  0
LINE
  8
2
  6
CONTINUOUS
 62
6
 10
790.3191335878
 20
202.0747804941
 11
790.8191335884
 21
202.0747804969
  0
LINE
  8
2
  6
CONTINUOUS
 62
6
 10
790.3191335878
 20
201.5747804941
 11
790.8191335884
 21
201.5747804732
  0
LINE
  8
2
  6
CONTINUOUS
 62
6
 10
790.3191335878
 20
203.5747804941
 11
790.8191335884
 21
203.5747804884
  0
LINE
  8
2
  6
CONTINUOUS
 62
6
 10
790.3191335878
 20
204.0747804941
 11
790.8191335884
 21
204.0747805009
  0
LINE
  8
2
  6
CONTINUOUS
 62
6
 10
781.8191335797
 20
204.3247804973
 11
781.8191335797
 21
204.0747805053
  0
LINE
  8
2
  6
CONTINUOUS
 62
6
 10
781.8191335797
 20
203.5747804955
 11
781.8191335797
 21
201.3247804973
  0
LINE
  8
2
  6
CONTINUOUS
 62
6
 10
781.8191335797
 20
201.3247804973
 11
784.0691335787
 21
201.3247804973
  0
LINE
  8
2
  6
CONTINUOUS
 62
6
 10
784.0691335787
 20
201.3247804973
 11
784.0691335787
 21
204.3247804973
  0
LINE
  8
2
  6
CONTINUOUS
 62
6
 10
784.0691335787
 20
204.3247804973
 11
781.8191335797
 21
204.3247804973
  0
ARC
  8
2
  6
CONTINUOUS
 62
6
 10
781.3191335806
 20
204.8247804973
 40
0.7500000000
 50
89.9999999999
 51
269.9999999999
  0
ARC
  8
2
  6
CONTINUOUS
 62
6
 10
781.3191335806
 20
204.8247804973
 40
1.2500000000
 50
89.9999999999
 51
269.9999999999
  0
LINE
  8
2
  6
CONTINUOUS
 62
6
 10
781.3191335806
 20
203.5747804973
 11
781.8191335796
 21
203.5747804955
  0
LINE
  8
2
  6
CONTINUOUS
 62
6
 10
781.3191335806
 20
204.0747804973
 11
781.8191335797
 21
204.0747805053
  0
LINE
  8
2
  6
CONTINUOUS
 62
6
 10
781.3191335806
 20
205.5747804973
 11
781.8191335797
 21
205.5747804973
  0
LINE
  8
2
  6
CONTINUOUS
 62
6
 10
781.3191335806
 20
206.0747804973
 11
781.8191335797
 21
206.0747804973
  0
LINE
  8
2
  6
CONTINUOUS
 62
6
 10
781.8191335797
 20
206.0747804973
 11
781.8191335797
 21
205.5747804973
  0
LINE
  8
2
  6
CONTINUOUS
 62
6
 10
788.5691335978
 20
202.8247804973
 11
787.5691335944
 21
204.3247804981
  0
LINE
  8
2
  6
CONTINUOUS
 62
6
 10
788.5691335978
 20
202.8247804973
 11
787.5691335944
 21
201.3247804981
  0
LINE
  8
2
  6
CONTINUOUS
 62
6
 10
784.5691335787
 20
202.8247804973
 11
785.5691335821
 21
201.3247804981
  0
LINE
  8
2
  6
CONTINUOUS
 62
6
 10
784.5691335787
 20
202.8247804973
 11
785.5691335821
 21
204.3247804981
  0
ARC
  8
2
  6
CONTINUOUS
 62
6
 10
781.9691335883
 20
193.8247804973
 40
8.5000000000
 50
180.0000000000
 51
270.0000000000
  0
LINE
  8
2
  6
CONTINUOUS
 62
6
 10
773.4691335883
 20
198.8247804973
 11
773.4691335883
 21
193.8247804973
  0
ARC
  8
2
  6
CONTINUOUS
 62
6
 10
781.9691335883
 20
198.8247804973
 40
8.5000000000
 50
90.0000000000
 51
180.0000000000
  0
LINE
  8
2
  6
CONTINUOUS
 62
6
 10
798.2299232497
 20
207.3247804973
 11
781.9691335883
 21
207.3247804973
  0
LINE
  8
2
  6
CONTINUOUS
 62
6
 10
781.9691335883
 20
185.3247804973
 11
798.2299232497
 21
185.3247804973
  0
LINE
  8
2
  6
CONTINUOUS
 62
6
 10
783.4691335883
 20
198.3247804973
 11
789.6691335883
 21
198.3247804973
  0
LINE
  8
2
  6
CONTINUOUS
 62
6
 10
789.6691335883
 20
198.3247804973
 11
789.6691335883
 21
194.3247804973
  0
LINE
  8
2
  6
CONTINUOUS
 62
6
 10
789.6691335883
 20
194.3247804973
 11
783.4691335883
 21
194.3247804973
  0
LINE
  8
2
  6
CONTINUOUS
 62
6
 10
783.4691335883
 20
194.3247804973
 11
783.4691335883
 21
198.3247804973
  0
LINE
  8
2
  6
CONTINUOUS
 62
6
 10
784.3691335883
 20
198.3247804973
 11
784.3691335883
 21
194.3247804973
  0
LINE
  8
2
  6
CONTINUOUS
 62
6
 10
785.5691335883
 20
194.3247804973
 11
785.5691335883
 21
198.3247804973
  0
LINE
  8
2
  6
CONTINUOUS
 62
6
 10
786.4691335883
 20
194.3247804973
 11
786.4691335883
 21
198.3247804973
  0
INSERT
  8
2
  6
CONTINUOUS
 62
6
  2
*X0
 10
783.4691335883
 20
198.3247804973
  0
INSERT
  8
2
  6
CONTINUOUS
 62
6
  2
*X1
 10
785.5691335882
 20
198.3247804973
  0
TEXT
  8
2
  6
CONTINUOUS
 62
6
 10
797.419134
 20
191.938841
 40
3.500000
  1
CLOSE
 41
0.786164
 50
90.000000
 51
0.000000
 72
   5
 73
   0
 11
797.419134
 21
200.688841
  0
TEXT
  8
2
  6
CONTINUOUS
 62
6
 10
779.219134
 20
192.813841
 40
3.500000
  1
OPEN
 41
0.796813
 50
90.000000
 51
0.000000
 72
   5
 73
   0
 11
779.219134
 21
199.813841
  0
ARC
  8
2
  6
CONTINUOUS
 62
3
 10
781.9691335883
 20
198.8247804973
 40
9.6000000000
 50
90.0000000000
 51
180.0000000000
  0
LINE
  8
2
  6
CONTINUOUS
 62
3
 10
772.3691335883
 20
198.8247804973
 11
772.3691335883
 21
193.8247804973
  0
ARC
  8
2
  6
CONTINUOUS
 62
3
 10
781.9691335883
 20
193.8247804973
 40
9.6000000000
 50
180.0000000000
 51
270.0000000000
  0
LINE
  8
2
  6
CONTINUOUS
 62
3
 10
825.4689340996
 20
208.4247804968
 11
824.5394003689
 21
208.4247804968
  0
ARC
  8
2
  6
CONTINUOUS
 62
3
 10
825.5104662008
 20
209.4532708002
 40
1.0293285285
 50
267.6875601889
 51
358.4139343022
  0
LINE
  8
2
  6
CONTINUOUS
 62
3
 10
824.5394003689
 20
208.4247804968
 11
814.0394003689
 21
208.4247804968
  0
ARC
  8
2
  6
CONTINUOUS
 62
3
 10
814.0394003689
 20
210.4247804968
 40
2.0000000000
 50
180.0000000000
 51
270.0000000000
  0
LINE
  8
2
  6
CONTINUOUS
 62
3
 10
817.5394003689
 20
184.2247804968
 11
817.5394003689
 21
190.2389940597
  0
LINE
  8
2
  6
CONTINUOUS
 62
3
 10
817.5394003689
 20
202.4105669357
 11
817.5394003689
 21
208.4247804968
  0
LINE
  8
2
  6
CONTINUOUS
 62
3
 10
825.4689340996
 20
184.2247804968
 11
824.5394003689
 21
184.2247804968
  0
ARC
  8
2
  6
CONTINUOUS
 62
3
 10
825.5104662008
 20
183.1962901935
 40
1.0293285285
 50
1.5860656978
 51
92.3124398111
  0
LINE
  8
2
  6
CONTINUOUS
 62
3
 10
824.5394003689
 20
184.2247804968
 11
814.0394003689
 21
184.2247804968
  0
ARC
  8
2
  6
CONTINUOUS
 62
3
 10
814.0394003689
 20
182.2247804968
 40
2.0000000000
 50
90.0000000000
 51
180.0000000000
  0
LINE
  8
2
  6
CONTINUOUS
 62
6
 10
817.0394003688
 20
202.3247804977
 11
813.4831415738
 21
202.3247804977
  0
LINE
  8
2
  6
CONTINUOUS
 62
6
 10
818.5394003688
 20
203.8247804980
 11
818.5394003688
 21
207.4247804977
  0
LINE
  8
2
  6
CONTINUOUS
 62
6
 10
818.5394003688
 20
207.4247804977
 11
820.5394003688
 21
207.4247804977
  0
LINE
  8
2
  6
CONTINUOUS
 62
6
 10
820.5394003688
 20
203.8247804977
 11
820.5394003688
 21
207.4247804977
  0
LINE
  8
2
  6
CONTINUOUS
 62
6
 10
812.0394003689
 20
185.3247804977
 11
812.0394003689
 21
207.3247804969
  0
LINE
  8
2
  6
CONTINUOUS
 62
6
 10
813.4831415738
 20
185.3247804978
 11
812.0394003689
 21
185.3247804977
  0
LINE
  8
2
  6
CONTINUOUS
 62
6
 10
813.4831415738
 20
207.3247804977
 11
812.0394003689
 21
207.3247804969
  0
LINE
  8
2
  6
CONTINUOUS
 62
6
 10
813.4831415738
 20
207.3247804977
 11
813.4831415738
 21
185.3247804825
  0
LINE
  8
2
  6
CONTINUOUS
 62
6
 10
817.0394003688
 20
190.3247804977
 11
813.4831415738
 21
190.3247804977
  0
LINE
  8
2
  6
CONTINUOUS
 62
6
 10
818.5394003688
 20
188.8247804974
 11
818.5394003688
 21
185.2247804977
  0
LINE
  8
2
  6
CONTINUOUS
 62
6
 10
818.5394003688
 20
185.2247804977
 11
820.5394003688
 21
185.2247804977
  0
LINE
  8
2
  6
CONTINUOUS
 62
6
 10
820.5394003688
 20
188.8247804978
 11
820.5394003688
 21
185.2247804977
  0
LINE
  8
2
  6
CONTINUOUS
 62
6
 10
822.0394003688
 20
202.3247804977
 11
831.8394003688
 21
202.3247804977
  0
LINE
  8
2
  6
CONTINUOUS
 62
6
 10
831.8394003688
 20
202.3247804977
 11
831.8394003688
 21
190.3247804977
  0
LINE
  8
2
  6
CONTINUOUS
 62
6
 10
822.0394003689
 20
190.3247804977
 11
831.8394003688
 21
190.3247804977
  0
LINE
  8
2
  6
CONTINUOUS
 62
6
 10
813.4831415738
 20
197.3247804977
 11
830.8443717142
 21
197.3247804977
  0
LINE
  8
2
  6
CONTINUOUS
 62
6
 10
830.8443717142
 20
197.3247804977
 11
830.8443717142
 21
195.3247804977
  0
LINE
  8
2
  6
CONTINUOUS
 62
6
 10
830.8443717142
 20
195.3247804977
 11
813.4831415738
 21
195.3247804977
  0
LINE
  8
2
  6
CONTINUOUS
 62
6
 10
829.2024451756
 20
197.3247804977
 11
829.2024451756
 21
195.3247804977
  0
ARC
  8
2
  6
CONTINUOUS
 62
6
 10
817.0394003688
 20
203.8247804980
 40
1.5000000000
 50
270.0000000000
 51
0.0000000000
  0
ARC
  8
2
  6
CONTINUOUS
 62
6
 10
822.0394003688
 20
203.8247804977
 40
1.5000000000
 50
180.0000000000
 51
270.0000000000
  0
ARC
  8
2
  6
CONTINUOUS
 62
6
 10
817.0394003688
 20
188.8247804974
 40
1.5000000000
 50
0.0000000000
 51
90.0000000000
  0
ARC
  8
2
  6
CONTINUOUS
 62
6
 10
822.0394003689
 20
188.8247804978
 40
1.5000000000
 50
90.0000000000
 51
180.0000000000
  0
LINE
  8
2
  6
CONTINUOUS
 62
3
 10
788.4691335882
 20
166.5747804973
 11
785.4691335882
 21
166.5747804973
  0
LINE
  8
2
  6
CONTINUOUS
 62
3
 10
789.4691335882
 20
147.5747804973
 11
789.4691335882
 21
165.5747804973
  0
LINE
  8
2
  6
CONTINUOUS
 62
3
 10
785.4691335882
 20
146.5747804973
 11
788.4691335882
 21
146.5747804973
  0
LINE
  8
2
  6
CONTINUOUS
 62
3
 10
784.4691335882
 20
147.5747804973
 11
784.4691335882
 21
165.5747804973
  0
ARC
  8
2
  6
CONTINUOUS
 62
3
 10
785.4691335882
 20
165.5747804973
 40
1.0000000000
 50
90.0000000000
 51
180.0000000000
  0
ARC
  8
2
  6
CONTINUOUS
 62
3
 10
788.4691335882
 20
165.5747804973
 40
1.0000000000
 50
0.0000000000
 51
90.0000000000
  0
ARC
  8
2
  6
CONTINUOUS
 62
3
 10
788.4691335882
 20
147.5747804973
 40
1.0000000000
 50
270.0000000000
 51
0.0000000000
  0
ARC
  8
2
  6
CONTINUOUS
 62
3
 10
785.4691335882
 20
147.5747804973
 40
1.0000000000
 50
180.0000000000
 51
270.0000000000
  0
TEXT
  8
2
  6
CONTINUOUS
 62
3
 10
788.719134
 20
148.324780
 40
3.500000
  1
MADOKA
 41
1.224490
 50
90.000000
 51
0.000000
 72
   5
 73
   0
 11
788.719134
 21
164.824780
  0
LINE
  8
2
  6
CONTINUOUS
 62
3
 10
812.0394003689
 20
210.4247804968
 11
812.0394003689
 21
182.2247804968
  0
LINE
  8
2
  6
HIDDEN
 62
3
 10
787.4691335883
 20
278.5747827027
 11
787.4691335883
 21
275.5747827034
  0
LINE
  8
2
  6
DASHDOT
 62
3
 10
717.4691335882
 20
256.0747804973
 11
717.4691335882
 21
136.5747804973
  0
POINT
  8
2
  6
CONTINUOUS
 62
3
 10
717.4691335882
 20
196.3247804973
  0
POINT
  8
2
  6
CONTINUOUS
 62
3
 10
824.0394003688
 20
196.3247804973
  0
LINE
  8
2
  6
CONTINUOUS
 62
6
 10
781.9691335882
 20
119.5747782919
 11
800.0691335883
 21
119.5747782919
  0
LINE
  8
2
  6
CONTINUOUS
 62
6
 10
796.4056252613
 20
118.0747782919
 11
800.0691335883
 21
118.0747782919
  0
LINE
  8
2
  6
CONTINUOUS
 62
6
 10
773.4691335883
 20
119.5747782919
 11
781.9691335882
 21
119.5747782919
  0
LINE
  8
2
  6
CONTINUOUS
 62
6
 10
797.3270912469
 20
111.0747782919
 11
796.4691335882
 21
111.0747782919
  0
LINE
  8
2
  6
CONTINUOUS
 62
6
 10
796.4691335882
 20
113.0747782919
 11
797.1269180413
 21
113.0747782919
  0
LINE
  8
2
  6
CONTINUOUS
 62
6
 10
796.7365391585
 20
116.9751892541
 11
797.1269180413
 21
113.0747782919
  0
LINE
  8
2
  6
CONTINUOUS
 62
6
 10
795.7874557622
 20
101.5882685993
 11
795.7874557622
 21
102.0882685993
  0
LINE
  8
2
  6
CONTINUOUS
 62
6
 10
795.7874557622
 20
102.0882685993
 11
796.7191335882
 21
102.0747782919
  0
LINE
  8
2
  6
CONTINUOUS
 62
6
 10
796.7191335882
 20
102.0747782919
 11
796.2996965582
 21
106.2691485923
  0
LINE
  8
2
  6
CONTINUOUS
 62
6
 10
797.1269180413
 20
113.0747782919
 11
798.4580698589
 21
99.7747782919
  0
LINE
  8
2
  6
CONTINUOUS
 62
6
 10
800.0691335883
 20
119.5747782919
 11
800.0691335883
 21
118.0747782919
  0
LINE
  8
2
  6
CONTINUOUS
 62
6
 10
798.4580698589
 20
99.7747782919
 11
797.4530736757
 21
99.7747782915
  0
ARC
  8
2
  6
CONTINUOUS
 62
6
 10
797.7315678131
 20
117.0747782919
 40
1.0000000000
 50
90.0000000000
 51
185.7155059431
  0
LINE
  8
2
  6
CONTINUOUS
 62
6
 10
797.4530736757
 20
99.7747782915
 11
795.7874557622
 21
101.5882685993
  0
LINE
  8
2
  6
CONTINUOUS
 62
6
 10
798.3584808211
 20
100.7698069465
 11
799.7016402464
 21
102.4117334851
  0
LINE
  8
2
  6
CONTINUOUS
 62
6
 10
799.7016402464
 20
102.4117334851
 11
798.1339793018
 21
118.0747782919
  0
LINE
  8
2
  6
CONTINUOUS
 62
6
 10
781.9691335832
 20
268.0747827027
 11
800.0691335883
 21
268.0747827027
  0
LINE
  8
2
  6
HIDDEN
 62
6
 10
773.4691335832
 20
269.5747827030
 11
796.4056252614
 21
269.5747827030
  0
LINE
  8
2
  6
CONTINUOUS
 62
6
 10
796.4056252614
 20
269.5747827030
 11
800.0691335832
 21
269.5747827030
  0
LINE
  8
2
  6
HIDDEN
 62
6
 10
773.4691335832
 20
269.5747827030
 11
773.4691335832
 21
268.0747827027
  0
LINE
  8
2
  6
CONTINUOUS
 62
6
 10
773.4691335832
 20
268.0747827027
 11
781.9691335832
 21
268.0747827027
  0
LINE
  8
2
  6
HIDDEN
 62
6
 10
795.8191335830
 20
276.5747827030
 11
794.9691335883
 21
276.5747827030
  0
LINE
  8
2
  6
HIDDEN
 62
6
 10
796.4691335883
 20
276.5747827030
 11
795.8191335830
 21
276.5747827030
  0
LINE
  8
2
  6
CONTINUOUS
 62
6
 10
797.3270912417
 20
276.5747827030
 11
796.4691335883
 21
276.5747827030
  0
LINE
  8
2
  6
HIDDEN
 62
6
 10
794.9691335883
 20
274.5747827030
 11
795.6191335831
 21
274.5747827030
  0
LINE
  8
2
  6
HIDDEN
 62
6
 10
795.6191335831
 20
274.5747827030
 11
796.4691335883
 21
274.5747827030
  0
LINE
  8
2
  6
CONTINUOUS
 62
6
 10
796.4691335883
 20
274.5747827030
 11
797.1269180361
 21
274.5747827030
  0
LINE
  8
2
  6
HIDDEN
 62
6
 10
795.2992328393
 20
271.3757752650
 11
795.6191335831
 21
274.5747827030
  0
LINE
  8
2
  6
CONTINUOUS
 62
6
 10
796.7365391534
 20
270.6743717407
 11
797.1269180361
 21
274.5747827030
  0
LINE
  8
2
  6
CONTINUOUS
 62
6
 10
795.7874557568
 20
286.0612923956
 11
795.7874557568
 21
285.5612923956
  0
LINE
  8
2
  6
CONTINUOUS
 62
6
 10
795.7874557568
 20
285.5612923956
 11
796.7191335828
 21
285.5747827029
  0
LINE
  8
2
  6
HIDDEN
 62
6
 10
796.2996965539
 20
281.3804124123
 11
795.8191335830
 21
276.5747827030
  0
LINE
  8
2
  6
CONTINUOUS
 62
6
 10
796.7191335828
 20
285.5747827029
 11
796.2996965539
 21
281.3804124123
  0
LINE
  8
2
  6
CONTINUOUS
 62
6
 10
797.1269180361
 20
274.5747827030
 11
798.4580698534
 21
287.8747827030
  0
LINE
  8
2
  6
CONTINUOUS
 62
6
 10
800.0691335883
 20
268.0747827027
 11
800.0691335832
 21
269.5747827030
  0
LINE
  8
2
  6
CONTINUOUS
 62
6
 10
798.4580698534
 20
287.8747827030
 11
797.4530736703
 21
287.8747827033
  0
ARC
  8
2
  6
HIDDEN
 62
6
 10
793.3091584589
 20
271.5747827030
 40
2.0000000000
 50
270.0000000012
 51
354.2894068626
  0
ARC
  8
2
  6
CONTINUOUS
 62
6
 10
797.7315678080
 20
270.5747827030
 40
1.0000000000
 50
174.2844940570
 51
270.0000000012
  0
LINE
  8
2
  6
CONTINUOUS
 62
6
 10
797.4530736703
 20
287.8747827033
 11
795.7874557568
 21
286.0612923956
  0
LINE
  8
2
  6
CONTINUOUS
 62
6
 10
798.3584808157
 20
286.8797540483
 11
799.7016402410
 21
285.2378275097
  0
LINE
  8
2
  6
CONTINUOUS
 62
6
 10
799.7016402410
 20
285.2378275097
 11
798.1339792968
 21
269.5747827030
  0
DIMENSION
  8
1
  6
CONTINUOUS
 62
5
  2
*D0
 10
701.4179392150
 20
134.5747782919
 11
698.6679392150
 21
196.3247804973
  70
0
 13
711.4641709837
 23
258.0747827027
 14
711.4641709837
 24
134.5747782919
 50
90.000000
  0
DIMENSION
  8
1
  6
CONTINUOUS
 62
5
  2
*D1
 10
797.4691335882
 20
263.0415107393
 11
753.9691335882
 21
265.7915107393
  70
0
 13
710.4691335882
 23
257.0797458071
 14
797.4691335882
 24
257.0797458071
 50
0.000000
  0
DIMENSION
  8
1
  6
CONTINUOUS
 62
5
  2
*D2
 10
800.0691335883
 20
263.0415107393
 11
798.7691335882
 21
265.2915107393
  70
0
 13
797.4691335882
 23
257.0797458071
 14
800.0691335883
 24
196.3247804973
 50
0.000000
  0
DIMENSION
  8
1
  6
CONTINUOUS
 62
5
  2
*D3
 10
701.4179392150
 20
119.5747782919
 11
698.6679392150
 21
107.0747782919
  70
0
 13
710.4691333722
 23
94.5747782919
 14
730.2975607129
 24
119.5747782919
 50
90.000000
  0
INSERT
  8
1
  6
CONTINUOUS
 62
5
  2
LTEX0
 10
785.0226001316
 20
195.0024526531
  0
LINE
  8
1
  6
CONTINUOUS
 62
7
 10
847.1604291601
 20
252.0747817192
 11
859.1604292644
 21
252.0747817192
  0
LINE
  8
1
  6
CONTINUOUS
 62
7
 10
847.1604291601
 20
255.7697928581
 11
847.1604291601
 21
252.0747817192
  0
LINE
  8
1
  6
CONTINUOUS
 62
7
 10
859.1604292644
 20
255.7697928581
 11
859.1604292644
 21
252.0747817192
  0
POLYLINE
  8
1
  6
CONTINUOUS
 62
7
 66
     1
 70
     0
  0
VERTEX
  8
1
 62
7
 10
857.6252284813
 20
136.1098004261
 42
0.0225421746
  0
VERTEX
  8
1
 62
7
 10
856.6959631184
 20
136.2382859850
 42
0.0121462168
  0
VERTEX
  8
1
 62
7
 10
855.3964971898
 20
136.3319464264
 42
0.0122764779
  0
VERTEX
  8
1
 62
7
 10
853.1604292122
 20
136.3847329642
 42
0.0122764779
  0
VERTEX
  8
1
 62
7
 10
850.9243612346
 20
136.3319464264
 42
0.0121462168
  0
VERTEX
  8
1
 62
7
 10
849.6248953061
 20
136.2382859850
 42
0.0228681651
  0
VERTEX
  8
1
 62
7
 10
848.6977264502
 20
136.1102158416
 42
0.0101065848
  0
SEQEND
  8
1
  0
LINE
  8
1
  6
CONTINUOUS
 62
7
 10
859.1604292644
 20
140.5747792754
 11
859.1604292644
 21
136.8797681365
  0
LINE
  8
1
  6
CONTINUOUS
 62
7
 10
847.1604291601
 20
140.5747792754
 11
847.1604291601
 21
136.8797681365
  0
LINE
  8
1
  6
CONTINUOUS
 62
7
 10
847.1604291601
 20
140.5747792754
 11
859.1604292644
 21
140.5747792754
  0
LINE
  8
1
  6
CONTINUOUS
 62
7
 10
858.1604291005
 20
257.1648321185
 11
931.2554406253
 21
257.1648321185
  0
LINE
  8
1
  6
CONTINUOUS
 62
7
 10
847.1554666077
 20
258.0747827027
 11
932.1653949348
 21
258.0747827027
  0
LINE
  8
1
  6
CONTINUOUS
 62
7
 10
858.1604291005
 20
135.4847288761
 11
858.1604291005
 21
135.8847319219
  0
LINE
  8
1
  6
CONTINUOUS
 62
7
 10
931.2554406253
 20
135.4847288761
 11
858.1604291005
 21
135.4847288761
  0
LINE
  8
1
  6
CONTINUOUS
 62
7
 10
847.1554666077
 20
134.5747782919
 11
932.1653949348
 21
134.5747782919
  0
LINE
  8
1
  6
CONTINUOUS
 62
7
 10
848.1604293240
 20
135.8847319219
 11
848.1604293240
 21
135.5797424052
  0
POLYLINE
  8
1
  6
CONTINUOUS
 62
7
 66
     1
 70
     1
  0
VERTEX
  8
1
 10
855.1604292122
 20
135.8747812798
 42
0.1629625566
  0
VERTEX
  8
1
 10
854.9492835943
 20
135.9642242247
 42
0.0228681651
  0
VERTEX
  8
1
 10
854.5746427747
 20
136.0162029931
 42
0.0121462168
  0
VERTEX
  8
1
 10
854.0548564033
 20
136.0536671697
 42
0.0122764779
  0
VERTEX
  8
1
 10
853.1604292122
 20
136.0747817848
 42
0.0122764779
  0
VERTEX
  8
1
 10
852.2660020212
 20
136.0536671697
 42
0.0121462168
  0
VERTEX
  8
1
 10
851.7462156498
 20
136.0162029931
 42
0.0228681651
  0
VERTEX
  8
1
 10
851.3715748301
 20
135.9642242247
 42
0.1629625566
  0
VERTEX
  8
1
 10
851.1604292122
 20
135.8747812798
 42
0.1629625566
  0
VERTEX
  8
1
 10
851.3715748301
 20
135.7853383349
 42
0.0228681651
  0
VERTEX
  8
1
 10
851.7462156498
 20
135.7333595665
 42
0.0121462168
  0
VERTEX
  8
1
 10
852.2660020212
 20
135.6958953899
 42
0.0122764779
  0
VERTEX
  8
1
 10
853.1604292122
 20
135.6747807748
 42
0.0122764779
  0
VERTEX
  8
1
 10
854.0548564033
 20
135.6958953899
 42
0.0121462168
  0
VERTEX
  8
1
 10
854.5746427747
 20
135.7333595665
 42
0.0228681651
  0
VERTEX
  8
1
 10
854.9492835943
 20
135.7853383349
 42
0.1629625566
  0
SEQEND
  8
1
  0
LINE
  8
1
  6
CONTINUOUS
 62
7
 10
924.6604325501
 20
144.5747799311
 11
924.6604325501
 21
248.0747810635
  0
LINE
  8
1
  6
CONTINUOUS
 62
7
 10
921.6604264704
 20
251.0747796926
 11
869.6604291228
 21
251.0747796926
  0
ARC
  8
1
  6
CONTINUOUS
 62
7
 10
869.6604292122
 20
248.0747804973
 40
3.0000000000
 50
90.0000000000
 51
180.0000000000
  0
LINE
  8
1
  6
CONTINUOUS
 62
7
 10
868.1604288769
 20
144.5747799311
 11
868.1604288769
 21
248.0747810635
  0
ARC
  8
1
  6
CONTINUOUS
 62
7
 10
921.6604292122
 20
144.5747804973
 40
3.0000000000
 50
270.0000000000
 51
0.0000000000
  0
LINE
  8
1
  6
CONTINUOUS
 62
7
 10
921.6604264704
 20
249.5747803781
 11
869.6604291228
 21
249.5747803781
  0
ARC
  8
1
  6
CONTINUOUS
 62
7
 10
921.6604292122
 20
248.0747804973
 40
3.0000000000
 50
0.0000000000
 51
90.0000000000
  0
ARC
  8
1
  6
CONTINUOUS
 62
7
 10
869.6604292122
 20
144.5747804973
 40
1.5000000000
 50
180.0000000000
 51
270.0000000000
  0
LINE
  8
1
  6
CONTINUOUS
 62
7
 10
869.6604291228
 20
141.5747813020
 11
921.6604264704
 21
141.5747813020
  0
ARC
  8
1
  6
HIDDEN
 62
7
 10
921.6604292122
 20
248.0747804973
 40
1.5000000000
 50
0.0000000000
 51
90.0000000000
  0
ARC
  8
1
  6
CONTINUOUS
 62
7
 10
869.6604292122
 20
248.0747804973
 40
1.5000000000
 50
90.0000000000
 51
180.0000000000
  0
LINE
  8
1
  6
CONTINUOUS
 62
7
 10
866.6604295624
 20
144.5747799311
 11
866.6604295624
 21
248.0747810635
  0
LINE
  8
1
  6
CONTINUOUS
 62
7
 10
923.1604295102
 20
144.5747799311
 11
923.1604295102
 21
248.0747810635
  0
ARC
  8
1
  6
CONTINUOUS
 62
7
 10
921.6604292122
 20
144.5747804973
 40
1.5000000000
 50
270.0000000000
 51
0.0000000000
  0
ARC
  8
1
  6
CONTINUOUS
 62
7
 10
869.6604292122
 20
144.5747804973
 40
3.0000000000
 50
180.0000000000
 51
270.0000000000
  0
LINE
  8
1
  6
CONTINUOUS
 62
7
 10
869.6604291228
 20
143.0747806165
 11
921.6604264704
 21
143.0747806165
  0
POLYLINE
  8
1
  6
CONTINUOUS
 62
7
 66
     1
 70
     0
  0
VERTEX
  8
1
 62
7
 10
847.1604292122
 20
136.5797681095
 42
0.0441499573
  0
VERTEX
  8
1
 62
7
 10
847.1604782284
 20
136.5698667289
 42
0.0392133150
  0
SEQEND
  8
1
  0
LINE
  8
1
  6
CONTINUOUS
 62
7
 10
847.1604291601
 20
136.5797667835
 11
847.1604291601
 21
136.8797681365
  0
POLYLINE
  8
1
  6
CONTINUOUS
 62
7
 66
     1
 70
     0
  0
VERTEX
  8
1
 62
7
 10
847.1604782284
 20
136.5698667289
 42
0.0158105905
  0
VERTEX
  8
1
 62
7
 10
847.1631235764
 20
136.5067111124
 42
0.0807888691
  0
VERTEX
  8
1
 62
7
 10
847.2375000060
 20
136.1962790761
 42
0.0804310507
  0
VERTEX
  8
1
 62
7
 10
847.4065998016
 20
135.9246939329
 42
0.1157045986
  0
VERTEX
  8
1
 62
7
 10
847.7800344072
 20
135.6564245980
 42
0.1157045986
  0
VERTEX
  8
1
 62
7
 10
848.1604292122
 20
135.5797433695
 42
0.0182734515
  0
SEQEND
  8
1
  0
LINE
  8
1
  6
CONTINUOUS
 62
7
 10
859.1604292644
 20
136.8797681365
 11
859.1604292644
 21
136.5797667835
  0
POLYLINE
  8
1
  6
CONTINUOUS
 62
7
 66
     1
 70
     0
  0
VERTEX
  8
1
 62
7
 10
859.1554663776
 20
136.4797678570
 42
0.0250460769
  0
VERTEX
  8
1
 62
7
 10
859.1604292123
 20
136.5797681095
 42
0.1159165546
  0
VERTEX
  8
1
 62
7
 10
859.1604292123
 20
136.5797681095
 42
0.1159165546
  0
SEQEND
  8
1
  0
POLYLINE
  8
1
  6
CONTINUOUS
 62
7
 66
     1
 70
     0
  0
VERTEX
  8
1
 62
7
 10
858.1604292123
 20
135.4847306917
 42
0.0714605935
  0
VERTEX
  8
1
 62
7
 10
858.4290068426
 20
135.5480148448
 42
0.1063852091
  0
VERTEX
  8
1
 62
7
 10
858.8314344404
 20
135.8087626290
 42
0.1063852091
  0
VERTEX
  8
1
 62
7
 10
859.0921822245
 20
136.2111902267
 42
0.0777603711
  0
VERTEX
  8
1
 62
7
 10
859.1554663776
 20
136.4797678570
 42
0.0123362576
  0
SEQEND
  8
1
  0
POLYLINE
  8
1
  6
CONTINUOUS
 62
7
 66
     1
 70
     0
  0
VERTEX
  8
1
 62
7
 10
846.1604292122
 20
135.5698151875
 42
0.0791249785
  0
VERTEX
  8
1
 62
7
 10
846.2104406227
 20
135.2572433521
 42
0.1174683520
  0
VERTEX
  8
1
 62
7
 10
846.4512748154
 20
134.8656218224
 42
0.1174683520
  0
VERTEX
  8
1
 62
7
 10
846.8428969533
 20
134.6247886186
 42
0.0808607469
  0
VERTEX
  8
1
 62
7
 10
847.1554663775
 20
134.5747779973
 42
0.0012380847
  0
SEQEND
  8
1
  0
POLYLINE
  8
1
  6
CONTINUOUS
 62
7
 66
     1
 70
     0
  0
VERTEX
  8
1
 62
7
 10
847.1554663775
 20
258.0747829973
 42
0.0796147256
  0
VERTEX
  8
1
 62
7
 10
846.8428969533
 20
258.0247723760
 42
0.1174683520
  0
VERTEX
  8
1
 62
7
 10
846.4512748154
 20
257.7839391722
 42
0.1174683520
  0
VERTEX
  8
1
 62
7
 10
846.2104406227
 20
257.3923176425
 42
0.0808607469
  0
VERTEX
  8
1
 62
7
 10
846.1604292122
 20
257.0797458071
 42
0.0012373217
  0
SEQEND
  8
1
  0
LINE
  8
1
  6
CONTINUOUS
 62
7
 10
846.7104289932
 20
140.5747792754
 11
846.7104289932
 21
252.0747817192
  0
LINE
  8
1
  6
CONTINUOUS
 62
7
 10
846.1604289961
 20
257.0797464881
 11
846.1604289961
 21
135.5698145065
  0
LINE
  8
1
  6
CONTINUOUS
 62
7
 10
846.7104289932
 20
140.5747792754
 11
847.1604291601
 21
140.5747792754
  0
LINE
  8
1
  6
CONTINUOUS
 62
7
 10
846.7104289932
 20
252.0747817192
 11
847.1604291601
 21
252.0747817192
  0
ARC
  8
1
  6
CONTINUOUS
 62
7
 10
931.2434583655
 20
136.4917510758
 40
1.0070934838
 50
270.6817133899
 51
359.3182866101
  0
ARC
  8
1
  6
CONTINUOUS
 62
7
 10
931.2434583655
 20
256.1578099188
 40
1.0070934838
 50
0.6817133898
 51
89.3182866101
  0
LINE
  8
1
  6
CONTINUOUS
 62
7
 10
932.2504805652
 20
256.1697921786
 11
932.2504805652
 21
136.4797688160
  0
LINE
  8
1
  6
CONTINUOUS
 62
7
 10
860.1604294283
 20
140.5747792754
 11
860.1604294283
 21
252.0747817192
  0
ARC
  8
1
  6
CONTINUOUS
 62
7
 10
865.1604292122
 20
140.5747804973
 40
3.0000000000
 50
180.0000000000
 51
270.0000000000
  0
LINE
  8
1
  6
CONTINUOUS
 62
7
 10
865.1604293165
 20
137.5747806463
 11
924.6604325501
 21
137.5747806463
  0
ARC
  8
1
  6
CONTINUOUS
 62
7
 10
924.6604292122
 20
140.5747804973
 40
3.0000000000
 50
270.0000000000
 51
0.0000000000
  0
LINE
  8
1
  6
CONTINUOUS
 62
7
 10
927.6604311792
 20
140.5747792754
 11
927.6604311792
 21
252.0747817192
  0
ARC
  8
1
  6
CONTINUOUS
 62
7
 10
924.6604292122
 20
252.0747804973
 40
3.0000000000
 50
0.0000000000
 51
90.0000000000
  0
LINE
  8
1
  6
CONTINUOUS
 62
7
 10
924.6604325501
 20
255.0747803483
 11
865.1604293165
 21
255.0747803483
  0
ARC
  8
1
  6
CONTINUOUS
 62
7
 10
865.1604292122
 20
252.0747804973
 40
3.0000000000
 50
90.0000000000
 51
180.0000000000
  0
LINE
  8
1
  6
CONTINUOUS
 62
7
 10
862.1604288248
 20
140.5747792754
 11
862.1604288248
 21
252.0747817192
  0
LINE
  8
1
  6
CONTINUOUS
 62
7
 10
859.1604292644
 20
140.5747792754
 11
860.1604294283
 21
140.5747792754
  0
LINE
  8
1
  6
CONTINUOUS
 62
7
 10
859.1604292644
 20
252.0747817192
 11
860.1604294283
 21
252.0747817192
  0
ARC
  8
1
  6
CONTINUOUS
 62
7
 10
924.6604292122
 20
252.0747804973
 40
1.0000000000
 50
0.0000000000
 51
90.0000000000
  0
ARC
  8
1
  6
CONTINUOUS
 62
7
 10
924.6604292122
 20
140.5747804973
 40
1.0000000000
 50
270.0000000000
 51
0.0000000000
  0
LINE
  8
1
  6
CONTINUOUS
 62
7
 10
865.1604293165
 20
139.5747809741
 11
924.6604325501
 21
139.5747809741
  0
ARC
  8
1
  6
CONTINUOUS
 62
7
 10
865.1604292122
 20
140.5747804973
 40
1.0000000000
 50
180.0000000000
 51
270.0000000000
  0
LINE
  8
1
  6
CONTINUOUS
 62
7
 10
864.1604291526
 20
140.5747792754
 11
864.1604291526
 21
252.0747817192
  0
ARC
  8
1
  6
CONTINUOUS
 62
7
 10
865.1604292122
 20
252.0747804973
 40
1.0000000000
 50
90.0000000000
 51
180.0000000000
  0
LINE
  8
1
  6
CONTINUOUS
 62
7
 10
924.6604325501
 20
253.0747800205
 11
865.1604293165
 21
253.0747800205
  0
LINE
  8
1
  6
CONTINUOUS
 62
7
 10
925.6604271261
 20
140.5747792754
 11
925.6604271261
 21
252.0747817192
  0
POLYLINE
  8
1
  6
CONTINUOUS
 62
7
 66
     1
 70
     0
  0
VERTEX
  8
1
 62
7
 10
933.1604292122
 20
257.0797458071
 42
0.0796153609
  0
VERTEX
  8
1
 62
7
 10
933.1104178017
 20
257.3923176424
 42
0.1174683520
  0
VERTEX
  8
1
 62
7
 10
932.8695836090
 20
257.7839391722
 42
0.1174683520
  0
VERTEX
  8
1
 62
7
 10
932.4779614712
 20
258.0247723760
 42
0.0808607469
  0
VERTEX
  8
1
 62
7
 10
932.1653920469
 20
258.0747829973
 42
0.0012379529
  0
SEQEND
  8
1
  0
POLYLINE
  8
1
  6
CONTINUOUS
 62
7
 66
     1
 70
     0
  0
VERTEX
  8
1
 62
7
 10
932.1653920469
 20
134.5747779973
 42
0.0791243434
  0
VERTEX
  8
1
 62
7
 10
932.4779614712
 20
134.6247886186
 42
0.1174683520
  0
VERTEX
  8
1
 62
7
 10
932.8695836090
 20
134.8656218224
 42
0.1174683520
  0
VERTEX
  8
1
 62
7
 10
933.1104178017
 20
135.2572433522
 42
0.0808607469
  0
VERTEX
  8
1
 62
7
 10
933.1604292122
 20
135.5698151875
 42
0.0012374534
  0
SEQEND
  8
1
  0
LINE
  8
1
  6
CONTINUOUS
 62
7
 10
932.4104296294
 20
208.8247806836
 11
933.1604274241
 21
208.8247806836
  0
LINE
  8
1
  6
CONTINUOUS
 62
7
 10
932.4104296294
 20
183.8247803110
 11
932.4104296294
 21
208.8247806836
  0
LINE
  8
1
  6
CONTINUOUS
 62
7
 10
932.4104296294
 20
183.8247803110
 11
933.1604274241
 21
183.8247803110
  0
LINE
  8
1
  6
CONTINUOUS
 62
7
 10
933.1604274241
 20
135.5698145065
 11
933.1604274241
 21
183.8247803110
  0
LINE
  8
1
  6
CONTINUOUS
 62
7
 10
933.1604274241
 20
208.8247806836
 11
933.1604274241
 21
257.0797464881
  0
CIRCLE
  8
1
  6
HIDDEN
 62
7
 10
915.6604292122
 20
245.8247804973
 40
3.2500000000
  0
CIRCLE
  8
1
  6
HIDDEN
 62
7
 10
915.6604292122
 20
146.8247804973
 40
3.2500000000
  0
CIRCLE
  8
1
  6
HIDDEN
 62
7
 10
909.1604292122
 20
245.8247804973
 40
1.2500000000
  0
CIRCLE
  8
1
  6
HIDDEN
 62
7
 10
909.1604292122
 20
146.8247804973
 40
1.2500000000
  0
LINE
  8
1
  6
HIDDEN
 62
7
 10
905.6604275731
 20
143.0747806165
 11
905.6604275731
 21
148.8247810933
  0
LINE
  8
1
  6
HIDDEN
 62
7
 10
905.6604275731
 20
148.8247810933
 11
908.6604299275
 21
151.8247797224
  0
LINE
  8
1
  6
HIDDEN
 62
7
 10
908.6604299275
 20
151.8247797224
 11
921.6604264704
 21
151.8247797224
  0
LINE
  8
1
  6
HIDDEN
 62
7
 10
921.6604264704
 20
151.8247797224
 11
921.6604264704
 21
239.8247792456
  0
ARC
  8
1
  6
HIDDEN
 62
7
 10
920.6604292122
 20
239.8247804973
 40
1.0000000000
 50
0.0000000000
 51
90.0000000000
  0
LINE
  8
1
  6
HIDDEN
 62
7
 10
920.6604318944
 20
240.8247812722
 11
908.6604299275
 21
240.8247812722
  0
LINE
  8
1
  6
HIDDEN
 62
7
 10
908.6604299275
 20
240.8247812722
 11
905.6604275731
 21
243.8247799013
  0
LINE
  8
1
  6
HIDDEN
 62
7
 10
905.6604275731
 20
243.8247799013
 11
905.6604275731
 21
249.5747803781
  0
CIRCLE
  8
1
  6
HIDDEN
 62
7
 10
882.1604292122
 20
146.8247804973
 40
1.2500000000
  0
CIRCLE
  8
1
  6
HIDDEN
 62
7
 10
882.1604292122
 20
245.8247804973
 40
1.2500000000
  0
CIRCLE
  8
1
  6
HIDDEN
 62
7
 10
875.6604292122
 20
146.8247804973
 40
3.2500000000
  0
CIRCLE
  8
1
  6
HIDDEN
 62
7
 10
875.6604292122
 20
245.8247804973
 40
3.2500000000
  0
LINE
  8
1
  6
HIDDEN
 62
7
 10
885.6604280201
 20
249.5747803781
 11
885.6604280201
 21
243.8247799013
  0
LINE
  8
1
  6
HIDDEN
 62
7
 10
885.6604280201
 20
243.8247799013
 11
882.6604293910
 21
240.8247812722
  0
LINE
  8
1
  6
HIDDEN
 62
7
 10
885.6604280201
 20
148.8247810933
 11
885.6604280201
 21
143.0747806165
  0
LINE
  8
1
  6
HIDDEN
 62
7
 10
882.6604293910
 20
151.8247797224
 11
885.6604280201
 21
148.8247810933
  0
LINE
  8
1
  6
HIDDEN
 62
7
 10
882.6604293910
 20
240.8247812722
 11
869.6604291228
 21
240.8247812722
  0
ARC
  8
1
  6
HIDDEN
 62
7
 10
870.6604292122
 20
152.8247804973
 40
1.0000000000
 50
180.0000000000
 51
270.0000000000
  0
LINE
  8
1
  6
HIDDEN
 62
7
 10
870.6604292867
 20
151.8247797224
 11
882.6604293910
 21
151.8247797224
  0
LINE
  8
1
  6
HIDDEN
 62
7
 10
869.6604291228
 20
240.8247812722
 11
869.6604291228
 21
152.8247817490
  0
CIRCLE
  8
1
  6
HIDDEN
 62
7
 10
915.6604292122
 20
146.8247804973
 40
1.7500000000
  0
CIRCLE
  8
1
  6
HIDDEN
 62
7
 10
875.6604292122
 20
245.8247804973
 40
1.7500000000
  0
CIRCLE
  8
1
  6
HIDDEN
 62
7
 10
915.6604292122
 20
245.8247804973
 40
1.7500000000
  0
CIRCLE
  8
1
  6
HIDDEN
 62
7
 10
875.6604292122
 20
146.8247804973
 40
1.7500000000
  0
POLYLINE
  8
1
  6
CONTINUOUS
 62
7
 66
     1
 70
     0
  0
VERTEX
  8
1
 62
7
 10
858.1604292123
 20
135.8847317017
 42
0.1629625566
  0
VERTEX
  8
1
 62
7
 10
857.6325651675
 20
136.1083390641
 42
0.0228681651
  0
VERTEX
  8
1
 62
7
 10
857.6252284813
 20
136.1098004261
 42
0.0225421746
  0
SEQEND
  8
1
  0
POLYLINE
  8
1
  6
CONTINUOUS
 62
7
 66
     1
 70
     0
  0
VERTEX
  8
1
 62
7
 10
848.6977264502
 20
136.1102158416
 42
0.0101065848
  0
VERTEX
  8
1
 62
7
 10
848.6882932570
 20
136.1083390641
 42
0.1629625566
  0
VERTEX
  8
1
 62
7
 10
848.1604292122
 20
135.8847317017
 42
0.1629625566
  0
VERTEX
  8
1
 62
7
 10
848.1604292122
 20
135.8847317017
 42
0.1629625566
  0
SEQEND
  8
1
  0
POLYLINE
  8
1
  6
CONTINUOUS
 62
7
 66
     1
 70
     0
  0
VERTEX
  8
1
 62
7
 10
848.6977264502
 20
256.5393451530
 42
0.0224498690
  0
VERTEX
  8
1
 62
7
 10
849.6248953061
 20
256.4112750096
 42
0.0121462168
  0
VERTEX
  8
1
 62
7
 10
850.9243612346
 20
256.3176145682
 42
0.0122764779
  0
VERTEX
  8
1
 62
7
 10
853.1604292122
 20
256.2648280304
 42
0.0122764779
  0
VERTEX
  8
1
 62
7
 10
855.3964971898
 20
256.3176145682
 42
0.0121462168
  0
VERTEX
  8
1
 62
7
 10
856.6959631184
 20
256.4112750096
 42
0.0228681651
  0
VERTEX
  8
1
 62
7
 10
857.6252284813
 20
256.5397605685
 42
0.0078670227
  0
SEQEND
  8
1
  0
LINE
  8
1
  6
CONTINUOUS
 62
7
 10
858.1604291005
 20
257.1648321185
 11
858.1604291005
 21
256.7648290727
  0
LINE
  8
1
  6
CONTINUOUS
 62
7
 10
848.1604293240
 20
256.7648290727
 11
848.1604293240
 21
257.0698185894
  0
POLYLINE
  8
1
  6
CONTINUOUS
 62
7
 66
     1
 70
     1
  0
VERTEX
  8
1
 10
851.1604292122
 20
256.7747797148
 42
0.1629625566
  0
VERTEX
  8
1
 10
851.3715748301
 20
256.6853367699
 42
0.0228681651
  0
VERTEX
  8
1
 10
851.7462156498
 20
256.6333580015
 42
0.0121462168
  0
VERTEX
  8
1
 10
852.2660020212
 20
256.5958938249
 42
0.0122764779
  0
VERTEX
  8
1
 10
853.1604292122
 20
256.5747792098
 42
0.0122764779
  0
VERTEX
  8
1
 10
854.0548564033
 20
256.5958938249
 42
0.0121462168
  0
VERTEX
  8
1
 10
854.5746427747
 20
256.6333580015
 42
0.0228681651
  0
VERTEX
  8
1
 10
854.9492835943
 20
256.6853367699
 42
0.1629625566
  0
VERTEX
  8
1
 10
855.1604292122
 20
256.7747797148
 42
0.1629625566
  0
VERTEX
  8
1
 10
854.9492835943
 20
256.8642226597
 42
0.0228681651
  0
VERTEX
  8
1
 10
854.5746427747
 20
256.9162014281
 42
0.0121462168
  0
VERTEX
  8
1
 10
854.0548564033
 20
256.9536656047
 42
0.0122764779
  0
VERTEX
  8
1
 10
853.1604292122
 20
256.9747802198
 42
0.0122764779
  0
VERTEX
  8
1
 10
852.2660020212
 20
256.9536656047
 42
0.0121462168
  0
VERTEX
  8
1
 10
851.7462156498
 20
256.9162014281
 42
0.0228681651
  0
VERTEX
  8
1
 10
851.3715748301
 20
256.8642226597
 42
0.1629625566
  0
SEQEND
  8
1
  0
POLYLINE
  8
1
  6
CONTINUOUS
 62
7
 66
     1
 70
     0
  0
VERTEX
  8
1
 62
7
 10
847.1604782284
 20
256.0796942657
 42
0.0482940236
  0
VERTEX
  8
1
 62
7
 10
847.1604292122
 20
256.0697928851
 42
0.0458989087
  0
SEQEND
  8
1
  0
LINE
  8
1
  6
CONTINUOUS
 62
7
 10
847.1604291601
 20
256.0697942111
 11
847.1604291601
 21
255.7697928581
  0
POLYLINE
  8
1
  6
CONTINUOUS
 62
7
 66
     1
 70
     0
  0
VERTEX
  8
1
 62
7
 10
848.1604292122
 20
257.0698176251
 42
0.0985048074
  0
VERTEX
  8
1
 62
7
 10
847.7800344072
 20
256.9931363966
 42
0.1157045986
  0
VERTEX
  8
1
 62
7
 10
847.4065998016
 20
256.7248670617
 42
0.0804310507
  0
VERTEX
  8
1
 62
7
 10
847.2375000060
 20
256.4532819185
 42
0.0807888691
  0
VERTEX
  8
1
 62
7
 10
847.1631235764
 20
256.1428498822
 42
0.1171664547
  0
VERTEX
  8
1
 62
7
 10
847.1604782284
 20
256.0796942657
 42
0.1010165726
  0
SEQEND
  8
1
  0
LINE
  8
1
  6
CONTINUOUS
 62
7
 10
859.1604292644
 20
255.7697928581
 11
859.1604292644
 21
256.0697942111
  0
POLYLINE
  8
1
  6
CONTINUOUS
 62
7
 66
     1
 70
     0
  0
VERTEX
  8
1
 62
7
 10
859.1604292123
 20
256.0697928851
 42
0.1159165546
  0
VERTEX
  8
1
 62
7
 10
859.1554663776
 20
256.1697931376
 42
0.0908633124
  0
SEQEND
  8
1
  0
POLYLINE
  8
1
  6
CONTINUOUS
 62
7
 66
     1
 70
     0
  0
VERTEX
  8
1
 62
7
 10
859.1554663776
 20
256.1697931376
 42
0.0714605935
  0
VERTEX
  8
1
 62
7
 10
859.0921822245
 20
256.4383707679
 42
0.1063852091
  0
VERTEX
  8
1
 62
7
 10
858.8314344404
 20
256.8407983656
 42
0.1063852091
  0
VERTEX
  8
1
 62
7
 10
858.4290068426
 20
257.1015461498
 42
0.0777603711
  0
VERTEX
  8
1
 62
7
 10
858.1604292123
 20
257.1648303029
 42
0.0123362576
  0
SEQEND
  8
1
  0
POLYLINE
  8
1
  6
CONTINUOUS
 62
7
 66
     1
 70
     0
  0
VERTEX
  8
1
 62
7
 10
857.6252284813
 20
256.5397605685
 42
0.0078670227
  0
VERTEX
  8
1
 62
7
 10
857.6325651675
 20
256.5412219305
 42
0.1629625566
  0
VERTEX
  8
1
 62
7
 10
858.1604292123
 20
256.7648292929
 42
0.1629625566
  0
VERTEX
  8
1
 62
7
 10
858.1604292123
 20
256.7648292929
 42
0.1629625566
  0
SEQEND
  8
1
  0
POLYLINE
  8
1
  6
CONTINUOUS
 62
7
 66
     1
 70
     0
  0
VERTEX
  8
1
 62
7
 10
848.1604292122
 20
256.7648292929
 42
0.1629625566
  0
VERTEX
  8
1
 62
7
 10
848.6882932570
 20
256.5412219305
 42
0.0228681651
  0
VERTEX
  8
1
 62
7
 10
848.6977264502
 20
256.5393451530
 42
0.0224498690
  0
SEQEND
  8
1
  0
CIRCLE
  8
1
  6
HIDDEN
 62
7
 10
882.1604292122
 20
245.8247804973
 40
1.5000000000
  0
CIRCLE
  8
1
  6
HIDDEN
 62
7
 10
909.1604292122
 20
245.8247804973
 40
1.5000000000
  0
CIRCLE
  8
1
  6
HIDDEN
 62
7
 10
909.1604292122
 20
146.8247804973
 40
1.5000000000
  0
CIRCLE
  8
1
  6
HIDDEN
 62
7
 10
882.1604292122
 20
146.8247804973
 40
1.5000000000
  0
DIMENSION
  8
1
  6
CONTINUOUS
 62
5
  2
*D4
 10
755.1998801677
 20
286.5747825686
 11
752.6998801677
 21
289.8247826356
  70
0
 13
749.9691323962
 23
293.0747827027
 14
749.9691323962
 24
286.5747825686
 50
90.000000
  0
DIMENSION
  8
1
  6
CONTINUOUS
 62
5
  2
*D5
 10
755.1998801677
 20
270.0747827027
 11
752.6998801677
 21
278.3247826356
  70
0
 13
749.9691323962
 23
286.5747825686
 14
752.9086389511
 24
270.0747827027
 50
90.000000
  0
DIMENSION
  8
1
  6
CONTINUOUS
 62
5
  2
*D6
 10
767.0379597864
 20
275.5747827030
 11
764.5379597864
 21
281.0747826358
  70
0
 13
769.9691319491
 23
286.5747825686
 14
769.4691335872
 24
275.5747827030
 50
90.000000
  0
DIMENSION
  8
1
  6
CONTINUOUS
 62
5
  2
*D7
 10
729.7098216338
 20
290.5747827586
 11
727.2098216338
 21
288.5747826636
  70
0
 13
732.4691332530
 23
286.5747825686
 14
736.7191334839
 24
290.5747827586
 50
90.000000
  0
DIMENSION
  8
1
  6
CONTINUOUS
 62
5
  2
*D8
 10
729.7098216338
 20
293.0747827027
 11
727.2098216338
 21
291.8247827306
  70
0
 13
736.7191334839
 23
290.5747827586
 14
738.2191327985
 24
293.0747827027
 50
90.000000
  0
TEXT
  8
1
  6
CONTINUOUS
 62
7
 10
885.860573
 20
122.151124
 40
5.000000
  1
内 部 図
 41
0.854701
 50
0.000000
 51
0.000000
 72
   5
 73
   0
 11
905.860573
 21
122.151124
  0
INSERT
  8
5
  6
CONTINUOUS
 62
7
  2
S1
 10
1001.8157033784
 20
286.1572533604
  0
LINE
  8
5
  6
CONTINUOUS
 62
6
 10
703.2477781160
 20
309.4327354514
 11
703.2477781160
 21
344.4327354514
  0
LINE
  8
5
  6
CONTINUOUS
 62
6
 10
715.2477781160
 20
309.4327354514
 11
715.2477781160
 21
344.4327354514
  0
LINE
  8
5
  6
CONTINUOUS
 62
6
 10
765.2477781160
 20
309.4327354514
 11
765.2477781160
 21
344.4327354514
  0
LINE
  8
5
  6
CONTINUOUS
 62
6
 10
774.2477781158
 20
344.4327354514
 11
774.2477781160
 21
309.4327354514
  0
TEXT
  8
5
  6
CONTINUOUS
 62
6
 10
706.282278
 20
310.432735
 40
3.000000
  1
Date
 41
0.787649
 50
0.000000
 51
0.000000
 72
   5
 73
   0
 11
712.213278
 21
310.432735
  0
TEXT
  8
5
  6
CONTINUOUS
 62
6
 10
696.040278
 20
310.432735
 40
3.000000
  1
Rev.
 41
0.719124
 50
0.000000
 51
0.000000
 72
   5
 73
   0
 11
701.455278
 21
310.432735
  0
TEXT
  8
5
  6
CONTINUOUS
 62
6
 10
716.747778
 20
310.432735
 40
3.000000
  1
Content
 41
0.746681
 50
0.000000
 51
0.000000
 72
   5
 73
   0
 11
726.872778
 21
310.432735
  0
TEXT
  8
5
  6
CONTINUOUS
 62
6
 10
766.219778
 20
310.432735
 40
3.000000
  1
Name
 41
0.937052
 50
0.000000
 51
0.000000
 72
   5
 73
   0
 11
773.275778
 21
310.432735
  0
LINE
  8
5
  6
CONTINUOUS
 62
6
 10
694.2477781160
 20
314.4327354514
 11
774.2477781160
 21
314.4327354514
  0
LINE
  8
5
  6
CONTINUOUS
 62
6
 10
694.2477781160
 20
319.4327354514
 11
774.2477781159
 21
319.4327354514
  0
LINE
  8
5
  6
CONTINUOUS
 62
6
 10
694.2477781160
 20
324.4327354514
 11
774.2477781159
 21
324.4327354514
  0
LINE
  8
5
  6
CONTINUOUS
 62
6
 10
694.2477781160
 20
329.4327354514
 11
774.2477781159
 21
329.4327354514
  0
LINE
  8
5
  6
CONTINUOUS
 62
6
 10
694.2477781160
 20
309.4327354514
 11
774.2477781160
 21
309.4327354514
  0
POINT
  8
5
  6
CONTINUOUS
 62
6
 10
698.7477781160
 20
316.9327354514
  0
POINT
  8
5
  6
CONTINUOUS
 62
6
 10
698.7477781160
 20
321.9327354514
  0
POINT
  8
5
  6
CONTINUOUS
 62
6
 10
698.7477781160
 20
326.9327354514
  0
POINT
  8
5
  6
CONTINUOUS
 62
6
 10
698.7477781160
 20
331.9327354514
  0
POINT
  8
5
  6
CONTINUOUS
 62
6
 10
709.2477781160
 20
331.9327354514
  0
POINT
  8
5
  6
CONTINUOUS
 62
6
 10
709.2477781160
 20
326.9327354514
  0
POINT
  8
5
  6
CONTINUOUS
 62
6
 10
709.2477781160
 20
321.9327354514
  0
POINT
  8
5
  6
CONTINUOUS
 62
6
 10
709.2477781160
 20
316.9327354514
  0
POINT
  8
5
  6
CONTINUOUS
 62
6
 10
769.7477781160
 20
316.9327354514
  0
POINT
  8
5
  6
CONTINUOUS
 62
6
 10
769.7477781160
 20
321.9327354514
  0
POINT
  8
5
  6
CONTINUOUS
 62
6
 10
769.7477781160
 20
326.9327354514
  0
POINT
  8
5
  6
CONTINUOUS
 62
6
 10
769.7477781160
 20
331.9327354514
  0
POINT
  8
5
  6
CONTINUOUS
 62
6
 10
715.2477781160
 20
331.9327354514
  0
POINT
  8
5
  6
CONTINUOUS
 62
6
 10
715.2477781160
 20
326.9327354514
  0
POINT
  8
5
  6
CONTINUOUS
 62
6
 10
715.2477781160
 20
321.9327354514
  0
POINT
  8
5
  6
CONTINUOUS
 62
6
 10
715.2477781160
 20
316.9327354514
  0
INSERT
  8
1
  6
CONTINUOUS
 62
5
  2
BALN0
 10
832.3710109965
 20
252.1064980985
  0
INSERT
  8
1
  6
CONTINUOUS
 62
5
  2
BALN1
 10
817.3827873041
 20
251.2738190045
  0
INSERT
  8
1
  6
CONTINUOUS
 62
5
  2
BALN2
 10
794.5014295386
 20
189.1004466508
  0
LINE
  8
3
  6
CONTINUOUS
 62
7
 10
869.4104292122
 20
249.3247804973
 11
921.9104292122
 21
249.3247804973
  0
LINE
  8
3
  6
CONTINUOUS
 62
7
 10
922.9104292122
 20
248.3247804973
 11
922.9104292122
 21
144.3247804973
  0
LINE
  8
3
  6
CONTINUOUS
 62
7
 10
921.9104292122
 20
143.3247804973
 11
869.4104292122
 21
143.3247804973
  0
LINE
  8
3
  6
CONTINUOUS
 62
7
 10
868.4104292122
 20
144.3247804973
 11
868.4104292122
 21
248.3247804973
  0
LINE
  8
3
  6
CONTINUOUS
 62
7
 10
922.9104292122
 20
144.3247804973
 11
921.9104292122
 21
143.3247804973
  0
LINE
  8
3
  6
CONTINUOUS
 62
7
 10
922.9104292122
 20
248.3247804973
 11
921.9104292122
 21
249.3247804973
  0
LINE
  8
3
  6
CONTINUOUS
 62
7
 10
868.4104292122
 20
248.3247804973
 11
869.4104292122
 21
249.3247804973
  0
LINE
  8
3
  6
CONTINUOUS
 62
7
 10
868.4104292122
 20
144.3247804973
 11
869.4104292122
 21
143.3247804973
  0
POINT
  8
3
  6
CONTINUOUS
 62
7
 10
882.1604292122
 20
245.8247804973
  0
POINT
  8
3
  6
CONTINUOUS
 62
7
 10
909.1604292122
 20
245.8247804973
  0
POINT
  8
3
  6
CONTINUOUS
 62
7
 10
909.1604292122
 20
146.8247804973
  0
POINT
  8
3
  6
CONTINUOUS
 62
7
 10
882.1604292122
 20
146.8247804973
  0
CIRCLE
  8
3
  6
CONTINUOUS
 62
6
 10
882.1604292122
 20
245.8247804973
 40
3.0285714286
  0
LINE
  8
3
  6
CONTINUOUS
 62
6
 10
880.8219770907
 20
247.1632326188
 11
883.4988813337
 21
244.4863283758
  0
LINE
  8
3
  6
CONTINUOUS
 62
6
 10
880.8219770907
 20
244.4863283758
 11
883.4988813337
 21
247.1632326188
  0
CIRCLE
  8
3
  6
CONTINUOUS
 62
6
 10
882.1604292122
 20
245.8247804973
 40
2.6500000000
  0
CIRCLE
  8
3
  6
CONTINUOUS
 62
6
 10
909.1604292122
 20
245.8247804973
 40
3.0285714286
  0
LINE
  8
3
  6
CONTINUOUS
 62
6
 10
907.8219770907
 20
247.1632326188
 11
910.4988813337
 21
244.4863283758
  0
LINE
  8
3
  6
CONTINUOUS
 62
6
 10
907.8219770907
 20
244.4863283758
 11
910.4988813337
 21
247.1632326188
  0
CIRCLE
  8
3
  6
CONTINUOUS
 62
6
 10
909.1604292122
 20
245.8247804973
 40
2.6500000000
  0
CIRCLE
  8
3
  6
CONTINUOUS
 62
6
 10
909.1604292122
 20
146.8247804973
 40
3.0285714286
  0
LINE
  8
3
  6
CONTINUOUS
 62
6
 10
907.8219770907
 20
148.1632326188
 11
910.4988813337
 21
145.4863283758
  0
LINE
  8
3
  6
CONTINUOUS
 62
6
 10
907.8219770907
 20
145.4863283758
 11
910.4988813337
 21
148.1632326188
  0
CIRCLE
  8
3
  6
CONTINUOUS
 62
6
 10
909.1604292122
 20
146.8247804973
 40
2.6500000000
  0
CIRCLE
  8
3
  6
CONTINUOUS
 62
6
 10
882.1604292122
 20
146.8247804973
 40
3.0285714286
  0
LINE
  8
3
  6
CONTINUOUS
 62
6
 10
880.8219770907
 20
148.1632326188
 11
883.4988813337
 21
145.4863283758
  0
LINE
  8
3
  6
CONTINUOUS
 62
6
 10
880.8219770907
 20
145.4863283758
 11
883.4988813337
 21
148.1632326188
  0
CIRCLE
  8
3
  6
CONTINUOUS
 62
6
 10
882.1604292122
 20
146.8247804973
 40
2.6500000000
  0
INSERT
  8
3
  6
CONTINUOUS
 62
5
  2
BALN3
 10
875.6604292122
 20
245.8247804973
  0
INSERT
  8
3
  6
CONTINUOUS
 62
5
  2
BALN4
 10
882.1604292122
 20
248.8533519259
  0
TEXT
  8
5
  6
CONTINUOUS
 62
7
 10
1007.815703
 20
301.657253
 40
4.000000
  1
パネル
 41
0.898204
 50
0.000000
 51
0.000000
 72
   5
 73
   0
 11
1019.815703
 21
301.657253
  0
TEXT
  8
5
  6
CONTINUOUS
 62
7
 10
1027.815703
 20
301.907253
 40
3.500000
  1
M0051B361A (ｱｸﾘﾙ白t=3)
 41
0.770972
 50
0.000000
 51
0.000000
 72
   5
 73
   0
 11
1066.672703
 21
301.907253
  0
TEXT
  8
5
  6
CONTINUOUS
 62
7
 10
1067.815703
 20
302.157253
 40
3.000000
  1
MADOKA
 41
1.028831
 50
0.000000
 51
0.000000
 72
   5
 73
   0
 11
1079.698703
 21
302.157253
  0
TEXT
  8
5
  6
CONTINUOUS
 62
7
 10
1083.440703
 20
301.907253
 40
3.500000
  1
1
 41
1.000000
 50
0.000000
 51
0.000000
 72
   5
 73
   0
 11
1085.190703
 21
301.907253
  0
TEXT
  8
5
  6
CONTINUOUS
 62
7
 10
1067.815703
 20
297.407253
 40
2.500000
  1
RS-Pro
 41
0.830909
 50
0.000000
 51
0.000000
 72
   5
 73
   0
 11
1075.813203
 21
297.407253
  0
TEXT
  8
5
  6
CONTINUOUS
 62
7
 10
1083.440703
 20
296.907253
 40
3.500000
  1
3
 41
1.000000
 50
0.000000
 51
0.000000
 72
   5
 73
   0
 11
1085.190703
 21
296.907253
  0
LINE
  8
5
  6
CONTINUOUS
 62
6
 10
1026.8157033783
 20
281.1572533603
 11
1006.8157033783
 21
281.1572533603
  0
LINE
  8
5
  6
CONTINUOUS
 62
6
 10
1006.8157033783
 20
286.1572533603
 11
1006.8157033783
 21
281.1572533603
  0
LINE
  8
5
  6
CONTINUOUS
 62
6
 10
1006.8157033783
 20
281.1572533603
 11
1001.8157033783
 21
281.1572533603
  0
LINE
  8
5
  6
CONTINUOUS
 62
6
 10
1001.8157033783
 20
281.1572533603
 11
1001.8157033783
 21
286.1572533603
  0
LINE
  8
5
  6
CONTINUOUS
 62
6
 10
1026.8157033783
 20
286.1572533603
 11
1026.8157033783
 21
281.1572533603
  0
LINE
  8
5
  6
CONTINUOUS
 62
6
 10
1066.8157033783
 20
281.1572533603
 11
1026.8157033783
 21
281.1572533603
  0
LINE
  8
5
  6
CONTINUOUS
 62
6
 10
1066.8157033783
 20
286.1572533603
 11
1066.8157033783
 21
281.1572533603
  0
LINE
  8
5
  6
CONTINUOUS
 62
6
 10
1081.8157033783
 20
281.1572533603
 11
1066.8157033783
 21
281.1572533603
  0
LINE
  8
5
  6
CONTINUOUS
 62
6
 10
1086.8157033783
 20
281.1572533603
 11
1081.8157033783
 21
281.1572533603
  0
LINE
  8
5
  6
CONTINUOUS
 62
6
 10
1081.8157033783
 20
286.1572533603
 11
1081.8157033783
 21
281.1572533603
  0
LINE
  8
5
  6
CONTINUOUS
 62
6
 10
1086.8157033783
 20
286.1572533603
 11
1086.8157033783
 21
281.1572533603
  0
LINE
  8
5
  6
CONTINUOUS
 62
6
 10
1026.8157033783
 20
276.1572533603
 11
1006.8157033783
 21
276.1572533603
  0
LINE
  8
5
  6
CONTINUOUS
 62
6
 10
1006.8157033783
 20
281.1572533603
 11
1006.8157033783
 21
276.1572533603
  0
LINE
  8
5
  6
CONTINUOUS
 62
6
 10
1006.8157033783
 20
276.1572533603
 11
1001.8157033783
 21
276.1572533603
  0
LINE
  8
5
  6
CONTINUOUS
 62
6
 10
1001.8157033783
 20
276.1572533603
 11
1001.8157033783
 21
281.1572533603
  0
TEXT
  8
5
  6
CONTINUOUS
 62
7
 10
1002.565703
 20
276.907253
 40
3.500000
  1
--
 41
0.854701
 50
0.000000
 51
0.000000
 72
   5
 73
   0
 11
1006.065703
 21
276.907253
  0
LINE
  8
5
  6
CONTINUOUS
 62
6
 10
1026.8157033783
 20
281.1572533603
 11
1026.8157033783
 21
276.1572533603
  0
LINE
  8
5
  6
CONTINUOUS
 62
6
 10
1066.8157033783
 20
276.1572533603
 11
1026.8157033783
 21
276.1572533603
  0
TEXT
  8
5
  6
CONTINUOUS
 62
7
 10
1027.815703
 20
276.657253
 40
4.000000
  1
--
 41
0.854701
 50
0.000000
 51
0.000000
 72
   5
 73
   0
 11
1031.815703
 21
276.657253
  0
TEXT
  8
5
  6
CONTINUOUS
 62
7
 10
1007.815703
 20
277.157253
 40
3.000000
  1
--
 41
0.854701
 50
0.000000
 51
0.000000
 72
   5
 73
   0
 11
1010.815703
 21
277.157253
  0
LINE
  8
5
  6
CONTINUOUS
 62
6
 10
1066.8157033783
 20
281.1572533603
 11
1066.8157033783
 21
276.1572533603
  0
LINE
  8
5
  6
CONTINUOUS
 62
6
 10
1081.8157033783
 20
276.1572533603
 11
1066.8157033783
 21
276.1572533603
  0
TEXT
  8
5
  6
CONTINUOUS
 62
7
 10
1067.815703
 20
277.157253
 40
3.000000
  1
--
 41
0.854701
 50
0.000000
 51
0.000000
 72
   5
 73
   0
 11
1070.815703
 21
277.157253
  0
TEXT
  8
5
  6
CONTINUOUS
 62
7
 10
1082.565703
 20
276.907253
 40
3.500000
  1
--
 41
0.854701
 50
0.000000
 51
0.000000
 72
   5
 73
   0
 11
1086.065703
 21
276.907253
  0
LINE
  8
5
  6
CONTINUOUS
 62
6
 10
1086.8157033783
 20
276.1572533603
 11
1081.8157033783
 21
276.1572533603
  0
LINE
  8
5
  6
CONTINUOUS
 62
6
 10
1081.8157033783
 20
281.1572533603
 11
1081.8157033783
 21
276.1572533603
  0
LINE
  8
5
  6
CONTINUOUS
 62
6
 10
1086.8157033783
 20
281.1572533603
 11
1086.8157033783
 21
276.1572533603
  0
LINE
  8
5
  6
CONTINUOUS
 62
6
 10
1026.8157033783
 20
271.1572533603
 11
1006.8157033783
 21
271.1572533603
  0
LINE
  8
5
  6
CONTINUOUS
 62
6
 10
1006.8157033783
 20
276.1572533603
 11
1006.8157033783
 21
271.1572533603
  0
LINE
  8
5
  6
CONTINUOUS
 62
6
 10
1006.8157033783
 20
271.1572533603
 11
1001.8157033783
 21
271.1572533603
  0
LINE
  8
5
  6
CONTINUOUS
 62
6
 10
1001.8157033783
 20
271.1572533603
 11
1001.8157033783
 21
276.1572533603
  0
TEXT
  8
5
  6
CONTINUOUS
 62
7
 10
1002.565703
 20
271.907253
 40
3.500000
  1
--
 41
0.854701
 50
0.000000
 51
0.000000
 72
   5
 73
   0
 11
1006.065703
 21
271.907253
  0
LINE
  8
5
  6
CONTINUOUS
 62
6
 10
1026.8157033783
 20
276.1572533603
 11
1026.8157033783
 21
271.1572533603
  0
LINE
  8
5
  6
CONTINUOUS
 62
6
 10
1066.8157033783
 20
271.1572533603
 11
1026.8157033783
 21
271.1572533603
  0
TEXT
  8
5
  6
CONTINUOUS
 62
7
 10
1027.815703
 20
272.157253
 40
3.000000
  1
--
 41
0.854701
 50
0.000000
 51
0.000000
 72
   5
 73
   0
 11
1030.815703
 21
272.157253
  0
TEXT
  8
5
  6
CONTINUOUS
 62
7
 10
1007.815703
 20
272.157253
 40
3.000000
  1
--
 41
0.854701
 50
0.000000
 51
0.000000
 72
   5
 73
   0
 11
1010.815703
 21
272.157253
  0
LINE
  8
5
  6
CONTINUOUS
 62
6
 10
1066.8157033783
 20
276.1572533603
 11
1066.8157033783
 21
271.1572533603
  0
LINE
  8
5
  6
CONTINUOUS
 62
6
 10
1081.8157033783
 20
271.1572533603
 11
1066.8157033783
 21
271.1572533603
  0
TEXT
  8
5
  6
CONTINUOUS
 62
7
 10
1067.815703
 20
272.157253
 40
3.000000
  1
--
 41
0.854701
 50
0.000000
 51
0.000000
 72
   5
 73
   0
 11
1070.815703
 21
272.157253
  0
TEXT
  8
5
  6
CONTINUOUS
 62
7
 10
1082.565703
 20
271.907253
 40
3.500000
  1
--
 41
0.854701
 50
0.000000
 51
0.000000
 72
   5
 73
   0
 11
1086.065703
 21
271.907253
  0
LINE
  8
5
  6
CONTINUOUS
 62
6
 10
1086.8157033783
 20
271.1572533603
 11
1081.8157033783
 21
271.1572533603
  0
LINE
  8
5
  6
CONTINUOUS
 62
6
 10
1081.8157033783
 20
276.1572533603
 11
1081.8157033783
 21
271.1572533603
  0
LINE
  8
5
  6
CONTINUOUS
 62
6
 10
1086.8157033783
 20
276.1572533603
 11
1086.8157033783
 21
271.1572533603
  0
TEXT
  8
5
  6
CONTINUOUS
 62
7
 10
1067.815703
 20
292.157253
 40
3.000000
  1
RS-Pro
 41
0.830909
 50
0.000000
 51
0.000000
 72
   5
 73
   0
 11
1077.412703
 21
292.157253
  0
TEXT
  8
5
  6
CONTINUOUS
 62
7
 10
1067.815703
 20
282.407253
 40
2.500000
  1
--
 41
0.854701
 50
0.000000
 51
0.000000
 72
   5
 73
   0
 11
1070.315703
 21
282.407253
  0
TEXT
  8
5
  6
CONTINUOUS
 62
7
 10
1082.565703
 20
281.907253
 40
3.500000
  1
--
 41
0.854701
 50
0.000000
 51
0.000000
 72
   5
 73
   0
 11
1086.065703
 21
281.907253
  0
TEXT
  8
5
  6
CONTINUOUS
 62
7
 10
1083.440703
 20
291.907253
 40
3.500000
  1
1
 41
1.000000
 50
0.000000
 51
0.000000
 72
   5
 73
   0
 11
1085.190703
 21
291.907253
  0
LINE
  8
4
  6
CONTINUOUS
 62
6
 10
1020.0064359547
 20
241.3247804973
 11
1077.0064359547
 21
241.3247804973
  0
LINE
  8
4
  6
CONTINUOUS
 62
6
 10
1077.0064359547
 20
241.3247804973
 11
1077.0064359547
 21
151.3247804973
  0
LINE
  8
4
  6
CONTINUOUS
 62
6
 10
1077.0064359547
 20
151.3247804973
 11
1020.0064359547
 21
151.3247804973
  0
LINE
  8
4
  6
CONTINUOUS
 62
6
 10
1020.0064359547
 20
151.3247804973
 11
1020.0064359547
 21
241.3247804973
  0
CIRCLE
  8
4
  6
CONTINUOUS
 62
6
 10
1068.5064359547
 20
245.8247804973
 40
1.5000000000
  0
CIRCLE
  8
4
  6
CONTINUOUS
 62
6
 10
1028.5064359547
 20
245.8247804973
 40
1.5000000000
  0
CIRCLE
  8
4
  6
CONTINUOUS
 62
6
 10
1028.5064359547
 20
146.8247804973
 40
1.5000000000
  0
CIRCLE
  8
4
  6
CONTINUOUS
 62
6
 10
1068.5064359547
 20
146.8247804973
 40
1.5000000000
  0
DIMENSION
  8
1
  6
CONTINUOUS
 62
5
  2
*D9
 10
1006.0376661751
 20
146.8247804973
 11
1003.2876661751
 21
196.3247804973
  70
0
 13
1070.0064359547
 23
245.8247804973
 14
1070.0064359547
 24
146.8247804973
 50
90.000000
  0
DIMENSION
  8
1
  6
CONTINUOUS
 62
5
  2
*D10
 10
1012.6223475767
 20
151.3247804973
 11
1009.8723475767
 21
196.3247804973
  70
0
 13
1020.0064359547
 23
241.3247804973
 14
1020.0064359547
 24
151.3247804973
 50
90.000000
  0
DIMENSION
  8
1
  6
CONTINUOUS
 62
5
  2
*D11
 10
1027.4887580877
 20
147.9267477196
 11
1030.5267091956
 21
148.6905232535
  70
3
 15
1029.5241138217
 25
145.7228132750
  0
LINE
  8
1
  6
HIDDEN
 62
1
 10
1086.0064341666
 20
135.5797655845
 11
1086.0064341666
 21
257.0797464881
  0
POLYLINE
  8
1
  6
HIDDEN
 62
1
 66
     1
 70
     0
  0
VERTEX
  8
1
 62
1
 10
1086.0064359547
 20
257.0797458071
 42
0.0796153609
  0
VERTEX
  8
1
 62
1
 10
1085.9564245442
 20
257.3923176424
 42
0.1174683520
  0
VERTEX
  8
1
 62
1
 10
1085.7155903515
 20
257.7839391722
 42
0.1174683520
  0
VERTEX
  8
1
 62
1
 10
1085.3239682137
 20
258.0247723760
 42
0.0808607469
  0
VERTEX
  8
1
 62
1
 10
1085.0113987894
 20
258.0747829973
 42
0.0012379529
  0
SEQEND
  8
1
  0
LINE
  8
1
  6
HIDDEN
 62
1
 10
1000.0014733502
 20
258.0747827027
 11
1085.0114016773
 21
258.0747827027
  0
LINE
  8
1
  6
HIDDEN
 62
1
 10
999.0064357387
 20
257.0797464881
 11
999.0064357387
 21
135.5698145065
  0
POLYLINE
  8
1
  6
HIDDEN
 62
1
 66
     1
 70
     0
  0
VERTEX
  8
1
 62
1
 10
1000.0014731201
 20
258.0747829973
 42
0.0796147256
  0
VERTEX
  8
1
 62
1
 10
999.6889036958
 20
258.0247723760
 42
0.1174683520
  0
VERTEX
  8
1
 62
1
 10
999.2972815579
 20
257.7839391722
 42
0.1174683520
  0
VERTEX
  8
1
 62
1
 10
999.0564473653
 20
257.3923176425
 42
0.0808607469
  0
VERTEX
  8
1
 62
1
 10
999.0064359547
 20
257.0797458071
 42
0.0012373217
  0
SEQEND
  8
1
  0
POLYLINE
  8
1
  6
HIDDEN
 62
1
 66
     1
 70
     0
  0
VERTEX
  8
1
 62
1
 10
999.0064359547
 20
135.5698151875
 42
0.0791249785
  0
VERTEX
  8
1
 62
1
 10
999.0564473653
 20
135.2572433521
 42
0.1174683520
  0
VERTEX
  8
1
 62
1
 10
999.2972815579
 20
134.8656218224
 42
0.1174683520
  0
VERTEX
  8
1
 62
1
 10
999.6889036958
 20
134.6247886186
 42
0.0808607469
  0
VERTEX
  8
1
 62
1
 10
1000.0014731201
 20
134.5747779973
 42
0.0012380847
  0
SEQEND
  8
1
  0
LINE
  8
1
  6
HIDDEN
 62
1
 10
1000.0014733502
 20
134.5747782919
 11
1085.0114016773
 21
134.5747782919
  0
POLYLINE
  8
1
  6
HIDDEN
 62
1
 66
     1
 70
     0
  0
VERTEX
  8
1
 62
1
 10
1085.0113987894
 20
134.5747779973
 42
0.0791243434
  0
VERTEX
  8
1
 62
1
 10
1085.3239682137
 20
134.6247886186
 42
0.1174683520
  0
VERTEX
  8
1
 62
1
 10
1085.7155903515
 20
134.8656218224
 42
0.1174683520
  0
VERTEX
  8
1
 62
1
 10
1085.9564245442
 20
135.2572433522
 42
0.0808607469
  0
VERTEX
  8
1
 62
1
 10
1086.0064359547
 20
135.5698151875
 42
0.0012374534
  0
SEQEND
  8
1
  0
DIMENSION
  8
1
  6
CONTINUOUS
 62
5
  2
*D12
 10
1068.5064359547
 20
249.4164335187
 11
1048.5064359547
 21
252.1664335187
  70
0
 13
1028.5064359547
 23
145.3247804973
 14
1068.5064359547
 24
145.3247804973
 50
0.000000
  0
DIMENSION
  8
1
  6
CONTINUOUS
 62
5
  2
*D13
 10
1020.0064359547
 20
263.9552575319
 11
1009.5064359547
 21
266.7052575319
  70
0
 13
999.0064359547
 23
257.0797458071
 14
1020.0064359547
 24
241.3247804973
 50
0.000000
  0
DIMENSION
  8
1
  6
CONTINUOUS
 62
5
  2
*D14
 10
1077.0064359547
 20
263.9552575319
 11
1048.5064359547
 21
266.7052575319
  70
0
 13
1020.0064359547
 23
241.3247804973
 14
1077.0064359547
 24
241.3247804973
 50
0.000000
  0
DIMENSION
  8
1
  6
CONTINUOUS
 62
5
  2
*D15
 10
1086.0064359547
 20
263.9552575319
 11
1081.5064359547
 21
266.7052575319
  70
0
 13
1077.0064359547
 23
241.3247804973
 14
1086.0064359547
 24
257.0797458071
 50
0.000000
  0
INSERT
  8
1
  6
CONTINUOUS
 62
5
  2
LTEX1
 10
1046.3636410949
 20
134.5747782919
  0
INSERT
  8
1
  6
CONTINUOUS
 62
5
  2
BALN5
 10
894.7649830003
 20
245.2226582968
  0
LINE
  8
5
  6
CONTINUOUS
 62
6
 10
1066.8157033783
 20
286.1572533603
 11
1026.8157033783
 21
286.1572533603
  0
INSERT
  8
1
  6
CONTINUOUS
 62
7
  2
S2
 10
698.7477781160
 20
316.9327354514
  0
POINT
  8
5
  6
CONTINUOUS
 62
6
 10
698.7477781160
 20
321.9327354514
  0
INSERT
  8
1
  6
CONTINUOUS
 62
7
  2
S3
 10
698.7477781160
 20
321.9327354514
  0
TEXT
  8
5
  6
CONTINUOUS
 62
7
 10
1067.815703
 20
287.407253
 40
2.500000
  1
--
 41
0.854701
 50
0.000000
 51
0.000000
 72
   5
 73
   0
 11
1070.315703
 21
287.407253
  0
TEXT
  8
5
  6
CONTINUOUS
 62
7
 10
1083.440703
 20
286.907253
 40
3.500000
  1
8
 41
1.000000
 50
0.000000
 51
0.000000
 72
   5
 73
   0
 11
1085.190703
 21
286.907253
  0
TEXT
  8
5
  6
CONTINUOUS
 62
7
 10
1002.565703
 20
286.907253
 40
3.500000
  1
10
 41
0.854701
 50
0.000000
 51
0.000000
 72
   5
 73
   0
 11
1006.065703
 21
286.907253
  0
TEXT
  8
5
  6
CONTINUOUS
 62
7
 10
1002.565703
 20
281.907253
 40
3.500000
  1
11
 41
0.854701
 50
0.000000
 51
0.000000
 72
   5
 73
   0
 11
1006.065703
 21
281.907253
  0
POINT
  8
5
  6
CONTINUOUS
 62
6
 10
698.7477781160
 20
326.9327354514
  0
POINT
  8
5
  6
CONTINUOUS
 62
6
 10
698.7477781160
 20
326.9327354514
  0
INSERT
  8
1
  6
CONTINUOUS
 62
7
  2
S4
 10
698.7477781160
 20
326.9327354514
  0
POINT
  8
5
  6
CONTINUOUS
 62
6
 10
698.7477781160
 20
331.9327354514
  0
POINT
  8
5
  6
CONTINUOUS
 62
6
 10
698.7477781160
 20
331.9327354514
  0
POINT
  8
5
  6
CONTINUOUS
 62
6
 10
698.7477781160
 20
331.9327354514
  0
INSERT
  8
1
  6
CONTINUOUS
 62
7
  2
S5
 10
698.7477781160
 20
331.9327354514
  0
LINE
  8
5
  6
CONTINUOUS
 62
6
 10
694.2477781161
 20
334.4327354514
 11
774.2477781159
 21
334.4327354514
  0
POINT
  8
5
  6
CONTINUOUS
 62
6
 10
698.7477781161
 20
336.9327354514
  0
POINT
  8
5
  6
CONTINUOUS
 62
6
 10
709.2477781161
 20
336.9327354514
  0
POINT
  8
5
  6
CONTINUOUS
 62
6
 10
769.7477781161
 20
336.9327354514
  0
POINT
  8
5
  6
CONTINUOUS
 62
6
 10
715.2477781161
 20
336.9327354514
  0
POINT
  8
5
  6
CONTINUOUS
 62
6
 10
698.7477781161
 20
336.9327354514
  0
POINT
  8
5
  6
CONTINUOUS
 62
6
 10
698.7477781161
 20
336.9327354514
  0
POINT
  8
5
  6
CONTINUOUS
 62
6
 10
698.7477781161
 20
336.9327354514
  0
INSERT
  8
1
  6
CONTINUOUS
 62
7
  2
S6
 10
698.7477781161
 20
336.9327354514
  0
LINE
  8
5
  6
CONTINUOUS
 62
6
 10
694.2477781161
 20
339.4327354514
 11
774.2477781159
 21
339.4327354514
  0
POINT
  8
5
  6
CONTINUOUS
 62
6
 10
698.7477781161
 20
341.9327354514
  0
POINT
  8
5
  6
CONTINUOUS
 62
6
 10
709.2477781161
 20
341.9327354514
  0
POINT
  8
5
  6
CONTINUOUS
 62
6
 10
769.7477781161
 20
341.9327354514
  0
POINT
  8
5
  6
CONTINUOUS
 62
6
 10
715.2477781161
 20
341.9327354514
  0
POINT
  8
5
  6
CONTINUOUS
 62
6
 10
698.7477781161
 20
341.9327354514
  0
POINT
  8
5
  6
CONTINUOUS
 62
6
 10
698.7477781161
 20
341.9327354514
  0
POINT
  8
5
  6
CONTINUOUS
 62
6
 10
698.7477781161
 20
341.9327354514
  0
INSERT
  8
1
  6
CONTINUOUS
 62
7
  2
S7
 10
698.7477781161
 20
341.9327354514
  0
TEXT
  8
3
  6
CONTINUOUS
 62
3
 10
870.656828
 20
330.188881
 40
7.000000
  1
型番仕様
 41
0.886918
 50
0.000000
 51
0.000000
 72
   5
 73
   0
 11
898.656828
 21
330.188881
  0
TEXT
  8
3
  6
CONTINUOUS
 62
3
 10
870.656828
 20
322.188881
 40
7.000000
  1
MCON-030-361 PB UAUAUAHD
 41
0.754243
 50
0.000000
 51
0.000000
 72
   5
 73
   0
 11
954.656828
 21
322.188881
  0
TEXT
  8
5
  6
CONTINUOUS
 62
7
 10
1027.815703
 20
296.657253
 40
4.000000
  1
2354749
 41
0.774336
 50
0.000000
 51
0.000000
 72
   5
 73
   0
 11
1041.815703
 21
296.657253
  0
TEXT
  8
5
  6
CONTINUOUS
 62
7
 10
1027.815703
 20
291.657253
 40
4.000000
  1
2354747
 41
0.774336
 50
0.000000
 51
0.000000
 72
   5
 73
   0
 11
1041.815703
 21
291.657253
  0
TEXT
  8
5
  6
CONTINUOUS
 62
7
 10
1007.815703
 20
291.657253
 40
4.000000
  1
HDMI
 41
0.796813
 50
0.000000
 51
0.000000
 72
   5
 73
   0
 11
1015.815703
 21
291.657253
  0
TEXT
  8
5
  6
CONTINUOUS
 62
7
 10
1007.815703
 20
296.657253
 40
4.000000
  1
USB-A 3.0
 41
0.767918
 50
0.000000
 51
0.000000
 72
   5
 73
   0
 11
1025.815703
 21
296.657253
  0
LINE
  8
1
  6
CONTINUOUS
 62
7
 10
877.9104292122
 20
236.8247804973
 11
877.9104292122
 21
221.8247804973
  0
LINE
  8
1
  6
CONTINUOUS
 62
7
 10
911.4104292122
 20
238.8247804973
 11
879.9104292122
 21
238.8247804973
  0
LINE
  8
1
  6
CONTINUOUS
 62
7
 10
913.4104292122
 20
236.8247804973
 11
913.4104292122
 21
221.8247804973
  0
LINE
  8
1
  6
CONTINUOUS
 62
7
 10
911.4104292122
 20
219.8247804973
 11
879.9104292122
 21
219.8247804973
  0
CIRCLE
  8
3
  6
CONTINUOUS
 62
7
 10
881.1604292122
 20
229.3247804973
 40
3.0000000000
  0
LINE
  8
3
  6
CONTINUOUS
 62
6
 10
879.8219770907
 20
227.9863283758
 11
882.4988813337
 21
230.6632326189
  0
LINE
  8
3
  6
CONTINUOUS
 62
6
 10
882.4988813337
 20
227.9863283758
 11
879.8219770907
 21
230.6632326189
  0
CIRCLE
  8
3
  6
CONTINUOUS
 62
6
 10
881.1604292122
 20
229.3247804973
 40
2.6500000000
  0
CIRCLE
  8
3
  6
CONTINUOUS
 62
7
 10
910.1604292122
 20
229.3247804973
 40
3.0000000000
  0
LINE
  8
3
  6
CONTINUOUS
 62
6
 10
908.8219770907
 20
227.9863283758
 11
911.4988813337
 21
230.6632326189
  0
LINE
  8
3
  6
CONTINUOUS
 62
6
 10
911.4988813337
 20
227.9863283758
 11
908.8219770907
 21
230.6632326189
  0
CIRCLE
  8
3
  6
CONTINUOUS
 62
6
 10
910.1604292122
 20
229.3247804973
 40
2.6500000000
  0
LINE
  8
1
  6
CONTINUOUS
 62
7
 10
884.4104292122
 20
236.6747804973
 11
884.4104292122
 21
221.9747804973
  0
LINE
  8
1
  6
CONTINUOUS
 62
7
 10
905.9104292122
 20
237.6747804973
 11
885.4104292122
 21
237.6747804973
  0
LINE
  8
1
  6
CONTINUOUS
 62
7
 10
906.9104292122
 20
236.6747804973
 11
906.9104292122
 21
221.9747804973
  0
LINE
  8
1
  6
CONTINUOUS
 62
7
 10
905.9104292122
 20
220.9747804973
 11
885.4104292122
 21
220.9747804973
  0
ARC
  8
1
  6
CONTINUOUS
 62
7
 10
885.4104292122
 20
221.9747804973
 40
1.0000000000
 50
180.0000000000
 51
270.0000000000
  0
ARC
  8
1
  6
CONTINUOUS
 62
7
 10
885.4104292122
 20
236.6747804973
 40
1.0000000000
 50
90.0000000000
 51
180.0000000000
  0
ARC
  8
1
  6
CONTINUOUS
 62
7
 10
905.9104292122
 20
221.9747804973
 40
1.0000000000
 50
270.0000000000
 51
0.0000000000
  0
ARC
  8
1
  6
CONTINUOUS
 62
7
 10
905.9104292122
 20
236.6747804973
 40
1.0000000000
 50
0.0000000000
 51
90.0000000000
  0
ARC
  8
1
  6
CONTINUOUS
 62
7
 10
879.9104292122
 20
221.8247804973
 40
2.0000000000
 50
180.0000000000
 51
270.0000000000
  0
ARC
  8
1
  6
CONTINUOUS
 62
7
 10
879.9104292122
 20
236.8247804973
 40
2.0000000000
 50
90.0000000000
 51
180.0000000000
  0
ARC
  8
1
  6
CONTINUOUS
 62
7
 10
911.4104292122
 20
221.8247804973
 40
2.0000000000
 50
270.0000000000
 51
0.0000000000
  0
ARC
  8
1
  6
CONTINUOUS
 62
7
 10
911.4104292122
 20
236.8247804973
 40
2.0000000000
 50
0.0000000000
 51
90.0000000000
  0
POINT
  8
3
  6
CONTINUOUS
 62
7
 10
895.6604292122
 20
229.3247804973
  0
LINE
  8
2
  6
CONTINUOUS
 62
5
 10
890.7504277122
 20
231.0647804973
 11
895.6604297122
 21
231.0647804973
  0
LINE
  8
2
  6
CONTINUOUS
 62
5
 10
890.1104327122
 20
230.4247804973
 11
890.1104327122
 21
229.2247804973
  0
LINE
  8
2
  6
CONTINUOUS
 62
5
 10
890.6104327122
 20
229.6047794973
 11
900.7104267122
 21
229.6047794973
  0
LINE
  8
2
  6
CONTINUOUS
 62
5
 10
890.1104327122
 20
229.2247804973
 11
895.6604292122
 21
229.2247804973
  0
LINE
  8
2
  6
CONTINUOUS
 62
5
 10
889.4604267122
 20
231.1447804973
 11
889.4604267122
 21
230.1847814973
  0
LINE
  8
2
  6
CONTINUOUS
 62
5
 10
890.6104327122
 20
229.6047794973
 11
890.6104327122
 21
230.5647804973
  0
LINE
  8
2
  6
CONTINUOUS
 62
5
 10
889.9604267122
 20
231.2447814973
 11
891.9509017122
 21
231.2447814973
  0
LINE
  8
2
  6
CONTINUOUS
 62
5
 10
889.9604267122
 20
231.2447814973
 11
889.9604267122
 21
230.1347774973
  0
LINE
  8
2
  6
CONTINUOUS
 62
5
 10
892.0324067122
 20
231.0947814973
 11
891.9433797122
 21
231.1838084973
  0
LINE
  8
2
  6
CONTINUOUS
 62
5
 10
890.0604237122
 20
230.0347814973
 11
889.9104237122
 21
230.1847814973
  0
LINE
  8
2
  6
CONTINUOUS
 62
5
 10
889.9104277122
 20
230.1847814973
 11
889.4104277122
 21
230.1847814973
  0
LINE
  8
2
  6
CONTINUOUS
 62
5
 10
889.9104277122
 20
228.1847804973
 11
889.4104277122
 21
228.1847804973
  0
LINE
  8
2
  6
CONTINUOUS
 62
5
 10
890.0604287122
 20
228.3347814973
 11
890.0604287122
 21
230.0347814973
  0
LINE
  8
2
  6
CONTINUOUS
 62
5
 10
890.0604267122
 20
228.3347804973
 11
889.9104267122
 21
228.1847804973
  0
LINE
  8
2
  6
CONTINUOUS
 62
5
 10
892.6604217122
 20
231.0947794973
 11
893.2884427122
 21
231.0947794973
  0
LINE
  8
2
  6
CONTINUOUS
 62
5
 10
893.2884407122
 20
231.0947784973
 11
893.3774707122
 21
231.1838084973
  0
LINE
  8
2
  6
CONTINUOUS
 62
5
 10
892.6604297122
 20
231.0947794973
 11
892.0324067122
 21
231.0947794973
  0
LINE
  8
2
  6
CONTINUOUS
 62
5
 10
892.0324127122
 20
231.0947814973
 11
891.9433817122
 21
231.1838114973
  0
LINE
  8
2
  6
CONTINUOUS
 62
5
 10
891.4708977122
 20
231.7224874973
 11
891.6884887122
 21
231.6552414973
  0
LINE
  8
2
  6
CONTINUOUS
 62
5
 10
891.8939467122
 20
231.4281134973
 11
891.9433787122
 21
231.1838104973
  0
LINE
  8
2
  6
CONTINUOUS
 62
5
 10
891.9585507122
 20
231.6130604973
 11
891.9819987122
 21
231.4971784973
  0
LINE
  8
2
  6
CONTINUOUS
 62
5
 10
893.8499567122
 20
231.7224894973
 11
893.6323677122
 21
231.6552434973
  0
LINE
  8
2
  6
CONTINUOUS
 62
5
 10
893.4269037122
 20
231.4281134973
 11
893.3774707122
 21
231.1838104973
  0
LINE
  8
2
  6
CONTINUOUS
 62
5
 10
893.3622987122
 20
231.6130614973
 11
893.3388517122
 21
231.4971794973
  0
LINE
  8
2
  6
CONTINUOUS
 62
5
 10
893.3774727122
 20
231.1838084973
 11
893.3108044698
 21
231.7247804973
  0
LINE
  8
2
  6
CONTINUOUS
 62
5
 10
891.9433837122
 20
231.1838084973
 11
892.0100511091
 21
231.7247804973
  0
LINE
  8
2
  6
CONTINUOUS
 62
5
 10
892.6604297122
 20
227.2747804973
 11
892.0324067122
 21
227.2747804973
  0
LINE
  8
2
  6
CONTINUOUS
 62
5
 10
892.0324107122
 20
227.2747794973
 11
891.9433817122
 21
227.1857504973
  0
LINE
  8
2
  6
CONTINUOUS
 62
5
 10
892.6604217122
 20
227.2747804973
 11
893.2884427122
 21
227.2747804973
  0
LINE
  8
2
  6
CONTINUOUS
 62
5
 10
893.2884447122
 20
227.2747824973
 11
893.3774737122
 21
227.1857534973
  0
LINE
  8
2
  6
CONTINUOUS
 62
5
 10
893.8499557122
 20
226.6470744973
 11
893.6323667122
 21
226.7143204973
  0
LINE
  8
2
  6
CONTINUOUS
 62
5
 10
893.3623007122
 20
226.7564984973
 11
893.3388537122
 21
226.8723804973
  0
LINE
  8
2
  6
CONTINUOUS
 62
5
 10
891.4709017122
 20
226.6470754973
 11
891.6884927122
 21
226.7143214973
  0
LINE
  8
2
  6
CONTINUOUS
 62
5
 10
891.8939497122
 20
226.9414444973
 11
891.9433827122
 21
227.1857494973
  0
LINE
  8
2
  6
CONTINUOUS
 62
5
 10
891.9585537122
 20
226.7564974973
 11
891.9820017122
 21
226.8723794973
  0
LINE
  8
2
  6
CONTINUOUS
 62
5
 10
891.9433807122
 20
227.1857534973
 11
892.0125127122
 21
226.6247814973
  0
LINE
  8
2
  6
CONTINUOUS
 62
5
 10
893.3774787122
 20
227.1857524973
 11
893.3083467122
 21
226.6247824973
  0
LINE
  8
2
  6
CONTINUOUS
 62
5
 10
893.4269037122
 20
226.9414454973
 11
893.3774707122
 21
227.1857504973
  0
LINE
  8
2
  6
CONTINUOUS
 62
5
 10
893.3699557122
 20
231.2447814973
 11
895.6604297122
 21
231.2447814973
  0
LINE
  8
2
  6
CONTINUOUS
 62
5
 10
889.4604267122
 20
228.1847804973
 11
889.4604267122
 21
226.7730224973
  0
LINE
  8
2
  6
CONTINUOUS
 62
5
 10
889.9604267122
 20
228.2347804973
 11
889.9604267122
 21
226.6247804973
  0
LINE
  8
2
  6
CONTINUOUS
 62
5
 10
894.4104317122
 20
228.7247804973
 11
894.1604297122
 21
228.7247804973
  0
LINE
  8
2
  6
CONTINUOUS
 62
5
 10
894.1604297122
 20
229.0925534973
 11
894.1604297122
 21
228.7247804973
  0
LINE
  8
2
  6
CONTINUOUS
 62
5
 10
894.4104317122
 20
228.7716284973
 11
894.4104317122
 21
228.7247804973
  0
LINE
  8
2
  6
CONTINUOUS
 62
5
 10
894.9104317122
 20
228.7247804973
 11
895.1604317124
 21
228.7247804972
  0
LINE
  8
2
  6
CONTINUOUS
 62
5
 10
894.9104317122
 20
228.7716284973
 11
894.9104317122
 21
228.7247804973
  0
LINE
  8
2
  6
CONTINUOUS
 62
5
 10
895.1604317122
 20
229.0925534973
 11
895.1604317124
 21
228.7247804972
  0
LINE
  8
2
  6
CONTINUOUS
 62
5
 10
895.0666797122
 20
229.2247804973
 11
895.1144197122
 21
229.1213304973
  0
LINE
  8
2
  6
CONTINUOUS
 62
5
 10
894.2541817122
 20
229.2247814973
 11
894.2064407122
 21
229.1213304973
  0
LINE
  8
2
  6
CONTINUOUS
 62
5
 10
891.9104317122
 20
228.7247804973
 11
891.6604277122
 21
228.7247804973
  0
LINE
  8
2
  6
CONTINUOUS
 62
5
 10
891.6604277122
 20
229.0925534973
 11
891.6604277122
 21
228.7247804973
  0
LINE
  8
2
  6
CONTINUOUS
 62
5
 10
891.9104277122
 20
228.7716284973
 11
891.9104277122
 21
228.7247804973
  0
LINE
  8
2
  6
CONTINUOUS
 62
5
 10
892.4104317122
 20
228.7247804973
 11
892.6604317122
 21
228.7247804973
  0
LINE
  8
2
  6
CONTINUOUS
 62
5
 10
892.4104317122
 20
228.7716284973
 11
892.4104317122
 21
228.7247804973
  0
LINE
  8
2
  6
CONTINUOUS
 62
5
 10
892.6604317122
 20
229.0925534973
 11
892.6604317122
 21
228.7247804973
  0
LINE
  8
2
  6
CONTINUOUS
 62
5
 10
892.5666787122
 20
229.2247804973
 11
892.6144187122
 21
229.1213294973
  0
LINE
  8
2
  6
CONTINUOUS
 62
5
 10
891.7541797122
 20
229.2247794973
 11
891.7064407122
 21
229.1213304973
  0
LINE
  8
2
  6
CONTINUOUS
 62
5
 10
900.5704317122
 20
231.0647804973
 11
895.6604297122
 21
231.0647804973
  0
LINE
  8
2
  6
CONTINUOUS
 62
5
 10
901.2104267122
 20
230.4247804973
 11
901.2104267122
 21
229.2247804973
  0
LINE
  8
2
  6
CONTINUOUS
 62
5
 10
900.7104267122
 20
230.5647804973
 11
890.6104327122
 21
230.5647804973
  0
LINE
  8
2
  6
CONTINUOUS
 62
5
 10
901.2104267122
 20
229.2247804973
 11
895.6604292122
 21
229.2247804973
  0
LINE
  8
2
  6
CONTINUOUS
 62
5
 10
901.8604307122
 20
231.1447804973
 11
901.8604307122
 21
230.1847814973
  0
LINE
  8
2
  6
CONTINUOUS
 62
5
 10
900.7104267122
 20
229.6047794973
 11
900.7104267122
 21
230.5647804973
  0
LINE
  8
2
  6
CONTINUOUS
 62
5
 10
901.3604307122
 20
231.2447814973
 11
899.3699577122
 21
231.2447814973
  0
LINE
  8
2
  6
CONTINUOUS
 62
5
 10
901.3604307122
 20
231.2447814973
 11
901.3604307122
 21
230.1347774973
  0
LINE
  8
2
  6
CONTINUOUS
 62
5
 10
899.2884507122
 20
231.0947804973
 11
899.3774797122
 21
231.1838094973
  0
LINE
  8
2
  6
CONTINUOUS
 62
5
 10
901.2604337122
 20
230.0347804973
 11
901.4104337122
 21
230.1847804973
  0
LINE
  8
2
  6
CONTINUOUS
 62
5
 10
901.4104297122
 20
230.1847814973
 11
901.9104297122
 21
230.1847814973
  0
LINE
  8
2
  6
CONTINUOUS
 62
5
 10
901.4104297122
 20
228.1847804973
 11
901.9104297122
 21
228.1847804973
  0
LINE
  8
2
  6
CONTINUOUS
 62
5
 10
901.2604297122
 20
228.3347814973
 11
901.2604297122
 21
230.0347814973
  0
LINE
  8
2
  6
CONTINUOUS
 62
5
 10
901.2604327122
 20
228.3347804973
 11
901.4104327122
 21
228.1847804973
  0
LINE
  8
2
  6
CONTINUOUS
 62
5
 10
898.6604357122
 20
231.0947794973
 11
898.0324137122
 21
231.0947794973
  0
LINE
  8
2
  6
CONTINUOUS
 62
5
 10
898.0324167122
 20
231.0947804973
 11
897.9433867122
 21
231.1838094973
  0
LINE
  8
2
  6
CONTINUOUS
 62
5
 10
898.6604297122
 20
231.0947794973
 11
899.2884507122
 21
231.0947794973
  0
LINE
  8
2
  6
CONTINUOUS
 62
5
 10
899.2884457122
 20
231.0947824973
 11
899.3774747122
 21
231.1838114973
  0
LINE
  8
2
  6
CONTINUOUS
 62
5
 10
899.8499597122
 20
231.7224874973
 11
899.6323707122
 21
231.6552424973
  0
LINE
  8
2
  6
CONTINUOUS
 62
5
 10
899.4269137122
 20
231.4281134973
 11
899.3774817122
 21
231.1838114973
  0
LINE
  8
2
  6
CONTINUOUS
 62
5
 10
899.3623097122
 20
231.6130614973
 11
899.3388617122
 21
231.4971784973
  0
LINE
  8
2
  6
CONTINUOUS
 62
5
 10
897.4709037122
 20
231.7224894973
 11
897.6884927122
 21
231.6552444973
  0
LINE
  8
2
  6
CONTINUOUS
 62
5
 10
897.8939567122
 20
231.4281144973
 11
897.9433897122
 21
231.1838114973
  0
LINE
  8
2
  6
CONTINUOUS
 62
5
 10
897.9585597122
 20
231.6130614973
 11
897.9820077122
 21
231.4971794973
  0
LINE
  8
2
  6
CONTINUOUS
 62
5
 10
897.9433877122
 20
231.1838084973
 11
898.0100549903
 21
231.7247804973
  0
LINE
  8
2
  6
CONTINUOUS
 62
5
 10
899.3774767122
 20
231.1838084973
 11
899.3108084698
 21
231.7247804973
  0
LINE
  8
2
  6
CONTINUOUS
 62
5
 10
898.6604297122
 20
227.2747804973
 11
899.2884507122
 21
227.2747804973
  0
LINE
  8
2
  6
CONTINUOUS
 62
5
 10
899.2884487122
 20
227.2747784973
 11
899.3774777122
 21
227.1857494973
  0
LINE
  8
2
  6
CONTINUOUS
 62
5
 10
898.6604357122
 20
227.2747804973
 11
898.0324137122
 21
227.2747804973
  0
LINE
  8
2
  6
CONTINUOUS
 62
5
 10
898.0324147122
 20
227.2747794973
 11
897.9433857122
 21
227.1857504973
  0
LINE
  8
2
  6
CONTINUOUS
 62
5
 10
897.4709027122
 20
226.6470734973
 11
897.6884937122
 21
226.7143194973
  0
LINE
  8
2
  6
CONTINUOUS
 62
5
 10
897.9585587122
 20
226.7564974973
 11
897.9820067122
 21
226.8723794973
  0
LINE
  8
2
  6
CONTINUOUS
 62
5
 10
899.8499557122
 20
226.6470744973
 11
899.6323647122
 21
226.7143204973
  0
LINE
  8
2
  6
CONTINUOUS
 62
5
 10
899.4269107122
 20
226.9414464973
 11
899.3774777122
 21
227.1857504973
  0
LINE
  8
2
  6
CONTINUOUS
 62
5
 10
899.3623077122
 20
226.7565004973
 11
899.3388597122
 21
226.8723814973
  0
LINE
  8
2
  6
CONTINUOUS
 62
5
 10
899.3774757122
 20
227.1857544973
 11
899.3083427122
 21
226.6247824973
  0
LINE
  8
2
  6
CONTINUOUS
 62
5
 10
897.9433787122
 20
227.1857524973
 11
898.0125117122
 21
226.6247804973
  0
LINE
  8
2
  6
CONTINUOUS
 62
5
 10
897.8939547122
 20
226.9414454973
 11
897.9433877122
 21
227.1857494973
  0
LINE
  8
2
  6
CONTINUOUS
 62
5
 10
897.9509037122
 20
231.2447814973
 11
895.6604297122
 21
231.2447814973
  0
LINE
  8
2
  6
CONTINUOUS
 62
5
 10
901.8604307122
 20
228.1847804973
 11
901.8604307122
 21
226.7730224973
  0
LINE
  8
2
  6
CONTINUOUS
 62
5
 10
901.3604307122
 20
228.2347804973
 11
901.3604307122
 21
226.6247804973
  0
LINE
  8
2
  6
CONTINUOUS
 62
5
 10
896.9104277122
 20
228.7247804973
 11
897.1604277122
 21
228.7247804973
  0
LINE
  8
2
  6
CONTINUOUS
 62
5
 10
897.1604277122
 20
229.0925534973
 11
897.1604277122
 21
228.7247804973
  0
LINE
  8
2
  6
CONTINUOUS
 62
5
 10
896.9104277122
 20
228.7716284973
 11
896.9104277122
 21
228.7247804973
  0
LINE
  8
2
  6
CONTINUOUS
 62
5
 10
896.4104277122
 20
228.7247804973
 11
896.1604277122
 21
228.7247804973
  0
LINE
  8
2
  6
CONTINUOUS
 62
5
 10
896.4104277122
 20
228.7716284973
 11
896.4104277122
 21
228.7247804973
  0
LINE
  8
2
  6
CONTINUOUS
 62
5
 10
896.1604277122
 20
229.0925534973
 11
896.1604277122
 21
228.7247804973
  0
LINE
  8
2
  6
CONTINUOUS
 62
5
 10
896.2541797122
 20
229.2247794973
 11
896.2064397122
 21
229.1213304973
  0
LINE
  8
2
  6
CONTINUOUS
 62
5
 10
897.0666787122
 20
229.2247794973
 11
897.1144187122
 21
229.1213294973
  0
LINE
  8
2
  6
CONTINUOUS
 62
5
 10
899.4104277122
 20
228.7247804973
 11
899.6604277122
 21
228.7247804973
  0
LINE
  8
2
  6
CONTINUOUS
 62
5
 10
899.6604277122
 20
229.0925534973
 11
899.6604277122
 21
228.7247804973
  0
LINE
  8
2
  6
CONTINUOUS
 62
5
 10
899.4104277122
 20
228.7716284973
 11
899.4104277122
 21
228.7247804973
  0
LINE
  8
2
  6
CONTINUOUS
 62
5
 10
898.9104277122
 20
228.7247804973
 11
898.6604277122
 21
228.7247804973
  0
LINE
  8
2
  6
CONTINUOUS
 62
5
 10
898.9104277122
 20
228.7716284973
 11
898.9104277122
 21
228.7247804973
  0
LINE
  8
2
  6
CONTINUOUS
 62
5
 10
898.6604277122
 20
229.0925534973
 11
898.6604277122
 21
228.7247804973
  0
LINE
  8
2
  6
CONTINUOUS
 62
5
 10
898.7541787122
 20
229.2247804973
 11
898.7064387122
 21
229.1213304973
  0
LINE
  8
2
  6
CONTINUOUS
 62
5
 10
899.5666777122
 20
229.2247784973
 11
899.6144177122
 21
229.1213294973
  0
ARC
  8
2
  6
CONTINUOUS
 62
5
 10
890.7504277122
 20
230.4247804973
 40
0.6400000000
 50
89.9999960000
 51
180.0000050000
  0
ARC
  8
2
  6
CONTINUOUS
 62
5
 10
890.0604287122
 20
231.1447804973
 40
0.6000000000
 50
104.8351115821
 51
180.0000050000
  0
ARC
  8
2
  6
CONTINUOUS
 62
5
 10
889.7304277122
 20
226.9447814973
 40
0.3200000000
 50
180.0000090000
 51
269.9999970000
  0
ARC
  8
2
  6
CONTINUOUS
 62
5
 10
891.4684857122
 20
231.5139004973
 40
0.5000000000
 50
11.4389220000
 51
24.9457536051
  0
ARC
  8
2
  6
CONTINUOUS
 62
5
 10
891.5999057122
 20
231.3686184973
 40
0.3000000000
 50
11.4389220000
 51
72.8263110000
  0
ARC
  8
2
  6
CONTINUOUS
 62
5
 10
893.8523697122
 20
231.5139004973
 40
0.5000000000
 50
155.0542463949
 51
168.5610770000
  0
ARC
  8
2
  6
CONTINUOUS
 62
5
 10
893.7209457122
 20
231.3686184973
 40
0.3000000000
 50
107.1736870000
 51
168.5610770000
  0
ARC
  8
2
  6
CONTINUOUS
 62
5
 10
893.8523717122
 20
226.8556604973
 40
0.5000000000
 50
191.4389230000
 51
207.5006860000
  0
ARC
  8
2
  6
CONTINUOUS
 62
5
 10
893.9975877122
 20
227.1247814973
 40
0.5000000000
 50
252.8263130000
 51
270.0000040000
  0
ARC
  8
2
  6
CONTINUOUS
 62
5
 10
893.7209457122
 20
227.0009424973
 40
0.3000000000
 50
191.4389230000
 51
252.8263130000
  0
ARC
  8
2
  6
CONTINUOUS
 62
5
 10
891.4684857122
 20
226.8556604973
 40
0.5000000000
 50
332.4993140000
 51
348.5610780000
  0
ARC
  8
2
  6
CONTINUOUS
 62
5
 10
891.3232637122
 20
227.1247814973
 40
0.5000000000
 50
270.0000040000
 51
287.1736890000
  0
ARC
  8
2
  6
CONTINUOUS
 62
5
 10
891.5999057122
 20
227.0009424973
 40
0.3000000000
 50
287.1736890000
 51
348.5610780000
  0
ARC
  8
2
  6
CONTINUOUS
 62
5
 10
894.6604317122
 20
228.7716284973
 40
0.2500000000
 50
0.0000090000
 51
90.0000030001
  0
ARC
  8
2
  6
CONTINUOUS
 62
5
 10
894.6604317122
 20
229.0925534973
 40
0.5000000000
 50
164.6655340000
 51
179.9999910000
  0
ARC
  8
2
  6
CONTINUOUS
 62
5
 10
894.6604317122
 20
229.3247814973
 40
0.6500000000
 50
247.3801390000
 51
270.0000040000
  0
ARC
  8
2
  6
CONTINUOUS
 62
5
 10
894.6604317122
 20
228.7716284973
 40
0.2500000000
 50
89.9999960000
 51
179.9999910000
  0
ARC
  8
2
  6
CONTINUOUS
 62
5
 10
894.6604317122
 20
228.9118224973
 40
0.5000000000
 50
0.0000090000
 51
24.7724080000
  0
ARC
  8
2
  6
CONTINUOUS
 62
5
 10
894.6604317122
 20
229.0925534973
 40
0.5000000000
 50
0.0000090000
 51
15.3344680000
  0
ARC
  8
2
  6
CONTINUOUS
 62
5
 10
894.6604317122
 20
229.3247814973
 40
0.6500000000
 50
270.0000040000
 51
292.6198700000
  0
ARC
  8
2
  6
CONTINUOUS
 62
5
 10
894.6604317122
 20
228.9118224973
 40
0.5000000000
 50
155.2275920000
 51
179.9999910000
  0
ARC
  8
2
  6
CONTINUOUS
 62
5
 10
892.1604317122
 20
228.9118224973
 40
0.5000000000
 50
155.2275920000
 51
179.9999910000
  0
ARC
  8
2
  6
CONTINUOUS
 62
5
 10
892.1604317122
 20
228.7716284973
 40
0.2500000000
 50
0.0000090000
 51
90.0000030001
  0
ARC
  8
2
  6
CONTINUOUS
 62
5
 10
892.1604317122
 20
229.0925534973
 40
0.5000000000
 50
164.6655340000
 51
179.9999910000
  0
ARC
  8
2
  6
CONTINUOUS
 62
5
 10
892.1604317122
 20
229.3247814973
 40
0.6500000000
 50
247.3801390000
 51
270.0000040000
  0
ARC
  8
2
  6
CONTINUOUS
 62
5
 10
892.1604317122
 20
228.7716284973
 40
0.2500000000
 50
89.9999960000
 51
179.9999910000
  0
ARC
  8
2
  6
CONTINUOUS
 62
5
 10
892.1604317122
 20
228.9118224973
 40
0.5000000000
 50
0.0000090000
 51
24.7724080000
  0
ARC
  8
2
  6
CONTINUOUS
 62
5
 10
892.1604317122
 20
229.0925534973
 40
0.5000000000
 50
0.0000090000
 51
15.3344680000
  0
ARC
  8
2
  6
CONTINUOUS
 62
5
 10
892.1604317122
 20
229.3247814973
 40
0.6500000000
 50
270.0000040000
 51
292.6198700000
  0
ARC
  8
2
  6
CONTINUOUS
 62
5
 10
899.1604277122
 20
229.3247814973
 40
0.6500000000
 50
247.3801320000
 51
269.9999970000
  0
ARC
  8
2
  6
CONTINUOUS
 62
5
 10
899.1604277122
 20
229.0925534973
 40
0.5000000000
 50
164.6655340000
 51
179.9999910000
  0
ARC
  8
2
  6
CONTINUOUS
 62
5
 10
900.5704317122
 20
230.4247804973
 40
0.6400000000
 50
0.0000000000
 51
90.0000030000
  0
ARC
  8
2
  6
CONTINUOUS
 62
5
 10
901.2604297122
 20
231.1447804973
 40
0.6000000000
 50
0.0000000000
 51
75.1648884179
  0
ARC
  8
2
  6
CONTINUOUS
 62
5
 10
901.5904317122
 20
226.9447814973
 40
0.3200000000
 50
269.9999970000
 51
0.0000000000
  0
ARC
  8
2
  6
CONTINUOUS
 62
5
 10
899.8523737122
 20
231.5139004973
 40
0.5000000000
 50
155.0542463949
 51
168.5610770000
  0
ARC
  8
2
  6
CONTINUOUS
 62
5
 10
899.7209517122
 20
231.3686184973
 40
0.3000000000
 50
107.1736870001
 51
168.5610770000
  0
ARC
  8
2
  6
CONTINUOUS
 62
5
 10
897.4684897122
 20
231.5139004973
 40
0.5000000000
 50
11.4389220000
 51
24.9457536051
  0
ARC
  8
2
  6
CONTINUOUS
 62
5
 10
897.5999137122
 20
231.3686184973
 40
0.3000000000
 50
11.4389220000
 51
72.8263110000
  0
ARC
  8
2
  6
CONTINUOUS
 62
5
 10
897.4684857122
 20
226.8556604973
 40
0.5000000000
 50
332.4993140000
 51
348.5610780000
  0
ARC
  8
2
  6
CONTINUOUS
 62
5
 10
897.3232717122
 20
227.1247814973
 40
0.5000000000
 50
269.9999970000
 51
287.1736890000
  0
ARC
  8
2
  6
CONTINUOUS
 62
5
 10
897.5999137122
 20
227.0009424973
 40
0.3000000000
 50
287.1736890000
 51
348.5610780000
  0
ARC
  8
2
  6
CONTINUOUS
 62
5
 10
899.8523737122
 20
226.8556604973
 40
0.5000000000
 50
191.4389230000
 51
207.5006860000
  0
ARC
  8
2
  6
CONTINUOUS
 62
5
 10
899.9975937122
 20
227.1247814973
 40
0.5000000000
 50
252.8263130000
 51
269.9999970000
  0
ARC
  8
2
  6
CONTINUOUS
 62
5
 10
899.7209517122
 20
227.0009424973
 40
0.3000000000
 50
191.4389230000
 51
252.8263129999
  0
ARC
  8
2
  6
CONTINUOUS
 62
5
 10
896.6604277122
 20
228.7716284973
 40
0.2500000000
 50
89.9999960000
 51
179.9999910000
  0
ARC
  8
2
  6
CONTINUOUS
 62
5
 10
896.6604277122
 20
229.0925534973
 40
0.5000000000
 50
0.0000030000
 51
15.3344680000
  0
ARC
  8
2
  6
CONTINUOUS
 62
5
 10
896.6604277122
 20
229.3247814973
 40
0.6500000000
 50
269.9999970000
 51
292.6198630000
  0
ARC
  8
2
  6
CONTINUOUS
 62
5
 10
896.6604277122
 20
228.7716284973
 40
0.2500000000
 50
0.0000030000
 51
90.0000030001
  0
ARC
  8
2
  6
CONTINUOUS
 62
5
 10
896.6604277122
 20
228.9118224973
 40
0.5000000000
 50
155.2275920000
 51
179.9999910000
  0
ARC
  8
2
  6
CONTINUOUS
 62
5
 10
896.6604277122
 20
229.0925534973
 40
0.5000000000
 50
164.6655340000
 51
179.9999910000
  0
ARC
  8
2
  6
CONTINUOUS
 62
5
 10
896.6604277122
 20
229.3247814973
 40
0.6500000000
 50
247.3801320000
 51
269.9999970000
  0
ARC
  8
2
  6
CONTINUOUS
 62
5
 10
896.6604277122
 20
228.9118224973
 40
0.5000000000
 50
0.0000090000
 51
24.7724080000
  0
ARC
  8
2
  6
CONTINUOUS
 62
5
 10
899.1604277122
 20
228.9118224973
 40
0.5000000000
 50
0.0000090000
 51
24.7724080000
  0
ARC
  8
2
  6
CONTINUOUS
 62
5
 10
899.1604277122
 20
228.7716284973
 40
0.2500000000
 50
89.9999960000
 51
179.9999910000
  0
ARC
  8
2
  6
CONTINUOUS
 62
5
 10
899.1604277122
 20
229.0925534973
 40
0.5000000000
 50
0.0000030000
 51
15.3344680000
  0
ARC
  8
2
  6
CONTINUOUS
 62
5
 10
899.1604277122
 20
229.3247814973
 40
0.6500000000
 50
269.9999970000
 51
292.6198630000
  0
ARC
  8
2
  6
CONTINUOUS
 62
5
 10
899.1604277122
 20
228.7716284973
 40
0.2500000000
 50
0.0000030000
 51
90.0000030001
  0
ARC
  8
2
  6
CONTINUOUS
 62
5
 10
899.1604277122
 20
228.9118224973
 40
0.5000000000
 50
155.2275920000
 51
179.9999910000
  0
LINE
  8
2
  6
CONTINUOUS
 62
5
 10
901.5904316955
 20
226.6247814973
 11
889.7304277122
 21
226.6247814973
  0
LINE
  8
1
  6
CONTINUOUS
 62
5
 10
889.4104292122
 20
231.7247804973
 11
901.9104292122
 21
231.7247804973
  0
LINE
  8
1
  6
CONTINUOUS
 62
5
 10
901.9104292122
 20
231.7247804973
 11
901.9104292122
 21
226.3247804973
  0
LINE
  8
1
  6
CONTINUOUS
 62
5
 10
901.9104292122
 20
226.3247804973
 11
889.4104292122
 21
226.3247804973
  0
LINE
  8
1
  6
CONTINUOUS
 62
5
 10
889.4104292122
 20
226.3247804973
 11
889.4104292122
 21
231.7247804973
  0
POINT
  8
3
  6
CONTINUOUS
 62
5
 10
895.6604292122
 20
229.3247804973
  0
LINE
  8
1
  6
CONTINUOUS
 62
7
 10
877.9104292122
 20
217.6247804973
 11
877.9104292122
 21
202.6247804973
  0
LINE
  8
1
  6
CONTINUOUS
 62
7
 10
877.9104292122
 20
198.4247804973
 11
877.9104292122
 21
183.4247804973
  0
LINE
  8
1
  6
CONTINUOUS
 62
7
 10
911.4104292122
 20
219.6247804973
 11
879.9104292122
 21
219.6247804973
  0
LINE
  8
1
  6
CONTINUOUS
 62
7
 10
911.4104292122
 20
200.4247804973
 11
879.9104292122
 21
200.4247804973
  0
LINE
  8
1
  6
CONTINUOUS
 62
7
 10
913.4104292122
 20
217.6247804973
 11
913.4104292122
 21
202.6247804973
  0
LINE
  8
1
  6
CONTINUOUS
 62
7
 10
913.4104292122
 20
198.4247804973
 11
913.4104292122
 21
183.4247804973
  0
LINE
  8
1
  6
CONTINUOUS
 62
7
 10
911.4104292122
 20
200.6247804973
 11
879.9104292122
 21
200.6247804973
  0
LINE
  8
1
  6
CONTINUOUS
 62
7
 10
911.4104292122
 20
181.4247804973
 11
879.9104292122
 21
181.4247804973
  0
CIRCLE
  8
3
  6
CONTINUOUS
 62
7
 10
881.1604292122
 20
210.1247804973
 40
3.0000000000
  0
CIRCLE
  8
3
  6
CONTINUOUS
 62
7
 10
881.1604292122
 20
190.9247804973
 40
3.0000000000
  0
LINE
  8
3
  6
CONTINUOUS
 62
6
 10
879.8219770907
 20
208.7863283758
 11
882.4988813337
 21
211.4632326189
  0
LINE
  8
3
  6
CONTINUOUS
 62
6
 10
879.8219770907
 20
189.5863283758
 11
882.4988813337
 21
192.2632326189
  0
LINE
  8
3
  6
CONTINUOUS
 62
6
 10
882.4988813337
 20
208.7863283758
 11
879.8219770907
 21
211.4632326189
  0
LINE
  8
3
  6
CONTINUOUS
 62
6
 10
882.4988813337
 20
189.5863283758
 11
879.8219770907
 21
192.2632326189
  0
CIRCLE
  8
3
  6
CONTINUOUS
 62
6
 10
881.1604292122
 20
210.1247804973
 40
2.6500000000
  0
CIRCLE
  8
3
  6
CONTINUOUS
 62
6
 10
881.1604292122
 20
190.9247804973
 40
2.6500000000
  0
CIRCLE
  8
3
  6
CONTINUOUS
 62
7
 10
910.1604292122
 20
210.1247804973
 40
3.0000000000
  0
CIRCLE
  8
3
  6
CONTINUOUS
 62
7
 10
910.1604292122
 20
190.9247804973
 40
3.0000000000
  0
LINE
  8
3
  6
CONTINUOUS
 62
6
 10
908.8219770907
 20
208.7863283758
 11
911.4988813337
 21
211.4632326189
  0
LINE
  8
3
  6
CONTINUOUS
 62
6
 10
908.8219770907
 20
189.5863283758
 11
911.4988813337
 21
192.2632326189
  0
LINE
  8
3
  6
CONTINUOUS
 62
6
 10
911.4988813337
 20
208.7863283758
 11
908.8219770907
 21
211.4632326189
  0
LINE
  8
3
  6
CONTINUOUS
 62
6
 10
911.4988813337
 20
189.5863283758
 11
908.8219770907
 21
192.2632326189
  0
CIRCLE
  8
3
  6
CONTINUOUS
 62
6
 10
910.1604292122
 20
210.1247804973
 40
2.6500000000
  0
CIRCLE
  8
3
  6
CONTINUOUS
 62
6
 10
910.1604292122
 20
190.9247804973
 40
2.6500000000
  0
LINE
  8
1
  6
CONTINUOUS
 62
7
 10
884.4104292122
 20
217.4747804973
 11
884.4104292122
 21
202.7747804973
  0
LINE
  8
1
  6
CONTINUOUS
 62
7
 10
884.4104292122
 20
198.2747804973
 11
884.4104292122
 21
183.5747804973
  0
LINE
  8
1
  6
CONTINUOUS
 62
7
 10
905.9104292122
 20
218.4747804973
 11
885.4104292122
 21
218.4747804973
  0
LINE
  8
1
  6
CONTINUOUS
 62
7
 10
905.9104292122
 20
199.2747804973
 11
885.4104292122
 21
199.2747804973
  0
LINE
  8
1
  6
CONTINUOUS
 62
7
 10
906.9104292122
 20
217.4747804973
 11
906.9104292122
 21
202.7747804973
  0
LINE
  8
1
  6
CONTINUOUS
 62
7
 10
906.9104292122
 20
198.2747804973
 11
906.9104292122
 21
183.5747804973
  0
LINE
  8
1
  6
CONTINUOUS
 62
7
 10
905.9104292122
 20
201.7747804973
 11
885.4104292122
 21
201.7747804973
  0
LINE
  8
1
  6
CONTINUOUS
 62
7
 10
905.9104292122
 20
182.5747804973
 11
885.4104292122
 21
182.5747804973
  0
ARC
  8
1
  6
CONTINUOUS
 62
7
 10
885.4104292122
 20
202.7747804973
 40
1.0000000000
 50
180.0000000000
 51
270.0000000000
  0
ARC
  8
1
  6
CONTINUOUS
 62
7
 10
885.4104292122
 20
183.5747804973
 40
1.0000000000
 50
180.0000000000
 51
270.0000000000
  0
ARC
  8
1
  6
CONTINUOUS
 62
7
 10
885.4104292122
 20
217.4747804973
 40
1.0000000000
 50
90.0000000000
 51
180.0000000000
  0
ARC
  8
1
  6
CONTINUOUS
 62
7
 10
885.4104292122
 20
198.2747804973
 40
1.0000000000
 50
90.0000000000
 51
180.0000000000
  0
ARC
  8
1
  6
CONTINUOUS
 62
7
 10
905.9104292122
 20
202.7747804973
 40
1.0000000000
 50
270.0000000000
 51
0.0000000000
  0
ARC
  8
1
  6
CONTINUOUS
 62
7
 10
905.9104292122
 20
183.5747804973
 40
1.0000000000
 50
270.0000000000
 51
0.0000000000
  0
ARC
  8
1
  6
CONTINUOUS
 62
7
 10
905.9104292122
 20
217.4747804973
 40
1.0000000000
 50
0.0000000000
 51
90.0000000000
  0
ARC
  8
1
  6
CONTINUOUS
 62
7
 10
905.9104292122
 20
198.2747804973
 40
1.0000000000
 50
0.0000000000
 51
90.0000000000
  0
ARC
  8
1
  6
CONTINUOUS
 62
7
 10
879.9104292122
 20
202.6247804973
 40
2.0000000000
 50
180.0000000000
 51
270.0000000000
  0
ARC
  8
1
  6
CONTINUOUS
 62
7
 10
879.9104292122
 20
183.4247804973
 40
2.0000000000
 50
180.0000000000
 51
270.0000000000
  0
ARC
  8
1
  6
CONTINUOUS
 62
7
 10
879.9104292122
 20
217.6247804973
 40
2.0000000000
 50
90.0000000000
 51
180.0000000000
  0
ARC
  8
1
  6
CONTINUOUS
 62
7
 10
879.9104292122
 20
198.4247804973
 40
2.0000000000
 50
90.0000000000
 51
180.0000000000
  0
ARC
  8
1
  6
CONTINUOUS
 62
7
 10
911.4104292122
 20
202.6247804973
 40
2.0000000000
 50
270.0000000000
 51
0.0000000000
  0
ARC
  8
1
  6
CONTINUOUS
 62
7
 10
911.4104292122
 20
183.4247804973
 40
2.0000000000
 50
270.0000000000
 51
0.0000000000
  0
ARC
  8
1
  6
CONTINUOUS
 62
7
 10
911.4104292122
 20
217.6247804973
 40
2.0000000000
 50
0.0000000000
 51
90.0000000000
  0
ARC
  8
1
  6
CONTINUOUS
 62
7
 10
911.4104292122
 20
198.4247804973
 40
2.0000000000
 50
0.0000000000
 51
90.0000000000
  0
POINT
  8
3
  6
CONTINUOUS
 62
7
 10
895.6604292122
 20
210.1247804973
  0
POINT
  8
3
  6
CONTINUOUS
 62
7
 10
895.6604292122
 20
190.9247804973
  0
LINE
  8
2
  6
CONTINUOUS
 62
5
 10
890.7504277122
 20
211.8647804973
 11
895.6604297122
 21
211.8647804973
  0
LINE
  8
2
  6
CONTINUOUS
 62
5
 10
890.7504277122
 20
192.6647804973
 11
895.6604297122
 21
192.6647804973
  0
LINE
  8
2
  6
CONTINUOUS
 62
5
 10
890.1104327122
 20
211.2247804973
 11
890.1104327122
 21
210.0247804973
  0
LINE
  8
2
  6
CONTINUOUS
 62
5
 10
890.1104327122
 20
192.0247804973
 11
890.1104327122
 21
190.8247804973
  0
LINE
  8
2
  6
CONTINUOUS
 62
5
 10
890.6104327122
 20
210.4047794973
 11
900.7104267122
 21
210.4047794973
  0
LINE
  8
2
  6
CONTINUOUS
 62
5
 10
890.6104327122
 20
191.2047794973
 11
900.7104267122
 21
191.2047794973
  0
LINE
  8
2
  6
CONTINUOUS
 62
5
 10
890.1104327122
 20
210.0247804973
 11
895.6604292122
 21
210.0247804973
  0
LINE
  8
2
  6
CONTINUOUS
 62
5
 10
890.1104327122
 20
190.8247804973
 11
895.6604292122
 21
190.8247804973
  0
LINE
  8
2
  6
CONTINUOUS
 62
5
 10
889.4604267122
 20
211.9447804973
 11
889.4604267122
 21
210.9847814973
  0
LINE
  8
2
  6
CONTINUOUS
 62
5
 10
889.4604267122
 20
192.7447804973
 11
889.4604267122
 21
191.7847814973
  0
LINE
  8
2
  6
CONTINUOUS
 62
5
 10
890.6104327122
 20
210.4047794973
 11
890.6104327122
 21
211.3647804973
  0
LINE
  8
2
  6
CONTINUOUS
 62
5
 10
890.6104327122
 20
191.2047794973
 11
890.6104327122
 21
192.1647804973
  0
LINE
  8
2
  6
CONTINUOUS
 62
5
 10
889.9604267122
 20
212.0447814973
 11
891.9509017122
 21
212.0447814973
  0
LINE
  8
2
  6
CONTINUOUS
 62
5
 10
889.9604267122
 20
192.8447814973
 11
891.9509017122
 21
192.8447814973
  0
LINE
  8
2
  6
CONTINUOUS
 62
5
 10
889.9604267122
 20
212.0447814973
 11
889.9604267122
 21
210.9347774973
  0
LINE
  8
2
  6
CONTINUOUS
 62
5
 10
889.9604267122
 20
192.8447814973
 11
889.9604267122
 21
191.7347774973
  0
LINE
  8
2
  6
CONTINUOUS
 62
5
 10
892.0324067122
 20
211.8947814973
 11
891.9433797122
 21
211.9838084973
  0
LINE
  8
2
  6
CONTINUOUS
 62
5
 10
892.0324067122
 20
192.6947814973
 11
891.9433797122
 21
192.7838084973
  0
LINE
  8
2
  6
CONTINUOUS
 62
5
 10
890.0604237122
 20
210.8347814973
 11
889.9104237122
 21
210.9847814973
  0
LINE
  8
2
  6
CONTINUOUS
 62
5
 10
890.0604237122
 20
191.6347814973
 11
889.9104237122
 21
191.7847814973
  0
LINE
  8
2
  6
CONTINUOUS
 62
5
 10
889.9104277122
 20
210.9847814973
 11
889.4104277122
 21
210.9847814973
  0
LINE
  8
2
  6
CONTINUOUS
 62
5
 10
889.9104277122
 20
191.7847814973
 11
889.4104277122
 21
191.7847814973
  0
LINE
  8
2
  6
CONTINUOUS
 62
5
 10
889.9104277122
 20
208.9847804973
 11
889.4104277122
 21
208.9847804973
  0
LINE
  8
2
  6
CONTINUOUS
 62
5
 10
889.9104277122
 20
189.7847804973
 11
889.4104277122
 21
189.7847804973
  0
LINE
  8
2
  6
CONTINUOUS
 62
5
 10
890.0604287122
 20
209.1347814973
 11
890.0604287122
 21
210.8347814973
  0
LINE
  8
2
  6
CONTINUOUS
 62
5
 10
890.0604287122
 20
189.9347814973
 11
890.0604287122
 21
191.6347814973
  0
LINE
  8
2
  6
CONTINUOUS
 62
5
 10
890.0604267122
 20
209.1347804973
 11
889.9104267122
 21
208.9847804973
  0
LINE
  8
2
  6
CONTINUOUS
 62
5
 10
890.0604267122
 20
189.9347804973
 11
889.9104267122
 21
189.7847804973
  0
LINE
  8
2
  6
CONTINUOUS
 62
5
 10
892.6604217122
 20
211.8947794973
 11
893.2884427122
 21
211.8947794973
  0
LINE
  8
2
  6
CONTINUOUS
 62
5
 10
892.6604217122
 20
192.6947794973
 11
893.2884427122
 21
192.6947794973
  0
LINE
  8
2
  6
CONTINUOUS
 62
5
 10
893.2884407122
 20
211.8947784973
 11
893.3774707122
 21
211.9838084973
  0
LINE
  8
2
  6
CONTINUOUS
 62
5
 10
893.2884407122
 20
192.6947784973
 11
893.3774707122
 21
192.7838084973
  0
LINE
  8
2
  6
CONTINUOUS
 62
5
 10
892.6604297122
 20
211.8947794973
 11
892.0324067122
 21
211.8947794973
  0
LINE
  8
2
  6
CONTINUOUS
 62
5
 10
892.6604297122
 20
192.6947794973
 11
892.0324067122
 21
192.6947794973
  0
LINE
  8
2
  6
CONTINUOUS
 62
5
 10
892.0324127122
 20
211.8947814973
 11
891.9433817122
 21
211.9838114973
  0
LINE
  8
2
  6
CONTINUOUS
 62
5
 10
892.0324127122
 20
192.6947814973
 11
891.9433817122
 21
192.7838114973
  0
LINE
  8
2
  6
CONTINUOUS
 62
5
 10
891.4708977122
 20
212.5224874973
 11
891.6884887122
 21
212.4552414973
  0
LINE
  8
2
  6
CONTINUOUS
 62
5
 10
891.4708977122
 20
193.3224874973
 11
891.6884887122
 21
193.2552414973
  0
LINE
  8
2
  6
CONTINUOUS
 62
5
 10
891.8939467122
 20
212.2281134973
 11
891.9433787122
 21
211.9838104973
  0
LINE
  8
2
  6
CONTINUOUS
 62
5
 10
891.8939467122
 20
193.0281134973
 11
891.9433787122
 21
192.7838104973
  0
LINE
  8
2
  6
CONTINUOUS
 62
5
 10
891.9585507122
 20
212.4130604973
 11
891.9819987122
 21
212.2971784973
  0
LINE
  8
2
  6
CONTINUOUS
 62
5
 10
891.9585507122
 20
193.2130604973
 11
891.9819987122
 21
193.0971784973
  0
LINE
  8
2
  6
CONTINUOUS
 62
5
 10
893.8499567122
 20
212.5224894973
 11
893.6323677122
 21
212.4552434973
  0
LINE
  8
2
  6
CONTINUOUS
 62
5
 10
893.8499567122
 20
193.3224894973
 11
893.6323677122
 21
193.2552434973
  0
LINE
  8
2
  6
CONTINUOUS
 62
5
 10
893.4269037122
 20
212.2281134973
 11
893.3774707122
 21
211.9838104973
  0
LINE
  8
2
  6
CONTINUOUS
 62
5
 10
893.4269037122
 20
193.0281134973
 11
893.3774707122
 21
192.7838104973
  0
LINE
  8
2
  6
CONTINUOUS
 62
5
 10
893.3622987122
 20
212.4130614973
 11
893.3388517122
 21
212.2971794973
  0
LINE
  8
2
  6
CONTINUOUS
 62
5
 10
893.3622987122
 20
193.2130614973
 11
893.3388517122
 21
193.0971794973
  0
LINE
  8
2
  6
CONTINUOUS
 62
5
 10
893.3774727122
 20
211.9838084973
 11
893.3108044698
 21
212.5247804973
  0
LINE
  8
2
  6
CONTINUOUS
 62
5
 10
893.3774727122
 20
192.7838084973
 11
893.3108044698
 21
193.3247804973
  0
LINE
  8
2
  6
CONTINUOUS
 62
5
 10
891.9433837122
 20
211.9838084973
 11
892.0100511091
 21
212.5247804973
  0
LINE
  8
2
  6
CONTINUOUS
 62
5
 10
891.9433837122
 20
192.7838084973
 11
892.0100511091
 21
193.3247804973
  0
LINE
  8
2
  6
CONTINUOUS
 62
5
 10
892.6604297122
 20
208.0747804973
 11
892.0324067122
 21
208.0747804973
  0
LINE
  8
2
  6
CONTINUOUS
 62
5
 10
892.6604297122
 20
188.8747804973
 11
892.0324067122
 21
188.8747804973
  0
LINE
  8
2
  6
CONTINUOUS
 62
5
 10
892.0324107122
 20
208.0747794973
 11
891.9433817122
 21
207.9857504973
  0
LINE
  8
2
  6
CONTINUOUS
 62
5
 10
892.0324107122
 20
188.8747794973
 11
891.9433817122
 21
188.7857504973
  0
LINE
  8
2
  6
CONTINUOUS
 62
5
 10
892.6604217122
 20
208.0747804973
 11
893.2884427122
 21
208.0747804973
  0
LINE
  8
2
  6
CONTINUOUS
 62
5
 10
892.6604217122
 20
188.8747804973
 11
893.2884427122
 21
188.8747804973
  0
LINE
  8
2
  6
CONTINUOUS
 62
5
 10
893.2884447122
 20
208.0747824973
 11
893.3774737122
 21
207.9857534973
  0
LINE
  8
2
  6
CONTINUOUS
 62
5
 10
893.2884447122
 20
188.8747824973
 11
893.3774737122
 21
188.7857534973
  0
LINE
  8
2
  6
CONTINUOUS
 62
5
 10
893.8499557122
 20
207.4470744973
 11
893.6323667122
 21
207.5143204973
  0
LINE
  8
2
  6
CONTINUOUS
 62
5
 10
893.8499557122
 20
188.2470744973
 11
893.6323667122
 21
188.3143204973
  0
LINE
  8
2
  6
CONTINUOUS
 62
5
 10
893.3623007122
 20
207.5564984973
 11
893.3388537122
 21
207.6723804973
  0
LINE
  8
2
  6
CONTINUOUS
 62
5
 10
893.3623007122
 20
188.3564984973
 11
893.3388537122
 21
188.4723804973
  0
LINE
  8
2
  6
CONTINUOUS
 62
5
 10
891.4709017122
 20
207.4470754973
 11
891.6884927122
 21
207.5143214973
  0
LINE
  8
2
  6
CONTINUOUS
 62
5
 10
891.4709017122
 20
188.2470754973
 11
891.6884927122
 21
188.3143214973
  0
LINE
  8
2
  6
CONTINUOUS
 62
5
 10
891.8939497122
 20
207.7414444973
 11
891.9433827122
 21
207.9857494973
  0
LINE
  8
2
  6
CONTINUOUS
 62
5
 10
891.8939497122
 20
188.5414444973
 11
891.9433827122
 21
188.7857494973
  0
LINE
  8
2
  6
CONTINUOUS
 62
5
 10
891.9585537122
 20
207.5564974973
 11
891.9820017122
 21
207.6723794973
  0
LINE
  8
2
  6
CONTINUOUS
 62
5
 10
891.9585537122
 20
188.3564974973
 11
891.9820017122
 21
188.4723794973
  0
LINE
  8
2
  6
CONTINUOUS
 62
5
 10
891.9433807122
 20
207.9857534973
 11
892.0125127122
 21
207.4247814973
  0
LINE
  8
2
  6
CONTINUOUS
 62
5
 10
891.9433807122
 20
188.7857534973
 11
892.0125127122
 21
188.2247814973
  0
LINE
  8
2
  6
CONTINUOUS
 62
5
 10
893.3774787122
 20
207.9857524973
 11
893.3083467122
 21
207.4247824973
  0
LINE
  8
2
  6
CONTINUOUS
 62
5
 10
893.3774787122
 20
188.7857524973
 11
893.3083467122
 21
188.2247824973
  0
LINE
  8
2
  6
CONTINUOUS
 62
5
 10
893.4269037122
 20
207.7414454973
 11
893.3774707122
 21
207.9857504973
  0
LINE
  8
2
  6
CONTINUOUS
 62
5
 10
893.4269037122
 20
188.5414454973
 11
893.3774707122
 21
188.7857504973
  0
LINE
  8
2
  6
CONTINUOUS
 62
5
 10
893.3699557122
 20
212.0447814973
 11
895.6604297122
 21
212.0447814973
  0
LINE
  8
2
  6
CONTINUOUS
 62
5
 10
893.3699557122
 20
192.8447814973
 11
895.6604297122
 21
192.8447814973
  0
LINE
  8
2
  6
CONTINUOUS
 62
5
 10
889.4604267122
 20
208.9847804973
 11
889.4604267122
 21
207.5730224973
  0
LINE
  8
2
  6
CONTINUOUS
 62
5
 10
889.4604267122
 20
189.7847804973
 11
889.4604267122
 21
188.3730224973
  0
LINE
  8
2
  6
CONTINUOUS
 62
5
 10
889.9604267122
 20
209.0347804973
 11
889.9604267122
 21
207.4247804973
  0
LINE
  8
2
  6
CONTINUOUS
 62
5
 10
889.9604267122
 20
189.8347804973
 11
889.9604267122
 21
188.2247804973
  0
LINE
  8
2
  6
CONTINUOUS
 62
5
 10
894.4104317122
 20
209.5247804973
 11
894.1604297122
 21
209.5247804973
  0
LINE
  8
2
  6
CONTINUOUS
 62
5
 10
894.4104317122
 20
190.3247804973
 11
894.1604297122
 21
190.3247804973
  0
LINE
  8
2
  6
CONTINUOUS
 62
5
 10
894.1604297122
 20
209.8925534973
 11
894.1604297122
 21
209.5247804973
  0
LINE
  8
2
  6
CONTINUOUS
 62
5
 10
894.1604297122
 20
190.6925534973
 11
894.1604297122
 21
190.3247804973
  0
LINE
  8
2
  6
CONTINUOUS
 62
5
 10
894.4104317122
 20
209.5716284973
 11
894.4104317122
 21
209.5247804973
  0
LINE
  8
2
  6
CONTINUOUS
 62
5
 10
894.4104317122
 20
190.3716284973
 11
894.4104317122
 21
190.3247804973
  0
LINE
  8
2
  6
CONTINUOUS
 62
5
 10
894.9104317122
 20
209.5247804973
 11
895.1604317124
 21
209.5247804972
  0
LINE
  8
2
  6
CONTINUOUS
 62
5
 10
894.9104317122
 20
190.3247804973
 11
895.1604317124
 21
190.3247804972
  0
LINE
  8
2
  6
CONTINUOUS
 62
5
 10
894.9104317122
 20
209.5716284973
 11
894.9104317122
 21
209.5247804973
  0
LINE
  8
2
  6
CONTINUOUS
 62
5
 10
894.9104317122
 20
190.3716284973
 11
894.9104317122
 21
190.3247804973
  0
LINE
  8
2
  6
CONTINUOUS
 62
5
 10
895.1604317122
 20
209.8925534973
 11
895.1604317124
 21
209.5247804972
  0
LINE
  8
2
  6
CONTINUOUS
 62
5
 10
895.1604317122
 20
190.6925534973
 11
895.1604317124
 21
190.3247804972
  0
LINE
  8
2
  6
CONTINUOUS
 62
5
 10
895.0666797122
 20
210.0247804973
 11
895.1144197122
 21
209.9213304973
  0
LINE
  8
2
  6
CONTINUOUS
 62
5
 10
895.0666797122
 20
190.8247804973
 11
895.1144197122
 21
190.7213304973
  0
LINE
  8
2
  6
CONTINUOUS
 62
5
 10
894.2541817122
 20
210.0247814973
 11
894.2064407122
 21
209.9213304973
  0
LINE
  8
2
  6
CONTINUOUS
 62
5
 10
894.2541817122
 20
190.8247814973
 11
894.2064407122
 21
190.7213304973
  0
LINE
  8
2
  6
CONTINUOUS
 62
5
 10
891.9104317122
 20
209.5247804973
 11
891.6604277122
 21
209.5247804973
  0
LINE
  8
2
  6
CONTINUOUS
 62
5
 10
891.9104317122
 20
190.3247804973
 11
891.6604277122
 21
190.3247804973
  0
LINE
  8
2
  6
CONTINUOUS
 62
5
 10
891.6604277122
 20
209.8925534973
 11
891.6604277122
 21
209.5247804973
  0
LINE
  8
2
  6
CONTINUOUS
 62
5
 10
891.6604277122
 20
190.6925534973
 11
891.6604277122
 21
190.3247804973
  0
LINE
  8
2
  6
CONTINUOUS
 62
5
 10
891.9104277122
 20
209.5716284973
 11
891.9104277122
 21
209.5247804973
  0
LINE
  8
2
  6
CONTINUOUS
 62
5
 10
891.9104277122
 20
190.3716284973
 11
891.9104277122
 21
190.3247804973
  0
LINE
  8
2
  6
CONTINUOUS
 62
5
 10
892.4104317122
 20
209.5247804973
 11
892.6604317122
 21
209.5247804973
  0
LINE
  8
2
  6
CONTINUOUS
 62
5
 10
892.4104317122
 20
190.3247804973
 11
892.6604317122
 21
190.3247804973
  0
LINE
  8
2
  6
CONTINUOUS
 62
5
 10
892.4104317122
 20
209.5716284973
 11
892.4104317122
 21
209.5247804973
  0
LINE
  8
2
  6
CONTINUOUS
 62
5
 10
892.4104317122
 20
190.3716284973
 11
892.4104317122
 21
190.3247804973
  0
LINE
  8
2
  6
CONTINUOUS
 62
5
 10
892.6604317122
 20
209.8925534973
 11
892.6604317122
 21
209.5247804973
  0
LINE
  8
2
  6
CONTINUOUS
 62
5
 10
892.6604317122
 20
190.6925534973
 11
892.6604317122
 21
190.3247804973
  0
LINE
  8
2
  6
CONTINUOUS
 62
5
 10
892.5666787122
 20
210.0247804973
 11
892.6144187122
 21
209.9213294973
  0
LINE
  8
2
  6
CONTINUOUS
 62
5
 10
892.5666787122
 20
190.8247804973
 11
892.6144187122
 21
190.7213294973
  0
LINE
  8
2
  6
CONTINUOUS
 62
5
 10
891.7541797122
 20
210.0247794973
 11
891.7064407122
 21
209.9213304973
  0
LINE
  8
2
  6
CONTINUOUS
 62
5
 10
891.7541797122
 20
190.8247794973
 11
891.7064407122
 21
190.7213304973
  0
LINE
  8
2
  6
CONTINUOUS
 62
5
 10
900.5704317122
 20
211.8647804973
 11
895.6604297122
 21
211.8647804973
  0
LINE
  8
2
  6
CONTINUOUS
 62
5
 10
900.5704317122
 20
192.6647804973
 11
895.6604297122
 21
192.6647804973
  0
LINE
  8
2
  6
CONTINUOUS
 62
5
 10
901.2104267122
 20
211.2247804973
 11
901.2104267122
 21
210.0247804973
  0
LINE
  8
2
  6
CONTINUOUS
 62
5
 10
901.2104267122
 20
192.0247804973
 11
901.2104267122
 21
190.8247804973
  0
LINE
  8
2
  6
CONTINUOUS
 62
5
 10
900.7104267122
 20
211.3647804973
 11
890.6104327122
 21
211.3647804973
  0
LINE
  8
2
  6
CONTINUOUS
 62
5
 10
900.7104267122
 20
192.1647804973
 11
890.6104327122
 21
192.1647804973
  0
LINE
  8
2
  6
CONTINUOUS
 62
5
 10
901.2104267122
 20
210.0247804973
 11
895.6604292122
 21
210.0247804973
  0
LINE
  8
2
  6
CONTINUOUS
 62
5
 10
901.2104267122
 20
190.8247804973
 11
895.6604292122
 21
190.8247804973
  0
LINE
  8
2
  6
CONTINUOUS
 62
5
 10
901.8604307122
 20
211.9447804973
 11
901.8604307122
 21
210.9847814973
  0
LINE
  8
2
  6
CONTINUOUS
 62
5
 10
901.8604307122
 20
192.7447804973
 11
901.8604307122
 21
191.7847814973
  0
LINE
  8
2
  6
CONTINUOUS
 62
5
 10
900.7104267122
 20
210.4047794973
 11
900.7104267122
 21
211.3647804973
  0
LINE
  8
2
  6
CONTINUOUS
 62
5
 10
900.7104267122
 20
191.2047794973
 11
900.7104267122
 21
192.1647804973
  0
LINE
  8
2
  6
CONTINUOUS
 62
5
 10
901.3604307122
 20
212.0447814973
 11
899.3699577122
 21
212.0447814973
  0
LINE
  8
2
  6
CONTINUOUS
 62
5
 10
901.3604307122
 20
192.8447814973
 11
899.3699577122
 21
192.8447814973
  0
LINE
  8
2
  6
CONTINUOUS
 62
5
 10
901.3604307122
 20
212.0447814973
 11
901.3604307122
 21
210.9347774973
  0
LINE
  8
2
  6
CONTINUOUS
 62
5
 10
901.3604307122
 20
192.8447814973
 11
901.3604307122
 21
191.7347774973
  0
LINE
  8
2
  6
CONTINUOUS
 62
5
 10
899.2884507122
 20
211.8947804973
 11
899.3774797122
 21
211.9838094973
  0
LINE
  8
2
  6
CONTINUOUS
 62
5
 10
899.2884507122
 20
192.6947804973
 11
899.3774797122
 21
192.7838094973
  0
LINE
  8
2
  6
CONTINUOUS
 62
5
 10
901.2604337122
 20
210.8347804973
 11
901.4104337122
 21
210.9847804973
  0
LINE
  8
2
  6
CONTINUOUS
 62
5
 10
901.2604337122
 20
191.6347804973
 11
901.4104337122
 21
191.7847804973
  0
LINE
  8
2
  6
CONTINUOUS
 62
5
 10
901.4104297122
 20
210.9847814973
 11
901.9104297122
 21
210.9847814973
  0
LINE
  8
2
  6
CONTINUOUS
 62
5
 10
901.4104297122
 20
191.7847814973
 11
901.9104297122
 21
191.7847814973
  0
LINE
  8
2
  6
CONTINUOUS
 62
5
 10
901.4104297122
 20
208.9847804973
 11
901.9104297122
 21
208.9847804973
  0
LINE
  8
2
  6
CONTINUOUS
 62
5
 10
901.4104297122
 20
189.7847804973
 11
901.9104297122
 21
189.7847804973
  0
LINE
  8
2
  6
CONTINUOUS
 62
5
 10
901.2604297122
 20
209.1347814973
 11
901.2604297122
 21
210.8347814973
  0
LINE
  8
2
  6
CONTINUOUS
 62
5
 10
901.2604297122
 20
189.9347814973
 11
901.2604297122
 21
191.6347814973
  0
LINE
  8
2
  6
CONTINUOUS
 62
5
 10
901.2604327122
 20
209.1347804973
 11
901.4104327122
 21
208.9847804973
  0
LINE
  8
2
  6
CONTINUOUS
 62
5
 10
901.2604327122
 20
189.9347804973
 11
901.4104327122
 21
189.7847804973
  0
LINE
  8
2
  6
CONTINUOUS
 62
5
 10
898.6604357122
 20
211.8947794973
 11
898.0324137122
 21
211.8947794973
  0
LINE
  8
2
  6
CONTINUOUS
 62
5
 10
898.6604357122
 20
192.6947794973
 11
898.0324137122
 21
192.6947794973
  0
LINE
  8
2
  6
CONTINUOUS
 62
5
 10
898.0324167122
 20
211.8947804973
 11
897.9433867122
 21
211.9838094973
  0
LINE
  8
2
  6
CONTINUOUS
 62
5
 10
898.0324167122
 20
192.6947804973
 11
897.9433867122
 21
192.7838094973
  0
LINE
  8
2
  6
CONTINUOUS
 62
5
 10
898.6604297122
 20
211.8947794973
 11
899.2884507122
 21
211.8947794973
  0
LINE
  8
2
  6
CONTINUOUS
 62
5
 10
898.6604297122
 20
192.6947794973
 11
899.2884507122
 21
192.6947794973
  0
LINE
  8
2
  6
CONTINUOUS
 62
5
 10
899.2884457122
 20
211.8947824973
 11
899.3774747122
 21
211.9838114973
  0
LINE
  8
2
  6
CONTINUOUS
 62
5
 10
899.2884457122
 20
192.6947824973
 11
899.3774747122
 21
192.7838114973
  0
LINE
  8
2
  6
CONTINUOUS
 62
5
 10
899.8499597122
 20
212.5224874973
 11
899.6323707122
 21
212.4552424973
  0
LINE
  8
2
  6
CONTINUOUS
 62
5
 10
899.8499597122
 20
193.3224874973
 11
899.6323707122
 21
193.2552424973
  0
LINE
  8
2
  6
CONTINUOUS
 62
5
 10
899.4269137122
 20
212.2281134973
 11
899.3774817122
 21
211.9838114973
  0
LINE
  8
2
  6
CONTINUOUS
 62
5
 10
899.4269137122
 20
193.0281134973
 11
899.3774817122
 21
192.7838114973
  0
LINE
  8
2
  6
CONTINUOUS
 62
5
 10
899.3623097122
 20
212.4130614973
 11
899.3388617122
 21
212.2971784973
  0
LINE
  8
2
  6
CONTINUOUS
 62
5
 10
899.3623097122
 20
193.2130614973
 11
899.3388617122
 21
193.0971784973
  0
LINE
  8
2
  6
CONTINUOUS
 62
5
 10
897.4709037122
 20
212.5224894973
 11
897.6884927122
 21
212.4552444973
  0
LINE
  8
2
  6
CONTINUOUS
 62
5
 10
897.4709037122
 20
193.3224894973
 11
897.6884927122
 21
193.2552444973
  0
LINE
  8
2
  6
CONTINUOUS
 62
5
 10
897.8939567122
 20
212.2281144973
 11
897.9433897122
 21
211.9838114973
  0
LINE
  8
2
  6
CONTINUOUS
 62
5
 10
897.8939567122
 20
193.0281144973
 11
897.9433897122
 21
192.7838114973
  0
LINE
  8
2
  6
CONTINUOUS
 62
5
 10
897.9585597122
 20
212.4130614973
 11
897.9820077122
 21
212.2971794973
  0
LINE
  8
2
  6
CONTINUOUS
 62
5
 10
897.9585597122
 20
193.2130614973
 11
897.9820077122
 21
193.0971794973
  0
LINE
  8
2
  6
CONTINUOUS
 62
5
 10
897.9433877122
 20
211.9838084973
 11
898.0100549903
 21
212.5247804973
  0
LINE
  8
2
  6
CONTINUOUS
 62
5
 10
897.9433877122
 20
192.7838084973
 11
898.0100549903
 21
193.3247804973
  0
LINE
  8
2
  6
CONTINUOUS
 62
5
 10
899.3774767122
 20
211.9838084973
 11
899.3108084698
 21
212.5247804973
  0
LINE
  8
2
  6
CONTINUOUS
 62
5
 10
899.3774767122
 20
192.7838084973
 11
899.3108084698
 21
193.3247804973
  0
LINE
  8
2
  6
CONTINUOUS
 62
5
 10
898.6604297122
 20
208.0747804973
 11
899.2884507122
 21
208.0747804973
  0
LINE
  8
2
  6
CONTINUOUS
 62
5
 10
898.6604297122
 20
188.8747804973
 11
899.2884507122
 21
188.8747804973
  0
LINE
  8
2
  6
CONTINUOUS
 62
5
 10
899.2884487122
 20
208.0747784973
 11
899.3774777122
 21
207.9857494973
  0
LINE
  8
2
  6
CONTINUOUS
 62
5
 10
899.2884487122
 20
188.8747784973
 11
899.3774777122
 21
188.7857494973
  0
LINE
  8
2
  6
CONTINUOUS
 62
5
 10
898.6604357122
 20
208.0747804973
 11
898.0324137122
 21
208.0747804973
  0
LINE
  8
2
  6
CONTINUOUS
 62
5
 10
898.6604357122
 20
188.8747804973
 11
898.0324137122
 21
188.8747804973
  0
LINE
  8
2
  6
CONTINUOUS
 62
5
 10
898.0324147122
 20
208.0747794973
 11
897.9433857122
 21
207.9857504973
  0
LINE
  8
2
  6
CONTINUOUS
 62
5
 10
898.0324147122
 20
188.8747794973
 11
897.9433857122
 21
188.7857504973
  0
LINE
  8
2
  6
CONTINUOUS
 62
5
 10
897.4709027122
 20
207.4470734973
 11
897.6884937122
 21
207.5143194973
  0
LINE
  8
2
  6
CONTINUOUS
 62
5
 10
897.4709027122
 20
188.2470734973
 11
897.6884937122
 21
188.3143194973
  0
LINE
  8
2
  6
CONTINUOUS
 62
5
 10
897.9585587122
 20
207.5564974973
 11
897.9820067122
 21
207.6723794973
  0
LINE
  8
2
  6
CONTINUOUS
 62
5
 10
897.9585587122
 20
188.3564974973
 11
897.9820067122
 21
188.4723794973
  0
LINE
  8
2
  6
CONTINUOUS
 62
5
 10
899.8499557122
 20
207.4470744973
 11
899.6323647122
 21
207.5143204973
  0
LINE
  8
2
  6
CONTINUOUS
 62
5
 10
899.8499557122
 20
188.2470744973
 11
899.6323647122
 21
188.3143204973
  0
LINE
  8
2
  6
CONTINUOUS
 62
5
 10
899.4269107122
 20
207.7414464973
 11
899.3774777122
 21
207.9857504973
  0
LINE
  8
2
  6
CONTINUOUS
 62
5
 10
899.4269107122
 20
188.5414464973
 11
899.3774777122
 21
188.7857504973
  0
LINE
  8
2
  6
CONTINUOUS
 62
5
 10
899.3623077122
 20
207.5565004973
 11
899.3388597122
 21
207.6723814973
  0
LINE
  8
2
  6
CONTINUOUS
 62
5
 10
899.3623077122
 20
188.3565004973
 11
899.3388597122
 21
188.4723814973
  0
LINE
  8
2
  6
CONTINUOUS
 62
5
 10
899.3774757122
 20
207.9857544973
 11
899.3083427122
 21
207.4247824973
  0
LINE
  8
2
  6
CONTINUOUS
 62
5
 10
899.3774757122
 20
188.7857544973
 11
899.3083427122
 21
188.2247824973
  0
LINE
  8
2
  6
CONTINUOUS
 62
5
 10
897.9433787122
 20
207.9857524973
 11
898.0125117122
 21
207.4247804973
  0
LINE
  8
2
  6
CONTINUOUS
 62
5
 10
897.9433787122
 20
188.7857524973
 11
898.0125117122
 21
188.2247804973
  0
LINE
  8
2
  6
CONTINUOUS
 62
5
 10
897.8939547122
 20
207.7414454973
 11
897.9433877122
 21
207.9857494973
  0
LINE
  8
2
  6
CONTINUOUS
 62
5
 10
897.8939547122
 20
188.5414454973
 11
897.9433877122
 21
188.7857494973
  0
LINE
  8
2
  6
CONTINUOUS
 62
5
 10
897.9509037122
 20
212.0447814973
 11
895.6604297122
 21
212.0447814973
  0
LINE
  8
2
  6
CONTINUOUS
 62
5
 10
897.9509037122
 20
192.8447814973
 11
895.6604297122
 21
192.8447814973
  0
LINE
  8
2
  6
CONTINUOUS
 62
5
 10
901.8604307122
 20
208.9847804973
 11
901.8604307122
 21
207.5730224973
  0
LINE
  8
2
  6
CONTINUOUS
 62
5
 10
901.8604307122
 20
189.7847804973
 11
901.8604307122
 21
188.3730224973
  0
LINE
  8
2
  6
CONTINUOUS
 62
5
 10
901.3604307122
 20
209.0347804973
 11
901.3604307122
 21
207.4247804973
  0
LINE
  8
2
  6
CONTINUOUS
 62
5
 10
901.3604307122
 20
189.8347804973
 11
901.3604307122
 21
188.2247804973
  0
LINE
  8
2
  6
CONTINUOUS
 62
5
 10
896.9104277122
 20
209.5247804973
 11
897.1604277122
 21
209.5247804973
  0
LINE
  8
2
  6
CONTINUOUS
 62
5
 10
896.9104277122
 20
190.3247804973
 11
897.1604277122
 21
190.3247804973
  0
LINE
  8
2
  6
CONTINUOUS
 62
5
 10
897.1604277122
 20
209.8925534973
 11
897.1604277122
 21
209.5247804973
  0
LINE
  8
2
  6
CONTINUOUS
 62
5
 10
897.1604277122
 20
190.6925534973
 11
897.1604277122
 21
190.3247804973
  0
LINE
  8
2
  6
CONTINUOUS
 62
5
 10
896.9104277122
 20
209.5716284973
 11
896.9104277122
 21
209.5247804973
  0
LINE
  8
2
  6
CONTINUOUS
 62
5
 10
896.9104277122
 20
190.3716284973
 11
896.9104277122
 21
190.3247804973
  0
LINE
  8
2
  6
CONTINUOUS
 62
5
 10
896.4104277122
 20
209.5247804973
 11
896.1604277122
 21
209.5247804973
  0
LINE
  8
2
  6
CONTINUOUS
 62
5
 10
896.4104277122
 20
190.3247804973
 11
896.1604277122
 21
190.3247804973
  0
LINE
  8
2
  6
CONTINUOUS
 62
5
 10
896.4104277122
 20
209.5716284973
 11
896.4104277122
 21
209.5247804973
  0
LINE
  8
2
  6
CONTINUOUS
 62
5
 10
896.4104277122
 20
190.3716284973
 11
896.4104277122
 21
190.3247804973
  0
LINE
  8
2
  6
CONTINUOUS
 62
5
 10
896.1604277122
 20
209.8925534973
 11
896.1604277122
 21
209.5247804973
  0
LINE
  8
2
  6
CONTINUOUS
 62
5
 10
896.1604277122
 20
190.6925534973
 11
896.1604277122
 21
190.3247804973
  0
LINE
  8
2
  6
CONTINUOUS
 62
5
 10
896.2541797122
 20
210.0247794973
 11
896.2064397122
 21
209.9213304973
  0
LINE
  8
2
  6
CONTINUOUS
 62
5
 10
896.2541797122
 20
190.8247794973
 11
896.2064397122
 21
190.7213304973
  0
LINE
  8
2
  6
CONTINUOUS
 62
5
 10
897.0666787122
 20
210.0247794973
 11
897.1144187122
 21
209.9213294973
  0
LINE
  8
2
  6
CONTINUOUS
 62
5
 10
897.0666787122
 20
190.8247794973
 11
897.1144187122
 21
190.7213294973
  0
LINE
  8
2
  6
CONTINUOUS
 62
5
 10
899.4104277122
 20
209.5247804973
 11
899.6604277122
 21
209.5247804973
  0
LINE
  8
2
  6
CONTINUOUS
 62
5
 10
899.4104277122
 20
190.3247804973
 11
899.6604277122
 21
190.3247804973
  0
LINE
  8
2
  6
CONTINUOUS
 62
5
 10
899.6604277122
 20
209.8925534973
 11
899.6604277122
 21
209.5247804973
  0
LINE
  8
2
  6
CONTINUOUS
 62
5
 10
899.6604277122
 20
190.6925534973
 11
899.6604277122
 21
190.3247804973
  0
LINE
  8
2
  6
CONTINUOUS
 62
5
 10
899.4104277122
 20
209.5716284973
 11
899.4104277122
 21
209.5247804973
  0
LINE
  8
2
  6
CONTINUOUS
 62
5
 10
899.4104277122
 20
190.3716284973
 11
899.4104277122
 21
190.3247804973
  0
LINE
  8
2
  6
CONTINUOUS
 62
5
 10
898.9104277122
 20
209.5247804973
 11
898.6604277122
 21
209.5247804973
  0
LINE
  8
2
  6
CONTINUOUS
 62
5
 10
898.9104277122
 20
190.3247804973
 11
898.6604277122
 21
190.3247804973
  0
LINE
  8
2
  6
CONTINUOUS
 62
5
 10
898.9104277122
 20
209.5716284973
 11
898.9104277122
 21
209.5247804973
  0
LINE
  8
2
  6
CONTINUOUS
 62
5
 10
898.9104277122
 20
190.3716284973
 11
898.9104277122
 21
190.3247804973
  0
LINE
  8
2
  6
CONTINUOUS
 62
5
 10
898.6604277122
 20
209.8925534973
 11
898.6604277122
 21
209.5247804973
  0
LINE
  8
2
  6
CONTINUOUS
 62
5
 10
898.6604277122
 20
190.6925534973
 11
898.6604277122
 21
190.3247804973
  0
LINE
  8
2
  6
CONTINUOUS
 62
5
 10
898.7541787122
 20
210.0247804973
 11
898.7064387122
 21
209.9213304973
  0
LINE
  8
2
  6
CONTINUOUS
 62
5
 10
898.7541787122
 20
190.8247804973
 11
898.7064387122
 21
190.7213304973
  0
LINE
  8
2
  6
CONTINUOUS
 62
5
 10
899.5666777122
 20
210.0247784973
 11
899.6144177122
 21
209.9213294973
  0
LINE
  8
2
  6
CONTINUOUS
 62
5
 10
899.5666777122
 20
190.8247784973
 11
899.6144177122
 21
190.7213294973
  0
ARC
  8
2
  6
CONTINUOUS
 62
5
 10
890.7504277122
 20
211.2247804973
 40
0.6400000000
 50
89.9999960000
 51
180.0000050000
  0
ARC
  8
2
  6
CONTINUOUS
 62
5
 10
890.7504277122
 20
192.0247804973
 40
0.6400000000
 50
89.9999960000
 51
180.0000050000
  0
ARC
  8
2
  6
CONTINUOUS
 62
5
 10
890.0604287122
 20
211.9447804973
 40
0.6000000000
 50
104.8351115821
 51
180.0000050000
  0
ARC
  8
2
  6
CONTINUOUS
 62
5
 10
890.0604287122
 20
192.7447804973
 40
0.6000000000
 50
104.8351115821
 51
180.0000050000
  0
ARC
  8
2
  6
CONTINUOUS
 62
5
 10
889.7304277122
 20
207.7447814973
 40
0.3200000000
 50
180.0000090000
 51
269.9999970000
  0
ARC
  8
2
  6
CONTINUOUS
 62
5
 10
889.7304277122
 20
188.5447814973
 40
0.3200000000
 50
180.0000090000
 51
269.9999970000
  0
ARC
  8
2
  6
CONTINUOUS
 62
5
 10
891.4684857122
 20
212.3139004973
 40
0.5000000000
 50
11.4389220000
 51
24.9457536051
  0
ARC
  8
2
  6
CONTINUOUS
 62
5
 10
891.4684857122
 20
193.1139004973
 40
0.5000000000
 50
11.4389220000
 51
24.9457536051
  0
ARC
  8
2
  6
CONTINUOUS
 62
5
 10
891.5999057122
 20
212.1686184973
 40
0.3000000000
 50
11.4389220000
 51
72.8263110000
  0
ARC
  8
2
  6
CONTINUOUS
 62
5
 10
891.5999057122
 20
192.9686184973
 40
0.3000000000
 50
11.4389220000
 51
72.8263110000
  0
ARC
  8
2
  6
CONTINUOUS
 62
5
 10
893.8523697122
 20
212.3139004973
 40
0.5000000000
 50
155.0542463949
 51
168.5610770000
  0
ARC
  8
2
  6
CONTINUOUS
 62
5
 10
893.8523697122
 20
193.1139004973
 40
0.5000000000
 50
155.0542463949
 51
168.5610770000
  0
ARC
  8
2
  6
CONTINUOUS
 62
5
 10
893.7209457122
 20
212.1686184973
 40
0.3000000000
 50
107.1736870000
 51
168.5610770000
  0
ARC
  8
2
  6
CONTINUOUS
 62
5
 10
893.7209457122
 20
192.9686184973
 40
0.3000000000
 50
107.1736870000
 51
168.5610770000
  0
ARC
  8
2
  6
CONTINUOUS
 62
5
 10
893.8523717122
 20
207.6556604973
 40
0.5000000000
 50
191.4389230000
 51
207.5006860000
  0
ARC
  8
2
  6
CONTINUOUS
 62
5
 10
893.8523717122
 20
188.4556604973
 40
0.5000000000
 50
191.4389230000
 51
207.5006860000
  0
ARC
  8
2
  6
CONTINUOUS
 62
5
 10
893.9975877122
 20
207.9247814973
 40
0.5000000000
 50
252.8263130000
 51
270.0000040000
  0
ARC
  8
2
  6
CONTINUOUS
 62
5
 10
893.9975877122
 20
188.7247814973
 40
0.5000000000
 50
252.8263130000
 51
270.0000040000
  0
ARC
  8
2
  6
CONTINUOUS
 62
5
 10
893.7209457122
 20
207.8009424973
 40
0.3000000000
 50
191.4389230000
 51
252.8263130000
  0
ARC
  8
2
  6
CONTINUOUS
 62
5
 10
893.7209457122
 20
188.6009424973
 40
0.3000000000
 50
191.4389230000
 51
252.8263130000
  0
ARC
  8
2
  6
CONTINUOUS
 62
5
 10
891.4684857122
 20
207.6556604973
 40
0.5000000000
 50
332.4993140000
 51
348.5610780000
  0
ARC
  8
2
  6
CONTINUOUS
 62
5
 10
891.4684857122
 20
188.4556604973
 40
0.5000000000
 50
332.4993140000
 51
348.5610780000
  0
ARC
  8
2
  6
CONTINUOUS
 62
5
 10
891.3232637122
 20
207.9247814973
 40
0.5000000000
 50
270.0000040000
 51
287.1736890000
  0
ARC
  8
2
  6
CONTINUOUS
 62
5
 10
891.3232637122
 20
188.7247814973
 40
0.5000000000
 50
270.0000040000
 51
287.1736890000
  0
ARC
  8
2
  6
CONTINUOUS
 62
5
 10
891.5999057122
 20
207.8009424973
 40
0.3000000000
 50
287.1736890000
 51
348.5610780000
  0
ARC
  8
2
  6
CONTINUOUS
 62
5
 10
891.5999057122
 20
188.6009424973
 40
0.3000000000
 50
287.1736890000
 51
348.5610780000
  0
ARC
  8
2
  6
CONTINUOUS
 62
5
 10
894.6604317122
 20
209.5716284973
 40
0.2500000000
 50
0.0000090000
 51
90.0000030001
  0
ARC
  8
2
  6
CONTINUOUS
 62
5
 10
894.6604317122
 20
190.3716284973
 40
0.2500000000
 50
0.0000090000
 51
90.0000030001
  0
ARC
  8
2
  6
CONTINUOUS
 62
5
 10
894.6604317122
 20
209.8925534973
 40
0.5000000000
 50
164.6655340000
 51
179.9999910000
  0
ARC
  8
2
  6
CONTINUOUS
 62
5
 10
894.6604317122
 20
190.6925534973
 40
0.5000000000
 50
164.6655340000
 51
179.9999910000
  0
ARC
  8
2
  6
CONTINUOUS
 62
5
 10
894.6604317122
 20
210.1247814973
 40
0.6500000000
 50
247.3801390000
 51
270.0000040000
  0
ARC
  8
2
  6
CONTINUOUS
 62
5
 10
894.6604317122
 20
190.9247814973
 40
0.6500000000
 50
247.3801390000
 51
270.0000040000
  0
ARC
  8
2
  6
CONTINUOUS
 62
5
 10
894.6604317122
 20
209.5716284973
 40
0.2500000000
 50
89.9999960000
 51
179.9999910000
  0
ARC
  8
2
  6
CONTINUOUS
 62
5
 10
894.6604317122
 20
190.3716284973
 40
0.2500000000
 50
89.9999960000
 51
179.9999910000
  0
ARC
  8
2
  6
CONTINUOUS
 62
5
 10
894.6604317122
 20
209.7118224973
 40
0.5000000000
 50
0.0000090000
 51
24.7724080000
  0
ARC
  8
2
  6
CONTINUOUS
 62
5
 10
894.6604317122
 20
190.5118224973
 40
0.5000000000
 50
0.0000090000
 51
24.7724080000
  0
ARC
  8
2
  6
CONTINUOUS
 62
5
 10
894.6604317122
 20
209.8925534973
 40
0.5000000000
 50
0.0000090000
 51
15.3344680000
  0
ARC
  8
2
  6
CONTINUOUS
 62
5
 10
894.6604317122
 20
190.6925534973
 40
0.5000000000
 50
0.0000090000
 51
15.3344680000
  0
ARC
  8
2
  6
CONTINUOUS
 62
5
 10
894.6604317122
 20
210.1247814973
 40
0.6500000000
 50
270.0000040000
 51
292.6198700000
  0
ARC
  8
2
  6
CONTINUOUS
 62
5
 10
894.6604317122
 20
190.9247814973
 40
0.6500000000
 50
270.0000040000
 51
292.6198700000
  0
ARC
  8
2
  6
CONTINUOUS
 62
5
 10
894.6604317122
 20
209.7118224973
 40
0.5000000000
 50
155.2275920000
 51
179.9999910000
  0
ARC
  8
2
  6
CONTINUOUS
 62
5
 10
894.6604317122
 20
190.5118224973
 40
0.5000000000
 50
155.2275920000
 51
179.9999910000
  0
ARC
  8
2
  6
CONTINUOUS
 62
5
 10
892.1604317122
 20
209.7118224973
 40
0.5000000000
 50
155.2275920000
 51
179.9999910000
  0
ARC
  8
2
  6
CONTINUOUS
 62
5
 10
892.1604317122
 20
190.5118224973
 40
0.5000000000
 50
155.2275920000
 51
179.9999910000
  0
ARC
  8
2
  6
CONTINUOUS
 62
5
 10
892.1604317122
 20
209.5716284973
 40
0.2500000000
 50
0.0000090000
 51
90.0000030001
  0
ARC
  8
2
  6
CONTINUOUS
 62
5
 10
892.1604317122
 20
190.3716284973
 40
0.2500000000
 50
0.0000090000
 51
90.0000030001
  0
ARC
  8
2
  6
CONTINUOUS
 62
5
 10
892.1604317122
 20
209.8925534973
 40
0.5000000000
 50
164.6655340000
 51
179.9999910000
  0
ARC
  8
2
  6
CONTINUOUS
 62
5
 10
892.1604317122
 20
190.6925534973
 40
0.5000000000
 50
164.6655340000
 51
179.9999910000
  0
ARC
  8
2
  6
CONTINUOUS
 62
5
 10
892.1604317122
 20
210.1247814973
 40
0.6500000000
 50
247.3801390000
 51
270.0000040000
  0
ARC
  8
2
  6
CONTINUOUS
 62
5
 10
892.1604317122
 20
190.9247814973
 40
0.6500000000
 50
247.3801390000
 51
270.0000040000
  0
ARC
  8
2
  6
CONTINUOUS
 62
5
 10
892.1604317122
 20
209.5716284973
 40
0.2500000000
 50
89.9999960000
 51
179.9999910000
  0
ARC
  8
2
  6
CONTINUOUS
 62
5
 10
892.1604317122
 20
190.3716284973
 40
0.2500000000
 50
89.9999960000
 51
179.9999910000
  0
ARC
  8
2
  6
CONTINUOUS
 62
5
 10
892.1604317122
 20
209.7118224973
 40
0.5000000000
 50
0.0000090000
 51
24.7724080000
  0
ARC
  8
2
  6
CONTINUOUS
 62
5
 10
892.1604317122
 20
190.5118224973
 40
0.5000000000
 50
0.0000090000
 51
24.7724080000
  0
ARC
  8
2
  6
CONTINUOUS
 62
5
 10
892.1604317122
 20
209.8925534973
 40
0.5000000000
 50
0.0000090000
 51
15.3344680000
  0
ARC
  8
2
  6
CONTINUOUS
 62
5
 10
892.1604317122
 20
190.6925534973
 40
0.5000000000
 50
0.0000090000
 51
15.3344680000
  0
ARC
  8
2
  6
CONTINUOUS
 62
5
 10
892.1604317122
 20
210.1247814973
 40
0.6500000000
 50
270.0000040000
 51
292.6198700000
  0
ARC
  8
2
  6
CONTINUOUS
 62
5
 10
892.1604317122
 20
190.9247814973
 40
0.6500000000
 50
270.0000040000
 51
292.6198700000
  0
ARC
  8
2
  6
CONTINUOUS
 62
5
 10
899.1604277122
 20
210.1247814973
 40
0.6500000000
 50
247.3801320000
 51
269.9999970000
  0
ARC
  8
2
  6
CONTINUOUS
 62
5
 10
899.1604277122
 20
190.9247814973
 40
0.6500000000
 50
247.3801320000
 51
269.9999970000
  0
ARC
  8
2
  6
CONTINUOUS
 62
5
 10
899.1604277122
 20
209.8925534973
 40
0.5000000000
 50
164.6655340000
 51
179.9999910000
  0
ARC
  8
2
  6
CONTINUOUS
 62
5
 10
899.1604277122
 20
190.6925534973
 40
0.5000000000
 50
164.6655340000
 51
179.9999910000
  0
ARC
  8
2
  6
CONTINUOUS
 62
5
 10
900.5704317122
 20
211.2247804973
 40
0.6400000000
 50
0.0000000000
 51
90.0000030000
  0
ARC
  8
2
  6
CONTINUOUS
 62
5
 10
900.5704317122
 20
192.0247804973
 40
0.6400000000
 50
0.0000000000
 51
90.0000030000
  0
ARC
  8
2
  6
CONTINUOUS
 62
5
 10
901.2604297122
 20
211.9447804973
 40
0.6000000000
 50
0.0000000000
 51
75.1648884179
  0
ARC
  8
2
  6
CONTINUOUS
 62
5
 10
901.2604297122
 20
192.7447804973
 40
0.6000000000
 50
0.0000000000
 51
75.1648884179
  0
ARC
  8
2
  6
CONTINUOUS
 62
5
 10
901.5904317122
 20
207.7447814973
 40
0.3200000000
 50
269.9999970000
 51
0.0000000000
  0
ARC
  8
2
  6
CONTINUOUS
 62
5
 10
901.5904317122
 20
188.5447814973
 40
0.3200000000
 50
269.9999970000
 51
0.0000000000
  0
ARC
  8
2
  6
CONTINUOUS
 62
5
 10
899.8523737122
 20
212.3139004973
 40
0.5000000000
 50
155.0542463949
 51
168.5610770000
  0
ARC
  8
2
  6
CONTINUOUS
 62
5
 10
899.8523737122
 20
193.1139004973
 40
0.5000000000
 50
155.0542463949
 51
168.5610770000
  0
ARC
  8
2
  6
CONTINUOUS
 62
5
 10
899.7209517122
 20
212.1686184973
 40
0.3000000000
 50
107.1736870001
 51
168.5610770000
  0
ARC
  8
2
  6
CONTINUOUS
 62
5
 10
899.7209517122
 20
192.9686184973
 40
0.3000000000
 50
107.1736870001
 51
168.5610770000
  0
ARC
  8
2
  6
CONTINUOUS
 62
5
 10
897.4684897122
 20
212.3139004973
 40
0.5000000000
 50
11.4389220000
 51
24.9457536051
  0
ARC
  8
2
  6
CONTINUOUS
 62
5
 10
897.4684897122
 20
193.1139004973
 40
0.5000000000
 50
11.4389220000
 51
24.9457536051
  0
ARC
  8
2
  6
CONTINUOUS
 62
5
 10
897.5999137122
 20
212.1686184973
 40
0.3000000000
 50
11.4389220000
 51
72.8263110000
  0
ARC
  8
2
  6
CONTINUOUS
 62
5
 10
897.5999137122
 20
192.9686184973
 40
0.3000000000
 50
11.4389220000
 51
72.8263110000
  0
ARC
  8
2
  6
CONTINUOUS
 62
5
 10
897.4684857122
 20
207.6556604973
 40
0.5000000000
 50
332.4993140000
 51
348.5610780000
  0
ARC
  8
2
  6
CONTINUOUS
 62
5
 10
897.4684857122
 20
188.4556604973
 40
0.5000000000
 50
332.4993140000
 51
348.5610780000
  0
ARC
  8
2
  6
CONTINUOUS
 62
5
 10
897.3232717122
 20
207.9247814973
 40
0.5000000000
 50
269.9999970000
 51
287.1736890000
  0
ARC
  8
2
  6
CONTINUOUS
 62
5
 10
897.3232717122
 20
188.7247814973
 40
0.5000000000
 50
269.9999970000
 51
287.1736890000
  0
ARC
  8
2
  6
CONTINUOUS
 62
5
 10
897.5999137122
 20
207.8009424973
 40
0.3000000000
 50
287.1736890000
 51
348.5610780000
  0
ARC
  8
2
  6
CONTINUOUS
 62
5
 10
897.5999137122
 20
188.6009424973
 40
0.3000000000
 50
287.1736890000
 51
348.5610780000
  0
ARC
  8
2
  6
CONTINUOUS
 62
5
 10
899.8523737122
 20
207.6556604973
 40
0.5000000000
 50
191.4389230000
 51
207.5006860000
  0
ARC
  8
2
  6
CONTINUOUS
 62
5
 10
899.8523737122
 20
188.4556604973
 40
0.5000000000
 50
191.4389230000
 51
207.5006860000
  0
ARC
  8
2
  6
CONTINUOUS
 62
5
 10
899.9975937122
 20
207.9247814973
 40
0.5000000000
 50
252.8263130000
 51
269.9999970000
  0
ARC
  8
2
  6
CONTINUOUS
 62
5
 10
899.9975937122
 20
188.7247814973
 40
0.5000000000
 50
252.8263130000
 51
269.9999970000
  0
ARC
  8
2
  6
CONTINUOUS
 62
5
 10
899.7209517122
 20
207.8009424973
 40
0.3000000000
 50
191.4389230000
 51
252.8263129999
  0
ARC
  8
2
  6
CONTINUOUS
 62
5
 10
899.7209517122
 20
188.6009424973
 40
0.3000000000
 50
191.4389230000
 51
252.8263129999
  0
ARC
  8
2
  6
CONTINUOUS
 62
5
 10
896.6604277122
 20
209.5716284973
 40
0.2500000000
 50
89.9999960000
 51
179.9999910000
  0
ARC
  8
2
  6
CONTINUOUS
 62
5
 10
896.6604277122
 20
190.3716284973
 40
0.2500000000
 50
89.9999960000
 51
179.9999910000
  0
ARC
  8
2
  6
CONTINUOUS
 62
5
 10
896.6604277122
 20
209.8925534973
 40
0.5000000000
 50
0.0000030000
 51
15.3344680000
  0
ARC
  8
2
  6
CONTINUOUS
 62
5
 10
896.6604277122
 20
190.6925534973
 40
0.5000000000
 50
0.0000030000
 51
15.3344680000
  0
ARC
  8
2
  6
CONTINUOUS
 62
5
 10
896.6604277122
 20
210.1247814973
 40
0.6500000000
 50
269.9999970000
 51
292.6198630000
  0
ARC
  8
2
  6
CONTINUOUS
 62
5
 10
896.6604277122
 20
190.9247814973
 40
0.6500000000
 50
269.9999970000
 51
292.6198630000
  0
ARC
  8
2
  6
CONTINUOUS
 62
5
 10
896.6604277122
 20
209.5716284973
 40
0.2500000000
 50
0.0000030000
 51
90.0000030001
  0
ARC
  8
2
  6
CONTINUOUS
 62
5
 10
896.6604277122
 20
190.3716284973
 40
0.2500000000
 50
0.0000030000
 51
90.0000030001
  0
ARC
  8
2
  6
CONTINUOUS
 62
5
 10
896.6604277122
 20
209.7118224973
 40
0.5000000000
 50
155.2275920000
 51
179.9999910000
  0
ARC
  8
2
  6
CONTINUOUS
 62
5
 10
896.6604277122
 20
190.5118224973
 40
0.5000000000
 50
155.2275920000
 51
179.9999910000
  0
ARC
  8
2
  6
CONTINUOUS
 62
5
 10
896.6604277122
 20
209.8925534973
 40
0.5000000000
 50
164.6655340000
 51
179.9999910000
  0
ARC
  8
2
  6
CONTINUOUS
 62
5
 10
896.6604277122
 20
190.6925534973
 40
0.5000000000
 50
164.6655340000
 51
179.9999910000
  0
ARC
  8
2
  6
CONTINUOUS
 62
5
 10
896.6604277122
 20
210.1247814973
 40
0.6500000000
 50
247.3801320000
 51
269.9999970000
  0
ARC
  8
2
  6
CONTINUOUS
 62
5
 10
896.6604277122
 20
190.9247814973
 40
0.6500000000
 50
247.3801320000
 51
269.9999970000
  0
ARC
  8
2
  6
CONTINUOUS
 62
5
 10
896.6604277122
 20
209.7118224973
 40
0.5000000000
 50
0.0000090000
 51
24.7724080000
  0
ARC
  8
2
  6
CONTINUOUS
 62
5
 10
896.6604277122
 20
190.5118224973
 40
0.5000000000
 50
0.0000090000
 51
24.7724080000
  0
ARC
  8
2
  6
CONTINUOUS
 62
5
 10
899.1604277122
 20
209.7118224973
 40
0.5000000000
 50
0.0000090000
 51
24.7724080000
  0
ARC
  8
2
  6
CONTINUOUS
 62
5
 10
899.1604277122
 20
190.5118224973
 40
0.5000000000
 50
0.0000090000
 51
24.7724080000
  0
ARC
  8
2
  6
CONTINUOUS
 62
5
 10
899.1604277122
 20
209.5716284973
 40
0.2500000000
 50
89.9999960000
 51
179.9999910000
  0
ARC
  8
2
  6
CONTINUOUS
 62
5
 10
899.1604277122
 20
190.3716284973
 40
0.2500000000
 50
89.9999960000
 51
179.9999910000
  0
ARC
  8
2
  6
CONTINUOUS
 62
5
 10
899.1604277122
 20
209.8925534973
 40
0.5000000000
 50
0.0000030000
 51
15.3344680000
  0
ARC
  8
2
  6
CONTINUOUS
 62
5
 10
899.1604277122
 20
190.6925534973
 40
0.5000000000
 50
0.0000030000
 51
15.3344680000
  0
ARC
  8
2
  6
CONTINUOUS
 62
5
 10
899.1604277122
 20
210.1247814973
 40
0.6500000000
 50
269.9999970000
 51
292.6198630000
  0
ARC
  8
2
  6
CONTINUOUS
 62
5
 10
899.1604277122
 20
190.9247814973
 40
0.6500000000
 50
269.9999970000
 51
292.6198630000
  0
ARC
  8
2
  6
CONTINUOUS
 62
5
 10
899.1604277122
 20
209.5716284973
 40
0.2500000000
 50
0.0000030000
 51
90.0000030001
  0
ARC
  8
2
  6
CONTINUOUS
 62
5
 10
899.1604277122
 20
190.3716284973
 40
0.2500000000
 50
0.0000030000
 51
90.0000030001
  0
ARC
  8
2
  6
CONTINUOUS
 62
5
 10
899.1604277122
 20
209.7118224973
 40
0.5000000000
 50
155.2275920000
 51
179.9999910000
  0
ARC
  8
2
  6
CONTINUOUS
 62
5
 10
899.1604277122
 20
190.5118224973
 40
0.5000000000
 50
155.2275920000
 51
179.9999910000
  0
LINE
  8
2
  6
CONTINUOUS
 62
5
 10
901.5904316955
 20
207.4247814973
 11
889.7304277122
 21
207.4247814973
  0
LINE
  8
2
  6
CONTINUOUS
 62
5
 10
901.5904316955
 20
188.2247814973
 11
889.7304277122
 21
188.2247814973
  0
LINE
  8
1
  6
CONTINUOUS
 62
5
 10
889.4104292122
 20
212.5247804973
 11
901.9104292122
 21
212.5247804973
  0
LINE
  8
1
  6
CONTINUOUS
 62
5
 10
889.4104292122
 20
193.3247804973
 11
901.9104292122
 21
193.3247804973
  0
LINE
  8
1
  6
CONTINUOUS
 62
5
 10
901.9104292122
 20
212.5247804973
 11
901.9104292122
 21
207.1247804973
  0
LINE
  8
1
  6
CONTINUOUS
 62
5
 10
901.9104292122
 20
193.3247804973
 11
901.9104292122
 21
187.9247804973
  0
LINE
  8
1
  6
CONTINUOUS
 62
5
 10
901.9104292122
 20
207.1247804973
 11
889.4104292122
 21
207.1247804973
  0
LINE
  8
1
  6
CONTINUOUS
 62
5
 10
901.9104292122
 20
187.9247804973
 11
889.4104292122
 21
187.9247804973
  0
LINE
  8
1
  6
CONTINUOUS
 62
5
 10
889.4104292122
 20
207.1247804973
 11
889.4104292122
 21
212.5247804973
  0
LINE
  8
1
  6
CONTINUOUS
 62
5
 10
889.4104292122
 20
187.9247804973
 11
889.4104292122
 21
193.3247804973
  0
POINT
  8
3
  6
CONTINUOUS
 62
5
 10
895.6604292122
 20
210.1247804973
  0
POINT
  8
3
  6
CONTINUOUS
 62
5
 10
895.6604292122
 20
190.9247804973
  0
LINE
  8
1
  6
CONTINUOUS
 62
7
 10
877.9104292122
 20
170.8247804973
 11
877.9104292122
 21
155.8247804973
  0
LINE
  8
1
  6
CONTINUOUS
 62
7
 10
911.4104292122
 20
172.8247804973
 11
879.9104292122
 21
172.8247804973
  0
LINE
  8
1
  6
CONTINUOUS
 62
7
 10
913.4104292122
 20
170.8247804973
 11
913.4104292122
 21
155.8247804973
  0
LINE
  8
1
  6
CONTINUOUS
 62
7
 10
911.4104292122
 20
153.8247804973
 11
879.9104292122
 21
153.8247804973
  0
CIRCLE
  8
3
  6
CONTINUOUS
 62
7
 10
881.1604292122
 20
163.3247804973
 40
3.0000000000
  0
LINE
  8
3
  6
CONTINUOUS
 62
6
 10
879.8219770907
 20
161.9863283758
 11
882.4988813337
 21
164.6632326188
  0
LINE
  8
3
  6
CONTINUOUS
 62
6
 10
882.4988813337
 20
161.9863283758
 11
879.8219770907
 21
164.6632326188
  0
CIRCLE
  8
3
  6
CONTINUOUS
 62
6
 10
881.1604292122
 20
163.3247804973
 40
2.6500000000
  0
CIRCLE
  8
3
  6
CONTINUOUS
 62
7
 10
910.1604292122
 20
163.3247804973
 40
3.0000000000
  0
LINE
  8
3
  6
CONTINUOUS
 62
6
 10
908.8219770907
 20
161.9863283758
 11
911.4988813337
 21
164.6632326188
  0
LINE
  8
3
  6
CONTINUOUS
 62
6
 10
911.4988813337
 20
161.9863283758
 11
908.8219770907
 21
164.6632326188
  0
CIRCLE
  8
3
  6
CONTINUOUS
 62
6
 10
910.1604292122
 20
163.3247804973
 40
2.6500000000
  0
LINE
  8
1
  6
CONTINUOUS
 62
7
 10
884.4104292122
 20
170.6747804973
 11
884.4104292122
 21
155.9747804973
  0
LINE
  8
1
  6
CONTINUOUS
 62
7
 10
905.9104292122
 20
171.6747804973
 11
885.4104292122
 21
171.6747804973
  0
LINE
  8
1
  6
CONTINUOUS
 62
7
 10
906.9104292122
 20
170.6747804973
 11
906.9104292122
 21
155.9747804973
  0
LINE
  8
1
  6
CONTINUOUS
 62
7
 10
905.9104292122
 20
154.9747804973
 11
885.4104292122
 21
154.9747804973
  0
ARC
  8
1
  6
CONTINUOUS
 62
7
 10
885.4104292122
 20
155.9747804973
 40
1.0000000000
 50
180.0000000000
 51
270.0000000000
  0
ARC
  8
1
  6
CONTINUOUS
 62
7
 10
885.4104292122
 20
170.6747804973
 40
1.0000000000
 50
90.0000000000
 51
180.0000000000
  0
ARC
  8
1
  6
CONTINUOUS
 62
7
 10
905.9104292122
 20
155.9747804973
 40
1.0000000000
 50
270.0000000000
 51
0.0000000000
  0
ARC
  8
1
  6
CONTINUOUS
 62
7
 10
905.9104292122
 20
170.6747804973
 40
1.0000000000
 50
0.0000000000
 51
90.0000000000
  0
ARC
  8
1
  6
CONTINUOUS
 62
7
 10
879.9104292122
 20
155.8247804973
 40
2.0000000000
 50
180.0000000000
 51
270.0000000000
  0
ARC
  8
1
  6
CONTINUOUS
 62
7
 10
879.9104292122
 20
170.8247804973
 40
2.0000000000
 50
90.0000000000
 51
180.0000000000
  0
ARC
  8
1
  6
CONTINUOUS
 62
7
 10
911.4104292122
 20
155.8247804973
 40
2.0000000000
 50
270.0000000000
 51
0.0000000000
  0
ARC
  8
1
  6
CONTINUOUS
 62
7
 10
911.4104292122
 20
170.8247804973
 40
2.0000000000
 50
0.0000000000
 51
90.0000000000
  0
POINT
  8
3
  6
CONTINUOUS
 62
7
 10
895.6604292122
 20
163.3247804973
  0
POINT
  8
3
  6
CONTINUOUS
 62
5
 10
895.6604292122
 20
163.3247804973
  0
POINT
  8
3
  6
CONTINUOUS
 62
7
 10
895.6604292122
 20
163.3247804973
  0
LINE
  8
2
  6
CONTINUOUS
 62
5
 10
888.1604292122
 20
165.0997804973
 11
888.1604292122
 21
163.0046720967
  0
LINE
  8
2
  6
CONTINUOUS
 62
5
 10
888.3604292122
 20
163.0046720967
 11
888.3604292122
 21
165.0997804973
  0
LINE
  8
2
  6
CONTINUOUS
 62
5
 10
890.2604292122
 20
163.5072804973
 11
890.2604292122
 21
163.2913516958
  0
LINE
  8
2
  6
CONTINUOUS
 62
5
 10
889.5853045247
 20
161.6529380573
 11
890.1703557660
 21
160.9238989800
  0
LINE
  8
2
  6
CONTINUOUS
 62
5
 10
890.3263393968
 20
161.0490752835
 11
889.7412881554
 21
161.7781143607
  0
LINE
  8
2
  6
CONTINUOUS
 62
5
 10
891.4354292122
 20
162.9422804973
 11
891.4354292122
 21
162.8747804973
  0
LINE
  8
2
  6
CONTINUOUS
 62
5
 10
891.8854292122
 20
162.8747804973
 11
891.8854292122
 21
162.9422804973
  0
LINE
  8
2
  6
CONTINUOUS
 62
5
 10
891.9354292122
 20
163.7747804973
 11
891.9354292122
 21
163.7072804973
  0
LINE
  8
2
  6
CONTINUOUS
 62
5
 10
892.3854292122
 20
163.7072804973
 11
892.3854292122
 21
163.7747804973
  0
LINE
  8
2
  6
CONTINUOUS
 62
5
 10
892.4354292122
 20
162.9422804973
 11
892.4354292122
 21
162.8747804973
  0
LINE
  8
2
  6
CONTINUOUS
 62
5
 10
892.8854292122
 20
162.8747804973
 11
892.8854292122
 21
162.9422804973
  0
LINE
  8
2
  6
CONTINUOUS
 62
5
 10
892.9354292122
 20
163.7747804973
 11
892.9354292122
 21
163.7072804973
  0
LINE
  8
2
  6
CONTINUOUS
 62
5
 10
893.3854292122
 20
163.7072804973
 11
893.3854292122
 21
163.7747804973
  0
LINE
  8
2
  6
CONTINUOUS
 62
5
 10
893.4354292122
 20
162.9422804973
 11
893.4354292122
 21
162.8747804973
  0
LINE
  8
2
  6
CONTINUOUS
 62
5
 10
888.7453454479
 20
162.0948888980
 11
889.4028873301
 21
161.7948888980
  0
LINE
  8
2
  6
CONTINUOUS
 62
5
 10
889.4859040829
 20
161.9768455377
 11
888.8283622008
 21
162.2768455377
  0
LINE
  8
2
  6
CONTINUOUS
 62
5
 10
893.8854292122
 20
162.8747804973
 11
893.8854292122
 21
162.9422804973
  0
LINE
  8
2
  6
CONTINUOUS
 62
5
 10
893.9354292122
 20
163.7747804973
 11
893.9354292122
 21
163.7072804973
  0
LINE
  8
2
  6
CONTINUOUS
 62
5
 10
894.3854292122
 20
163.7072804973
 11
894.3854292122
 21
163.7747804973
  0
LINE
  8
2
  6
CONTINUOUS
 62
5
 10
894.4354292122
 20
162.9422804973
 11
894.4354292122
 21
162.8747804973
  0
LINE
  8
2
  6
CONTINUOUS
 62
5
 10
890.9502739196
 20
160.5497804973
 11
900.3705845048
 21
160.5497804973
  0
LINE
  8
2
  6
CONTINUOUS
 62
5
 10
900.3705845048
 20
160.7497804973
 11
890.9502739196
 21
160.7497804973
  0
LINE
  8
2
  6
CONTINUOUS
 62
5
 10
894.8854292122
 20
162.8747804973
 11
894.8854292122
 21
162.9422804973
  0
LINE
  8
2
  6
CONTINUOUS
 62
5
 10
894.9354292122
 20
163.7747804973
 11
894.9354292122
 21
163.7072804973
  0
LINE
  8
2
  6
CONTINUOUS
 62
5
 10
895.3854292122
 20
163.7072804973
 11
895.3854292122
 21
163.7747804973
  0
LINE
  8
2
  6
CONTINUOUS
 62
5
 10
895.4354292122
 20
162.9422804973
 11
895.4354292122
 21
162.8747804973
  0
LINE
  8
2
  6
CONTINUOUS
 62
5
 10
890.4032863551
 20
163.0996887263
 11
890.9032863551
 21
162.9506175278
  0
LINE
  8
2
  6
CONTINUOUS
 62
5
 10
890.4604292122
 20
163.2913516958
 11
890.9604292122
 21
163.1422804973
  0
LINE
  8
2
  6
CONTINUOUS
 62
5
 10
895.8854292122
 20
162.8747804973
 11
895.8854292122
 21
162.9422804973
  0
LINE
  8
2
  6
CONTINUOUS
 62
5
 10
895.9354292122
 20
163.7747804973
 11
895.9354292122
 21
163.7072804973
  0
LINE
  8
2
  6
CONTINUOUS
 62
5
 10
900.3604292122
 20
163.1422804973
 11
900.8604292122
 21
163.2913516958
  0
LINE
  8
2
  6
CONTINUOUS
 62
5
 10
900.4175720694
 20
162.9506175278
 11
900.9175720694
 21
163.0996887263
  0
LINE
  8
2
  6
CONTINUOUS
 62
5
 10
900.4175720694
 20
162.9506175278
 11
900.3604292125
 21
162.9422804973
  0
LINE
  8
2
  6
CONTINUOUS
 62
5
 10
896.3854292122
 20
163.7072804973
 11
896.3854292122
 21
163.7747804973
  0
LINE
  8
2
  6
CONTINUOUS
 62
5
 10
896.4354292122
 20
162.9422804973
 11
896.4354292122
 21
162.8747804973
  0
LINE
  8
2
  6
CONTINUOUS
 62
5
 10
891.4354292122
 20
162.8747804973
 11
891.8854292122
 21
162.8747804973
  0
LINE
  8
2
  6
CONTINUOUS
 62
5
 10
892.4354292122
 20
162.8747804973
 11
892.8854292122
 21
162.8747804973
  0
LINE
  8
2
  6
CONTINUOUS
 62
5
 10
893.4354292122
 20
162.8747804973
 11
893.8854292122
 21
162.8747804973
  0
LINE
  8
2
  6
CONTINUOUS
 62
5
 10
894.4354292122
 20
162.8747804973
 11
894.8854292122
 21
162.8747804973
  0
LINE
  8
2
  6
CONTINUOUS
 62
5
 10
895.4354292122
 20
162.8747804973
 11
895.8854292122
 21
162.8747804973
  0
LINE
  8
2
  6
CONTINUOUS
 62
5
 10
896.4354292122
 20
162.8747804973
 11
896.8854292122
 21
162.8747804973
  0
LINE
  8
2
  6
CONTINUOUS
 62
5
 10
897.4354292122
 20
162.8747804973
 11
897.8854292122
 21
162.8747804973
  0
LINE
  8
2
  6
CONTINUOUS
 62
5
 10
898.4354292122
 20
162.8747804973
 11
898.8854292122
 21
162.8747804973
  0
LINE
  8
2
  6
CONTINUOUS
 62
5
 10
899.4354292122
 20
162.8747804973
 11
899.8854292122
 21
162.8747804973
  0
LINE
  8
2
  6
CONTINUOUS
 62
5
 10
890.9604292122
 20
162.9422804973
 11
900.3604292122
 21
162.9422804973
  0
LINE
  8
2
  6
CONTINUOUS
 62
5
 10
890.9604292122
 20
163.1422804973
 11
900.3604292122
 21
163.1422804973
  0
LINE
  8
2
  6
CONTINUOUS
 62
5
 10
896.8854292122
 20
162.8747804973
 11
896.8854292122
 21
162.9422804973
  0
LINE
  8
2
  6
CONTINUOUS
 62
5
 10
896.9354292122
 20
163.7747804973
 11
896.9354292122
 21
163.7072804973
  0
LINE
  8
2
  6
CONTINUOUS
 62
5
 10
897.3854292122
 20
163.7072804973
 11
897.3854292122
 21
163.7747804973
  0
LINE
  8
2
  6
CONTINUOUS
 62
5
 10
897.4354292122
 20
162.9422804973
 11
897.4354292122
 21
162.8747804973
  0
LINE
  8
2
  6
CONTINUOUS
 62
5
 10
890.2604292122
 20
163.2913516958
 11
890.4604292122
 21
163.2913516958
  0
LINE
  8
2
  6
CONTINUOUS
 62
5
 10
900.8604292122
 20
163.2913516958
 11
901.0604292122
 21
163.2913516958
  0
LINE
  8
2
  6
CONTINUOUS
 62
5
 10
890.2604292122
 20
163.5072804973
 11
901.0604292122
 21
163.5072804973
  0
LINE
  8
2
  6
CONTINUOUS
 62
5
 10
900.8604292122
 20
163.7072804973
 11
890.4604292122
 21
163.7072804973
  0
LINE
  8
2
  6
CONTINUOUS
 62
5
 10
897.8854292122
 20
162.8747804973
 11
897.8854292122
 21
162.9422804973
  0
LINE
  8
2
  6
CONTINUOUS
 62
5
 10
897.9354292122
 20
163.7747804973
 11
897.9354292122
 21
163.7072804973
  0
LINE
  8
2
  6
CONTINUOUS
 62
5
 10
900.3854292122
 20
163.7747804973
 11
899.9354292122
 21
163.7747804973
  0
LINE
  8
2
  6
CONTINUOUS
 62
5
 10
899.3854292122
 20
163.7747804973
 11
898.9354292122
 21
163.7747804973
  0
LINE
  8
2
  6
CONTINUOUS
 62
5
 10
898.3854292122
 20
163.7747804973
 11
897.9354292122
 21
163.7747804973
  0
LINE
  8
2
  6
CONTINUOUS
 62
5
 10
897.3854292122
 20
163.7747804973
 11
896.9354292122
 21
163.7747804973
  0
LINE
  8
2
  6
CONTINUOUS
 62
5
 10
896.3854292122
 20
163.7747804973
 11
895.9354292122
 21
163.7747804973
  0
LINE
  8
2
  6
CONTINUOUS
 62
5
 10
895.3854292122
 20
163.7747804973
 11
894.9354292122
 21
163.7747804973
  0
LINE
  8
2
  6
CONTINUOUS
 62
5
 10
894.3854292122
 20
163.7747804973
 11
893.9354292122
 21
163.7747804973
  0
LINE
  8
2
  6
CONTINUOUS
 62
5
 10
893.3854292122
 20
163.7747804973
 11
892.9354292122
 21
163.7747804973
  0
LINE
  8
2
  6
CONTINUOUS
 62
5
 10
892.3854292122
 20
163.7747804973
 11
891.9354292122
 21
163.7747804973
  0
LINE
  8
2
  6
CONTINUOUS
 62
5
 10
898.3854292122
 20
163.7072804973
 11
898.3854292122
 21
163.7747804973
  0
LINE
  8
2
  6
CONTINUOUS
 62
5
 10
898.4354292122
 20
162.9422804973
 11
898.4354292122
 21
162.8747804973
  0
LINE
  8
2
  6
CONTINUOUS
 62
5
 10
902.4924962236
 20
162.2768455377
 11
901.8349543415
 21
161.9768455377
  0
LINE
  8
2
  6
CONTINUOUS
 62
5
 10
901.9179710944
 20
161.7948888980
 11
902.5755129765
 21
162.0948888980
  0
LINE
  8
2
  6
CONTINUOUS
 62
5
 10
898.8854292122
 20
162.8747804973
 11
898.8854292122
 21
162.9422804973
  0
LINE
  8
2
  6
CONTINUOUS
 62
5
 10
898.9354292122
 20
163.7747804973
 11
898.9354292122
 21
163.7072804973
  0
LINE
  8
2
  6
CONTINUOUS
 62
5
 10
899.3854292122
 20
163.7072804973
 11
899.3854292122
 21
163.7747804973
  0
LINE
  8
2
  6
CONTINUOUS
 62
5
 10
899.4354292122
 20
162.9422804973
 11
899.4354292122
 21
162.8747804973
  0
LINE
  8
2
  6
CONTINUOUS
 62
5
 10
889.1604292122
 20
165.8997804973
 11
902.1604292122
 21
165.8997804973
  0
LINE
  8
2
  6
CONTINUOUS
 62
5
 10
899.8854292122
 20
162.8747804973
 11
899.8854292122
 21
162.9422804973
  0
LINE
  8
2
  6
CONTINUOUS
 62
5
 10
899.9354292122
 20
163.7747804973
 11
899.9354292122
 21
163.7072804973
  0
LINE
  8
2
  6
CONTINUOUS
 62
5
 10
900.3854292122
 20
163.7072804973
 11
900.3854292122
 21
163.7747804973
  0
LINE
  8
2
  6
CONTINUOUS
 62
5
 10
901.5795702690
 20
161.7781143607
 11
900.9945190277
 21
161.0490752835
  0
LINE
  8
2
  6
CONTINUOUS
 62
5
 10
901.1505026584
 20
160.9238989800
 11
901.7355538997
 21
161.6529380573
  0
LINE
  8
2
  6
CONTINUOUS
 62
5
 10
901.0604292122
 20
163.2913516958
 11
901.0604292122
 21
163.5072804973
  0
LINE
  8
2
  6
CONTINUOUS
 62
5
 10
902.9604292122
 20
165.0997804973
 11
902.9604292122
 21
163.0046720967
  0
LINE
  8
2
  6
CONTINUOUS
 62
5
 10
903.1604292122
 20
163.0046720967
 11
903.1604292122
 21
165.0997804973
  0
ARC
  8
2
  6
CONTINUOUS
 62
5
 10
890.9502739196
 20
161.5497804973
 40
1.0000000000
 50
218.7469177681
 51
270.0000000000
  0
ARC
  8
2
  6
CONTINUOUS
 62
5
 10
889.1604292122
 20
163.0046720967
 40
1.0000000000
 50
180.0000000000
 51
245.4754083710
  0
ARC
  8
2
  6
CONTINUOUS
 62
5
 10
890.9502739196
 20
161.5497804973
 40
0.8000171506
 50
218.7469177681
 51
270.0000000000
  0
ARC
  8
2
  6
CONTINUOUS
 62
5
 10
889.1604292122
 20
163.0046720967
 40
0.8000035842
 50
180.0000000000
 51
245.4754083710
  0
ARC
  8
2
  6
CONTINUOUS
 62
5
 10
889.1953454479
 20
161.3399972986
 40
0.6999959507
 50
38.7469177681
 51
65.4754083710
  0
ARC
  8
2
  6
CONTINUOUS
 62
5
 10
889.1953454479
 20
161.3399972986
 40
0.5000000000
 50
38.7469177681
 51
65.4754083710
  0
ARC
  8
2
  6
CONTINUOUS
 62
5
 10
889.1604292122
 20
165.0997804973
 40
1.0000000000
 50
90.0000000000
 51
180.0000000000
  0
ARC
  8
2
  6
CONTINUOUS
 62
5
 10
889.1604292122
 20
165.0997804973
 40
0.7999925726
 50
90.0000000000
 51
180.0000000000
  0
ARC
  8
2
  6
CONTINUOUS
 62
5
 10
890.9604292122
 20
163.1422804973
 40
0.2000000000
 50
253.3984504010
 51
270.0000000000
  0
ARC
  8
2
  6
CONTINUOUS
 62
5
 10
890.4604292122
 20
163.2913516958
 40
0.2000000000
 50
180.0000000000
 51
253.3984504010
  0
ARC
  8
2
  6
CONTINUOUS
 62
5
 10
890.4604292122
 20
163.5072804973
 40
0.2000000000
 50
90.0000000000
 51
180.0000000000
  0
ARC
  8
2
  6
CONTINUOUS
 62
5
 10
902.1604292122
 20
163.0046720967
 40
1.0000000000
 50
294.5245916290
 51
0.0000000000
  0
ARC
  8
2
  6
CONTINUOUS
 62
5
 10
900.3705845048
 20
161.5497804973
 40
1.0000000000
 50
270.0000000000
 51
321.2530822319
  0
ARC
  8
2
  6
CONTINUOUS
 62
5
 10
900.3705845048
 20
161.5497804973
 40
0.8000171506
 50
270.0000000000
 51
321.2530822319
  0
ARC
  8
2
  6
CONTINUOUS
 62
5
 10
902.1604292122
 20
163.0046720967
 40
0.8000035842
 50
294.5245916290
 51
0.0000000000
  0
ARC
  8
2
  6
CONTINUOUS
 62
5
 10
902.1255129765
 20
161.3399972986
 40
0.6999959507
 50
114.5245916290
 51
141.2530822319
  0
ARC
  8
2
  6
CONTINUOUS
 62
5
 10
902.1255129765
 20
161.3399972986
 40
0.5000000000
 50
114.5245916290
 51
141.2530822319
  0
ARC
  8
2
  6
CONTINUOUS
 62
5
 10
900.8604292122
 20
163.5072804973
 40
0.2000000000
 50
0.0000000000
 51
90.0000000000
  0
ARC
  8
2
  6
CONTINUOUS
 62
5
 10
900.8604292122
 20
163.2913516958
 40
0.2000000000
 50
286.6015495990
 51
0.0000000000
  0
ARC
  8
2
  6
CONTINUOUS
 62
5
 10
900.3604292122
 20
163.1422804973
 40
0.2000000000
 50
270.0000000000
 51
286.6015495990
  0
ARC
  8
2
  6
CONTINUOUS
 62
5
 10
902.1604292122
 20
165.0997804973
 40
1.0000000000
 50
0.0000000000
 51
90.0000000000
  0
ARC
  8
2
  6
CONTINUOUS
 62
5
 10
902.1604292122
 20
165.0997804973
 40
0.7999925726
 50
0.0000000000
 51
90.0000000000
  0
LINE
  8
3
  6
CONTINUOUS
 62
5
 10
902.1604292122
 20
166.0997804973
 11
889.1604292122
 21
166.0997804973
  0
POINT
  8
3
  6
CONTINUOUS
 62
5
 10
895.6604292122
 20
163.3247804973
  0
POINT
  8
1
  6
CONTINUOUS
 62
7
 10
895.6604292122
 20
200.5247804973
  0
INSERT
  8
1
  6
CONTINUOUS
 62
5
  2
BALN6
 10
913.4104292122
 20
233.9489221715
  0
INSERT
  8
1
  6
CONTINUOUS
 62
5
  2
BALN7
 10
910.1604292122
 20
229.3247804973
  0
INSERT
  8
1
  6
CONTINUOUS
 62
5
  2
BALN8
 10
913.4104292122
 20
214.7489221715
  0
INSERT
  8
1
  6
CONTINUOUS
 62
5
  2
BALN9
 10
913.4104292122
 20
195.5489221715
  0
INSERT
  8
1
  6
CONTINUOUS
 62
5
  2
BALN10
 10
913.4104292122
 20
167.9489221715
  0
TEXT
  8
5
  6
CONTINUOUS
 62
7
 10
1007.815703
 20
286.657253
 40
4.000000
  1
ﾋﾞｽ
 41
0.815217
 50
0.000000
 51
0.000000
 72
   5
 73
   0
 11
1013.815703
 21
286.657253
  0
TEXT
  8
5
  6
CONTINUOUS
 62
7
 10
1027.815703
 20
286.957253
 40
3.400000
  1
M3×8 ｻﾗ (M3×8 小ﾜｾﾑｽ)
 41
0.780720
 50
0.000000
 51
0.000000
 72
   5
 73
   0
 11
1066.915703
 21
286.957253
  0
TEXT
  8
1
  6
CONTINUOUS
 62
7
 10
948.013706
 20
241.154953
 40
4.000000
  1
裏面　USB-A 3.0
 41
0.800427
 50
0.000000
 51
0.000000
 72
   5
 73
   0
 11
978.013706
 21
241.154953
  0
TEXT
  8
1
  6
CONTINUOUS
 62
7
 10
948.157688
 20
175.154953
 40
4.000000
  1
裏面　HDMI
 41
0.830565
 50
0.000000
 51
0.000000
 72
   5
 73
   0
 11
968.157688
 21
175.154953
  0
TEXT
  8
5
  6
CONTINUOUS
 62
7
 10
1038.533230
 20
87.796785
 40
3.500000
  1
Panel Interface
 41
0.759109
 50
0.000000
 51
0.000000
 72
   5
 73
   0
 11
1064.783230
 21
87.796785
  0
POINT
  8
1
  6
CONTINUOUS
 62
7
 10
881.1604292122
 20
229.3247804973
  0
POINT
  8
1
  6
CONTINUOUS
 62
7
 10
881.1604292122
 20
210.1247804973
  0
POINT
  8
1
  6
CONTINUOUS
 62
7
 10
881.1604292122
 20
190.9247804973
  0
POINT
  8
1
  6
CONTINUOUS
 62
7
 10
881.1604292122
 20
163.3247804973
  0
ENDSEC
  0
EOF
